💬 Мини-чат

Убедительная просьба не обсуждать тут политику.
AdminЛёшикоБэст, вроде потихоньку идёт. Подождем, если не докачается, то встану.
AdminЛёшикоБэст, перекачайте торрент, а то в профиле не отображается ждете или уже нет
ЛёшикоБэстРаздайте, пожалуйста, Неудержимые / The Expendables (2010) [Theatrical Cut] BDRip 1080p [HEVC] 10 bit от Spartanec1308
OldGamerДа, есть.
ЛёшикоБэстДоброго вечера) Скажите пожалуйста, есть ли в планах сделать релиз дилогии "Зорро" с Антонио Бандерасом?
HANNIBALAdmin, 👍
AdminГоро, встал
ГороРаздайте, пожалуйста, Хищники / Predators (2010) BDRip 1080p [HEVC] 10 bit от HANNIBAL
AdminHANNIBAL, привет. Не помню за сколько брал, но продление в этот раз обошлось примерно в $14 со всякими комиссиями. А аренда VDS обходится примерно в $30-35 за год. Не исключено, что всё это подорожает. Пока что пожертвования с трудом покрывают расходы. Иногда если требуется и со своего кармана оплачиваю, не страшно. Прорвемся.
HANNIBALсколько сейчас стоит
HANNIBALAdmin, ПРИВЕТ
AdminНаконец-то получил банковскую карту. Продлил доменное имя (адрес сайта) на год.
  • ivan_1965
Отправка сообщений доступна только зарегистрированным/авторизованным пользователям.
Онлайн (за 10 мин.): 1

Прошлой ночью в Сохо / Last Night in Soho (2021) [iTunes] BDRip 1080p [HEVC] 10 bit от HANNIBAL

HEVC
10 bit
Обложка Прошлой ночью в Сохо / Last Night in Soho (2021) [iTunes] BDRip 1080p [HEVC] 10 bit от HANNIBAL Год: 2021
Страна: Великобритания
Студия: Complete Fiction, Film4, Focus Features International (FFI), Perfect World (Beijing) Pictures Co., Perfect World Pictures
Жанр: Драма, Детектив, Триллер
Продолжительность: 01:56:32

Режиссер: Эдгар Райт
В ролях: Томасин Маккензи, Аня Тейлор-Джой, Мэтт Смит, Дайана Ригг, Эйми Кассеттари, Рита Тушингем, Колин Мейс, Майкл Аджао, Синнов Карлсен, Джесси Мей Ли, Кассиус Нельсон, Ребекка Харрод, Алан Махон, Коннор Калланд, Джинн МакЛайнн , Теренс Стэмп, Джеки-Ли Прайс, Элизабет Беррингтон, Джеймс Фелпс

Описание: История девушки, которая учится в Лондоне на дизайнера одежды и мистическим образом перемещается в 1960-е годы, где встречает своего кумира — ослепительную начинающую певицу. Лондон того периода совсем не так привлекателен, как кажется сначала, а время может сыграть с ней злую шутку.


Видео: 1920x800, ~4467 Кбит/сек
Аудио1: AC3, 6 ch, 384 Kbps - РусскийРусский, Дублированный (iTunes)
Аудио2: AC3, 6 ch, 640 Kbps - EnglishEnglish, Original
Субтитры: Русские(18+), английские (SDH)

Как за пару секунд удалить ненужные аудиодорожки и субтитры (Внимание! После удаления вы не сможете поддержать раздачу)

Лог (x265 info)
x265 [info]: frame I: 2143, Avg QP:16.45 kb/s: 24485.63
x265 [info]: frame P: 32857, Avg QP:17.94 kb/s: 10168.35
x265 [info]: frame B: 132663, Avg QP:20.49 kb/s: 2729.80
x265 [info]: Weighted P-Frames: Y:9.4% UV:8.2%
x265 [info]: Weighted B-Frames: Y:9.0% UV:7.2%
x265 [info]: consecutive B-frames: 11.3% 4.4% 6.9% 26.5% 9.9% 24.4% 5.2% 8.0% 1.0% 0.7% 0.3% 1.4%
Медиаинфо
General
Unique ID : 301358952552439957080988940631613329261 (0xE2B79F81B62A162CF13B24D6ADA34F6D)
Complete name : G:\HEVC\Last Night in Soho (2021) BDRip-HEVC 1080p 10 bit.mkv
Format : Matroska
Format version : Version 4
File size : 4.47 GiB
Duration : 1 h 56 min
Overall bit rate : 5 493 kb/s
Movie name : by-HANNIBAL
Encoded date : UTC 2022-01-28 21:41:56
Writing application : mkvmerge v63.0.0 ('Everything') 64-bit
Writing library : libebml v1.4.2 + libmatroska v1.6.4
Cover : Yes
Attachments : cover.jpg

Video
ID : 1
Format : HEVC
Format/Info : High Efficiency Video Coding
Format profile : Main 10@L4.1@High
Codec ID : V_MPEGH/ISO/HEVC
Duration : 1 h 56 min
Bit rate : 4 467 kb/s
Width : 1 920 pixels
Height : 800 pixels
Display aspect ratio : 2.40:1
Frame rate mode : Constant
Frame rate : 23.976 (23976/1000) FPS
Original frame rate : 23.976 (24000/1001) FPS
Color space : YUV
Chroma subsampling : 4:2:0
Bit depth : 10 bits
Bits/(Pixel*Frame) : 0.121
Stream size : 3.64 GiB (81%)
Writing library : x265 3.5+1-ce882936d:[Windows][GCC 10.2.0][64 bit] 10bit
Encoding settings : cpuid=1111039 / frame-threads=3 / numa-pools=12 / wpp / no-pmode / no-pme / no-psnr / no-ssim / log-level=2 / input-csp=1 / input-res=1920x800 / interlace=0 / total-frames=167663 / level-idc=41 / high-tier=1 / uhd-bd=0 / ref=5 / no-allow-non-conformance / no-repeat-headers / annexb / no-aud / no-hrd / info / hash=0 / no-temporal-layers / open-gop / min-keyint=23 / keyint=240 / gop-lookahead=0 / bframes=11 / b-adapt=2 / b-pyramid / bframe-bias=0 / rc-lookahead=60 / lookahead-slices=4 / scenecut=40 / hist-scenecut=0 / radl=0 / no-splice / no-intra-refresh / ctu=32 / min-cu-size=8 / rect / amp / max-tu-size=32 / tu-inter-depth=4 / tu-intra-depth=4 / limit-tu=0 / rdoq-level=2 / dynamic-rd=0.00 / no-ssim-rd / signhide / no-tskip / nr-intra=0 / nr-inter=0 / no-constrained-intra / no-strong-intra-smoothing / max-merge=5 / limit-refs=0 / no-limit-modes / me=3 / subme=7 / merange=57 / temporal-mvp / no-frame-dup / no-hme / weightp / weightb / no-analyze-src-pics / deblock=-3:-3 / no-sao / no-sao-non-deblock / rd=4 / selective-sao=0 / no-early-skip / rskip / no-fast-intra / no-tskip-fast / no-cu-lossless / b-intra / no-splitrd-skip / rdpenalty=0 / psy-rd=2.00 / psy-rdoq=1.00 / no-rd-refine / no-lossless / cbqpoffs=0 / crqpoffs=0 / rc=crf / crf=20.0 / qcomp=0.70 / qpstep=4 / stats-write=0 / stats-read=0 / vbv-maxrate=50000 / vbv-bufsize=50000 / vbv-init=0.9 / min-vbv-fullness=50.0 / max-vbv-fullness=80.0 / crf-max=0.0 / crf-min=0.0 / ipratio=1.40 / pbratio=1.30 / aq-mode=2 / aq-strength=1.00 / no-cutree / zone-count=0 / no-strict-cbr / qg-size=32 / no-rc-grain / qpmax=69 / qpmin=0 / no-const-vbv / sar=1 / overscan=0 / videoformat=5 / range=0 / colorprim=1 / transfer=1 / colormatrix=1 / chromaloc=0 / display-window=0 / cll=0,0 / min-luma=0 / max-luma=1023 / log2-max-poc-lsb=8 / vui-timing-info / vui-hrd-info / slices=1 / no-opt-qp-pps / no-opt-ref-list-length-pps / no-multi-pass-opt-rps / scenecut-bias=0.05 / hist-threshold=0.03 / no-opt-cu-delta-qp / no-aq-motion / no-hdr10 / no-hdr10-opt / no-dhdr10-opt / no-idr-recovery-sei / analysis-reuse-level=0 / analysis-save-reuse-level=0 / analysis-load-reuse-level=0 / scale-factor=0 / refine-intra=0 / refine-inter=0 / refine-mv=1 / refine-ctu-distortion=0 / no-limit-sao / ctu-info=0 / no-lowpass-dct / refine-analysis-type=0 / copy-pic=1 / max-ausize-factor=1.0 / no-dynamic-refine / no-single-sei / no-hevc-aq / no-svt / no-field / qp-adaptation-range=1.00 / scenecut-aware-qp=0conformance-window-offsets / right=0 / bottom=0 / decoder-max-rate=0 / no-vbv-live-multi-pass
Default : Yes
Forced : No
Color range : Limited
Color primaries : BT.709
Transfer characteristics : BT.709
Matrix coefficients : BT.709

Audio #1
ID : 2
Format : AC-3
Format/Info : Audio Coding 3
Commercial name : Dolby Digital
Codec ID : A_AC3
Duration : 1 h 56 min
Bit rate mode : Constant
Bit rate : 384 kb/s
Channel(s) : 6 channels
Channel layout : L R C LFE Ls Rs
Sampling rate : 48.0 kHz
Frame rate : 31.250 FPS (1536 SPF)
Compression mode : Lossy
Stream size : 320 MiB (7%)
Title : Russian Dub iTunes
Language : Russian
Service kind : Complete Main
Default : Yes
Forced : No

Audio #2
ID : 3
Format : AC-3
Format/Info : Audio Coding 3
Commercial name : Dolby Digital
Codec ID : A_AC3
Duration : 1 h 56 min
Bit rate mode : Constant
Bit rate : 640 kb/s
Channel(s) : 6 channels
Channel layout : L R C LFE Ls Rs
Sampling rate : 48.0 kHz
Frame rate : 31.250 FPS (1536 SPF)
Compression mode : Lossy
Stream size : 534 MiB (12%)
Title : English Original
Language : English
Service kind : Complete Main
Default : No
Forced : No

Text #1
ID : 4
Format : UTF-8
Codec ID : S_TEXT/UTF8
Codec ID/Info : UTF-8 Plain Text
Duration : 1 h 55 min
Bit rate : 80 b/s
Count of elements : 1520
Stream size : 67.7 KiB (0%)
Title : Russian full 18+
Language : Russian
Default : No
Forced : No

Text #2
ID : 5
Format : UTF-8
Codec ID : S_TEXT/UTF8
Codec ID/Info : UTF-8 Plain Text
Duration : 1 h 54 min
Bit rate : 60 b/s
Count of elements : 1883
Stream size : 50.3 KiB (0%)
Title : English full
Language : English
Default : No
Forced : No

Text #3
ID : 6
Format : UTF-8
Codec ID : S_TEXT/UTF8
Codec ID/Info : UTF-8 Plain Text
Duration : 1 h 56 min
Bit rate : 67 b/s
Count of elements : 2105
Stream size : 57.6 KiB (0%)
Title : English SDH
Language : English
Default : No
Forced : No

Menu
00:00:00.000 : en:Chapter 01
00:06:08.284 : en:Chapter 02
00:13:28.015 : en:Chapter 03
00:17:58.410 : en:Chapter 04
00:22:24.885 : en:Chapter 05
00:26:44.227 : en:Chapter 06
00:33:47.650 : en:Chapter 07
00:40:02.566 : en:Chapter 08
00:44:41.011 : en:Chapter 09
00:51:25.082 : en:Chapter 10
00:57:22.105 : en:Chapter 11
01:03:52.912 : en:Chapter 12
01:09:08.144 : en:Chapter 13
01:14:40.851 : en:Chapter 14
01:20:37.666 : en:Chapter 15
01:26:46.075 : en:Chapter 16
01:34:01.093 : en:Chapter 17
01:41:23.911 : en:Chapter 18
01:49:58.800 : en:Chapter 19
01:52:18.231 : en:Chapter 20
Загрузка...Cкриншот1 Прошлой ночью в Сохо / Last Night in Soho (2021) [iTunes] BDRip 1080p [HEVC] 10 bit от HANNIBALЗагрузка...Cкриншот2 Прошлой ночью в Сохо / Last Night in Soho (2021) [iTunes] BDRip 1080p [HEVC] 10 bit от HANNIBALЗагрузка...Cкриншот3 Прошлой ночью в Сохо / Last Night in Soho (2021) [iTunes] BDRip 1080p [HEVC] 10 bit от HANNIBALЗагрузка...Cкриншот4 Прошлой ночью в Сохо / Last Night in Soho (2021) [iTunes] BDRip 1080p [HEVC] 10 bit от HANNIBAL
Сэмпл Торрент🧲 Магнет

Рейтинги КП и IMDB, кнопки "Позвать в чате" и "Спасибо", а также мультитрекерная статистика доступны только зарегистрированным/авторизованным пользователям!

Файлы: 1
  • Last Night in Soho (2021) BDRip-HEVC 1080p 10 bit.mkv   4.47 ГБ
Поблагодарили: 4
bs158250, ilyich05, IRIT, TaurohtaR
HANNIBAL
078004.47 ГБ

Добавление нового комментария

Добавление комментариев доступно только зарегистрированным/авторизованным пользователям.