💬 Мини-чат

Убедительная просьба не обсуждать тут политику.
AdminЛёшикоБэст, вроде потихоньку идёт. Подождем, если не докачается, то встану.
AdminЛёшикоБэст, перекачайте торрент, а то в профиле не отображается ждете или уже нет
ЛёшикоБэстРаздайте, пожалуйста, Неудержимые / The Expendables (2010) [Theatrical Cut] BDRip 1080p [HEVC] 10 bit от Spartanec1308
OldGamerДа, есть.
ЛёшикоБэстДоброго вечера) Скажите пожалуйста, есть ли в планах сделать релиз дилогии "Зорро" с Антонио Бандерасом?
HANNIBALAdmin, 👍
AdminГоро, встал
ГороРаздайте, пожалуйста, Хищники / Predators (2010) BDRip 1080p [HEVC] 10 bit от HANNIBAL
AdminHANNIBAL, привет. Не помню за сколько брал, но продление в этот раз обошлось примерно в $14 со всякими комиссиями. А аренда VDS обходится примерно в $30-35 за год. Не исключено, что всё это подорожает. Пока что пожертвования с трудом покрывают расходы. Иногда если требуется и со своего кармана оплачиваю, не страшно. Прорвемся.
HANNIBALсколько сейчас стоит
HANNIBALAdmin, ПРИВЕТ
AdminНаконец-то получил банковскую карту. Продлил доменное имя (адрес сайта) на год.
  • ivan_1965
Отправка сообщений доступна только зарегистрированным/авторизованным пользователям.
Онлайн (за 10 мин.): 1

Джек Ричер 2: Никогда не возвращайся / Jack Reacher: Never Go Back (2016) BDRip 1080p [HEVC] 10 bit от Spartanec1308

HEVC
10 bit
Обложка Джек Ричер 2: Никогда не возвращайся / Jack Reacher: Never Go Back (2016) BDRip 1080p [HEVC] 10 bit от Spartanec1308 Год: 2016
Страна: США, Китай
Студия: Paramount Pictures, Shanghai Film Group, Skydance Productions
Жанр: Боевик, Триллер, Криминал
Продолжительность: 01:58:09

Режиссер: Эдвард Цвик
В ролях: Том Круз, Коби Смолдерс, Элдис Ходж, Даника Ярош, Патрик Хьюсингер, Холт МакКэллани, Джудд Лорманд, Кристофер Берри, Хантер Бурк, Джейсон Дуглас

Описание: Экс-военный Джек Ричер приезжает в Вашингтон, чтобы впервые встретиться с майором Сьюзен Тернер, которая возглавила его бывшее подразделение и не раз выручала его в непростых ситуациях. По странному стечению обстоятельств буквально накануне его визита майора арестовывают по обвинению в измене… Ричеру, уверенному в невиновности Сьюзен, предстоит освободить ее и раскрыть заговор, ниточки которого тянутся на самый верх. Стремясь докопаться до правды, он также делает поразительное открытие, способное раз и навсегда изменить его жизнь…


Видео: 1920x804, 9559 Кбит/сек, 0.258 бит/(Пиксели*Кадры), 23,976 кадр/сек, HEVC (Main10@L.4.1@High) 10 бит
Аудио1: AC3, 6 ch, 640 Kbps - РусскийРусский, Дублированный (Лицензия)
Аудио2: AC3, 6 ch, 640 Kbps - РусскийРусский, Одноголосый (Ю.Живов)
Аудио3: AC3, 6 ch, 640 Kbps - РусскийРусский, Одноголосый (В.Горчаков)
Аудио4: AC3, 6 ch, 640 Kbps - РусскийРусский, Одноголосый (Л.Володарский)
Аудио5: AC3, 6 ch, 640 Kbps - РусскийРусский, Одноголосый (А.Дасевич)
Аудио6: AC3, 6 ch, 640 Kbps - РусскийРусский, Одноголосый (М.Яроцкий)
Аудио7: AC3, 6 ch, 640 Kbps - АнглийскийАнглийский, Оригинал
Субтитры: Русские (форсированные,полные), английские

Как за пару секунд удалить ненужные аудиодорожки и субтитры (Внимание! После удаления вы не сможете поддержать раздачу)

Лог (x265 info)
x265 [info]: frame I: 2021, Avg QP:17.25 kb/s: 32522.16
x265 [info]: frame P: 37265, Avg QP:18.81 kb/s: 20029.95
x265 [info]: frame B: 130679, Avg QP:21.28 kb/s: 6217.12
x265 [info]: Weighted P-Frames: Y:5.4% UV:4.7%
x265 [info]: Weighted B-Frames: Y:4.0% UV:3.2%
x265 [info]: consecutive B-frames: 8.6% 3.5% 7.2% 43.9% 9.0% 22.8% 2.7% 1.8% 0.3% 0.2% 0.1%

encoded 169965 frames in 222462.56s (0.76 fps), 9558.38 kb/s, Avg QP:20.69
Медиаинфо
Формат : Matroska
Версия формата : Version 4
Размер файла : 11,6 Гбайт
Продолжительность : 1 ч. 58 м.
Общий поток : 14,0 Мбит/сек
Название фильма : by Spartanec
Дата кодирования : UTC 2022-02-06 15:07:27
Программа кодирования : mkvmerge v7.0.0 ('Where We Going') 64bit built on Jun 9 2014 15:16:27
Библиотека кодирования : libebml v1.3.0 + libmatroska v1.4.1
Обложка : Yes
Attachments : cover.jpg

Видео
Идентификатор : 1
Формат : HEVC
Формат/Информация : High Efficiency Video Coding
Профиль формата : Main 10@L4.1@High
Идентификатор кодека : V_MPEGH/ISO/HEVC
Продолжительность : 1 ч. 58 м.
Битрейт : 9 559 Кбит/сек
Ширина : 1 920 пикселей
Высота : 804 пикселя
Соотношение сторон : 2,40:1
Режим частоты кадров : Постоянный
Частота кадров : 23,976 (23976/1000) кадра/сек
Частота кадров в оригинале : 23,976 (24000/1001) кадра/сек
Цветовое пространство : YUV
Субдискретизация насыщенности : 4:2:0
Битовая глубина : 10 бит
Бит/(Пиксели*Кадры) : 0.258
Размер потока : 7,89 Гбайт (68%)
Заголовок : Spartanec
Библиотека кодирования : x265 3.5+20-17839cc0d:[Windows][GCC 11.2.0][64 bit] 10bit
Настройки программы : cpuid=1111039 / frame-threads=4 / numa-pools=16 / wpp / no-pmode / no-pme / no-psnr / no-ssim / log-level=2 / input-csp=1 / input-res=1920x804 / interlace=0 / total-frames=169965 / level-idc=41 / high-tier=1 / uhd-bd=0 / ref=5 / no-allow-non-conformance / no-repeat-headers / annexb / no-aud / no-eob / no-eos / no-hrd / info / hash=0 / no-temporal-layers / open-gop / min-keyint=23 / keyint=240 / gop-lookahead=0 / bframes=10 / b-adapt=2 / b-pyramid / bframe-bias=0 / rc-lookahead=60 / lookahead-slices=1 / scenecut=40 / no-hist-scenecut / radl=0 / no-splice / no-intra-refresh / ctu=32 / min-cu-size=8 / rect / amp / max-tu-size=32 / tu-inter-depth=4 / tu-intra-depth=4 / limit-tu=1 / rdoq-level=1 / dynamic-rd=0.00 / no-ssim-rd / signhide / no-tskip / nr-intra=0 / nr-inter=0 / no-constrained-intra / no-strong-intra-smoothing / max-merge=5 / limit-refs=0 / no-limit-modes / me=3 / subme=7 / merange=57 / temporal-mvp / no-frame-dup / no-hme / weightp / weightb / no-analyze-src-pics / deblock=-2:-2 / no-sao / no-sao-non-deblock / rd=6 / selective-sao=0 / no-early-skip / no-rskip / no-fast-intra / no-tskip-fast / no-cu-lossless / b-intra / no-splitrd-skip / rdpenalty=0 / psy-rd=2.00 / psy-rdoq=1.00 / no-rd-refine / no-lossless / cbqpoffs=0 / crqpoffs=0 / rc=crf / crf=20.0 / qcomp=0.70 / qpstep=4 / stats-write=0 / stats-read=0 / vbv-maxrate=50000 / vbv-bufsize=50000 / vbv-init=0.9 / min-vbv-fullness=50.0 / max-vbv-fullness=80.0 / crf-max=0.0 / crf-min=0.0 / ipratio=1.40 / pbratio=1.30 / aq-mode=2 / aq-strength=1.00 / no-cutree / zone-count=0 / no-strict-cbr / qg-size=32 / no-rc-grain / qpmax=69 / qpmin=0 / no-const-vbv / sar=1 / overscan=0 / videoformat=5 / range=0 / colorprim=1 / transfer=1 / colormatrix=1 / chromaloc=0 / display-window=0 / cll=0,0 / min-luma=0 / max-luma=1023 / log2-max-poc-lsb=8 / vui-timing-info / vui-hrd-info / slices=1 / no-opt-qp-pps / no-opt-ref-list-length-pps / no-multi-pass-opt-rps / scenecut-bias=0.05 / hist-threshold=0.03 / no-opt-cu-delta-qp / no-aq-motion / no-hdr10 / no-hdr10-opt / no-dhdr10-opt / no-idr-recovery-sei / analysis-reuse-level=0 / analysis-save-reuse-level=0 / analysis-load-reuse-level=0 / scale-factor=0 / refine-intra=0 / refine-inter=0 / refine-mv=0 / refine-ctu-distortion=0 / no-limit-sao / ctu-info=0 / no-lowpass-dct / refine-analysis-type=0 / copy-pic=1 / max-ausize-factor=1.0 / no-dynamic-refine / no-single-sei / no-hevc-aq / no-svt / no-field / qp-adaptation-range=1.00 / scenecut-aware-qp=0conformance-window-offsets / right=0 / bottom=0 / decoder-max-rate=0 / no-vbv-live-multi-pass
Язык : English
Default : Да
Forced : Нет
Цветовой диапазон : Limited
Основные цвета : BT.709
Характеристики трансфера : BT.709
Коэффициенты матрицы : BT.709

Аудио #1
Идентификатор : 2
Формат : AC-3
Формат/Информация : Audio Coding 3
Коммерческое название : Dolby Digital
Идентификатор кодека : A_AC3
Продолжительность : 1 ч. 58 м.
Вид битрейта : Постоянный
Битрейт : 640 Кбит/сек
Каналы : 6 каналов
Channel layout : L R C LFE Ls Rs
Частота : 48,0 КГц
Частота кадров : 31,250 кадров/сек (1536 SPF)
Метод сжатия : С потерями
Размер потока : 541 Мбайт (5%)
Заголовок : Дубляж
Язык : Russian
Service kind : Complete Main
Default : Да
Forced : Нет

Аудио #2
Идентификатор : 3
Формат : AC-3
Формат/Информация : Audio Coding 3
Коммерческое название : Dolby Digital
Идентификатор кодека : A_AC3
Продолжительность : 1 ч. 58 м.
Вид битрейта : Постоянный
Битрейт : 640 Кбит/сек
Каналы : 6 каналов
Channel layout : L R C LFE Ls Rs
Частота : 48,0 КГц
Частота кадров : 31,250 кадров/сек (1536 SPF)
Метод сжатия : С потерями
Размер потока : 541 Мбайт (5%)
Заголовок : Ю. Живов
Язык : Russian
Service kind : Complete Main
Default : Нет
Forced : Нет

Аудио #3
Идентификатор : 4
Формат : AC-3
Формат/Информация : Audio Coding 3
Коммерческое название : Dolby Digital
Идентификатор кодека : A_AC3
Продолжительность : 1 ч. 58 м.
Вид битрейта : Постоянный
Битрейт : 640 Кбит/сек
Каналы : 6 каналов
Channel layout : L R C LFE Ls Rs
Частота : 48,0 КГц
Частота кадров : 31,250 кадров/сек (1536 SPF)
Метод сжатия : С потерями
Размер потока : 541 Мбайт (5%)
Заголовок : В. Горчаков
Язык : Russian
Service kind : Complete Main
Default : Нет
Forced : Нет

Аудио #4
Идентификатор : 5
Формат : AC-3
Формат/Информация : Audio Coding 3
Коммерческое название : Dolby Digital
Идентификатор кодека : A_AC3
Продолжительность : 1 ч. 58 м.
Вид битрейта : Постоянный
Битрейт : 640 Кбит/сек
Каналы : 6 каналов
Channel layout : L R C LFE Ls Rs
Частота : 48,0 КГц
Частота кадров : 31,250 кадров/сек (1536 SPF)
Метод сжатия : С потерями
Размер потока : 541 Мбайт (5%)
Заголовок : Л. Володарский
Язык : Russian
Service kind : Complete Main
Default : Нет
Forced : Нет

Аудио #5
Идентификатор : 6
Формат : AC-3
Формат/Информация : Audio Coding 3
Коммерческое название : Dolby Digital
Идентификатор кодека : A_AC3
Продолжительность : 1 ч. 58 м.
Вид битрейта : Постоянный
Битрейт : 640 Кбит/сек
Каналы : 6 каналов
Channel layout : L R C LFE Ls Rs
Частота : 48,0 КГц
Частота кадров : 31,250 кадров/сек (1536 SPF)
Метод сжатия : С потерями
Размер потока : 541 Мбайт (5%)
Заголовок : А. Дасевич
Язык : Russian
Service kind : Complete Main
Default : Нет
Forced : Нет

Аудио #6
Идентификатор : 7
Формат : AC-3
Формат/Информация : Audio Coding 3
Коммерческое название : Dolby Digital
Идентификатор кодека : A_AC3
Продолжительность : 1 ч. 58 м.
Вид битрейта : Постоянный
Битрейт : 640 Кбит/сек
Каналы : 6 каналов
Channel layout : L R C LFE Ls Rs
Частота : 48,0 КГц
Частота кадров : 31,250 кадров/сек (1536 SPF)
Метод сжатия : С потерями
Размер потока : 541 Мбайт (5%)
Заголовок : М. Яроцкий
Язык : Russian
Service kind : Complete Main
Default : Нет
Forced : Нет

Аудио #7
Идентификатор : 8
Формат : AC-3
Формат/Информация : Audio Coding 3
Коммерческое название : Dolby Digital
Идентификатор кодека : A_AC3
Продолжительность : 1 ч. 58 м.
Вид битрейта : Постоянный
Битрейт : 640 Кбит/сек
Каналы : 6 каналов
Channel layout : L R C LFE Ls Rs
Частота : 48,0 КГц
Частота кадров : 31,250 кадров/сек (1536 SPF)
Метод сжатия : С потерями
Размер потока : 541 Мбайт (5%)
Заголовок : Оригинал
Язык : English
Service kind : Complete Main
Default : Нет
Forced : Нет

Текст #1
Идентификатор : 9
Формат : UTF-8
Идентификатор кодека : S_TEXT/UTF8
Идентификатор кодека/Информация : UTF-8 Plain Text
Продолжительность : 1 ч. 13 м.
Битрейт : 0 бит/сек
Count of elements : 8
Размер потока : 406 байт (0%)
Заголовок : forced
Язык : Russian
Default : Да
Forced : Нет

Текст #2
Идентификатор : 10
Формат : UTF-8
Идентификатор кодека : S_TEXT/UTF8
Идентификатор кодека/Информация : UTF-8 Plain Text
Продолжительность : 1 ч. 52 м.
Битрейт : 79 бит/сек
Count of elements : 1277
Размер потока : 65,5 Кбайт (0%)
Заголовок : full
Язык : Russian
Default : Нет
Forced : Нет

Текст #3
Идентификатор : 11
Формат : UTF-8
Идентификатор кодека : S_TEXT/UTF8
Идентификатор кодека/Информация : UTF-8 Plain Text
Продолжительность : 1 ч. 51 м.
Битрейт : 49 бит/сек
Count of elements : 1416
Размер потока : 40,5 Кбайт (0%)
Заголовок : full
Язык : English
Default : Нет
Forced : Нет

Меню
00:00:00.000 : :00:00:00.000
00:07:00.629 : :00:07:00.629
00:15:19.877 : :00:15:19.877
00:20:33.858 : :00:20:33.858
00:29:04.576 : :00:29:04.576
00:34:35.739 : :00:34:35.740
00:42:40.141 : :00:42:40.141
00:49:28.007 : :00:49:28.007
00:58:44.563 : :00:58:44.563
01:03:10.161 : :01:03:10.161
01:09:35.755 : :01:09:35.755
01:15:05.334 : :01:15:05.334
01:21:59.665 : :01:21:59.665
01:27:07.222 : :01:27:07.222
01:34:14.065 : :01:34:14.065
01:46:44.857 : :01:46:44.857
01:53:30.846 : :01:53:30.846
Загрузка...Cкриншот1 Джек Ричер 2: Никогда не возвращайся / Jack Reacher: Never Go Back (2016) BDRip 1080p [HEVC] 10 bit от Spartanec1308Загрузка...Cкриншот2 Джек Ричер 2: Никогда не возвращайся / Jack Reacher: Never Go Back (2016) BDRip 1080p [HEVC] 10 bit от Spartanec1308Загрузка...Cкриншот3 Джек Ричер 2: Никогда не возвращайся / Jack Reacher: Never Go Back (2016) BDRip 1080p [HEVC] 10 bit от Spartanec1308Загрузка...Cкриншот4 Джек Ричер 2: Никогда не возвращайся / Jack Reacher: Never Go Back (2016) BDRip 1080p [HEVC] 10 bit от Spartanec1308
Сэмпл Торрент🧲 Магнет

Рейтинги КП и IMDB, кнопки "Позвать в чате" и "Спасибо", а также мультитрекерная статистика доступны только зарегистрированным/авторизованным пользователям!

Файлы: 1
  • Джек Ричер 2. Никогда не возвращайся (2016) BDRip 1080p [HEVC] 10bit by Spartanec.mkv   11.59 ГБ
Поблагодарили: 9
Brooklyn, bs158250, FijiMAX, IRIT, ko1ob, makss333, normalllhuman, Nuclear70, Тренер по Йоге
Spartanec1308
0590011.59 ГБ

Добавление нового комментария

Добавление комментариев доступно только зарегистрированным/авторизованным пользователям.