Чат

⚫︎
Список изменений сайта - https://rips.club/changelog.html (обновлен 24.05.2024)
    Онлайн (за 10 мин.): 0
    Отправка сообщений доступна только зарегистрированным/авторизованным пользователям.

    🎥︎Мустанг / Mustang (2015) BDRip 1080p [HEVC] 10 bit от TaurohtaR


    Обложка Мустанг / Mustang (2015) BDRip 1080p [HEVC] 10 bit от TaurohtaR
    HEVC
    10 bit
    ✂︎Сэмпл⤓︎Торрент🧲︎Магнет$Пожертвования
    Год: 2015
    Страна: Франция, Германия, Турция, Катар
    Студия: CG Cinéma, Vistamar Filmproduktion, Uhlandfilm
    Жанр: Драма
    Длительность: 01:37:01

    Режиссер: Дениз Гамзе Эргювен
    В ролях: Гюнеш Шенсой, Дога Зейнеп Догуслу, Тугба Сунгуроглу, Элит Ишчан, Илаида Акдоган, Нихал Г. Колдаш, Айберк Пекджан, Бахар Керимоглу, Бурак Йийит, Эрол Афсин, Сюзанн Маррот, Зерифе Кара

    Описание: В деревне на севере Турции пятеро сестер-подростков возвращаются из школы, беззаботно резвясь с мальчишками. Консервативные воспитатели считают эти невинные игры непозволительными и всерьез берутся за воспитание девушек. Жизнь юных сестер круто меняется: дом становится тюрьмой, школу заменяют уроки домашнего хозяйства, начинаются приготовления к принудительным свадьбам. Но жизнелюбивые девушки не собираются мириться с традициями, ограничивающими их свободу...


    Видео: 1920x804, ~6621 Кбит/сек
    Аудио1: AC3, 6 ch, 384 Kbps - РусскийРусский, Профессиональный многоголосый закадровый (iTunes)
    Аудио2: AC3, 6 ch, 448 Kbps - УкраинскийУкраинский, Профессиональный многоголосый закадровый
    Аудио3: AC3, 6 ch, 640 Kbps - Турецкий, Оригинал
    Субтитры: русские, украинские, английские

    Как за несколько секунд удалить ненужные аудиодорожки и субтитры (Внимание! После удаления вы не сможете поддержать раздачу)


    Лог (x265 info)x265 [info]: frame I: 984, Avg QP:16.38 kb/s: 15858.14
    x265 [info]: frame P: 27181, Avg QP:18.03 kb/s: 11572.70
    x265 [info]: frame B: 111578, Avg QP:19.78 kb/s: 5333.24
    x265 [info]: Weighted P-Frames: Y:8.0% UV:6.7%
    x265 [info]: Weighted B-Frames: Y:8.0% UV:6.4%
    x265 [info]: consecutive B-frames: 5.6% 5.9% 8.9% 31.9% 10.7% 23.0% 3.8% 3.5% 1.6% 1.1% 0.9% 1.1% 0.5% 0.4% 0.3% 0.3% 0.5%

    encoded 139743 frames in 64686.49s (2.16 fps), 6620.97 kb/s, Avg QP:19.42
    МедиаинфоGeneral
    Unique ID : 243165049024779087780169875223443103461 (0xB6EFE28B119BC54A6E310E8535875EE5)
    Complete name : Mustang (2015) BDRip 1080p H.265 [RUS_UKR_TUR] [RIPS-CLUB].mkv
    Format : Matroska
    Format version : Version 4
    File size : 5.49 GiB
    Duration : 1 h 37 min
    Overall bit rate : 8 094 kb/s
    Movie name : Мустанг / Mustang (2015)
    Encoded date : UTC 2022-02-08 17:45:11
    Writing application : mkvmerge v65.0.0 ('Too Much') 64-bit
    Writing library : libebml v1.4.2 + libmatroska v1.6.4
    Cover : Yes
    Attachments : Cover.jpg

    Video
    ID : 1
    Format : HEVC
    Format/Info : High Efficiency Video Coding
    Format profile : Main 10@L4.1@High
    Codec ID : V_MPEGH/ISO/HEVC
    Duration : 1 h 37 min
    Bit rate : 6 622 kb/s
    Width : 1 920 pixels
    Height : 804 pixels
    Display aspect ratio : 2.40:1
    Frame rate mode : Constant
    Frame rate : 24.000 FPS
    Color space : YUV
    Chroma subsampling : 4:2:0
    Bit depth : 10 bits
    Bits/(Pixel*Frame) : 0.179
    Stream size : 4.49 GiB (82%)
    Title : Мустанг / Mustang (2015)
    Writing library : x265 3.5+1-ce882936d:[Windows][MSVC 1928][64 bit] 10bit
    Encoding settings : cpuid=1111039 / frame-threads=4 / numa-pools=24 / wpp / no-pmode / no-pme / no-psnr / no-ssim / log-level=2 / input-csp=1 / input-res=1920x804 / interlace=0 / total-frames=139743 / level-idc=41 / high-tier=1 / uhd-bd=0 / ref=5 / no-allow-non-conformance / no-repeat-headers / annexb / no-aud / no-hrd / info / hash=0 / no-temporal-layers / open-gop / min-keyint=24 / keyint=240 / gop-lookahead=0 / bframes=16 / b-adapt=2 / b-pyramid / bframe-bias=0 / rc-lookahead=60 / lookahead-slices=4 / scenecut=40 / hist-scenecut=0 / radl=0 / no-splice / no-intra-refresh / ctu=32 / min-cu-size=8 / rect / amp / max-tu-size=32 / tu-inter-depth=4 / tu-intra-depth=4 / limit-tu=1 / rdoq-level=2 / dynamic-rd=0.00 / no-ssim-rd / signhide / no-tskip / nr-intra=0 / nr-inter=0 / no-constrained-intra / no-strong-intra-smoothing / max-merge=5 / limit-refs=2 / limit-modes / me=3 / subme=7 / merange=57 / temporal-mvp / no-frame-dup / no-hme / weightp / weightb / no-analyze-src-pics / deblock=-3:-3 / no-sao / no-sao-non-deblock / rd=6 / selective-sao=0 / no-early-skip / no-rskip / no-fast-intra / no-tskip-fast / no-cu-lossless / no-b-intra / no-splitrd-skip / rdpenalty=0 / psy-rd=2.00 / psy-rdoq=1.00 / no-rd-refine / no-lossless / cbqpoffs=0 / crqpoffs=0 / rc=crf / crf=20.5 / qcomp=0.65 / qpstep=4 / stats-write=0 / stats-read=0 / vbv-maxrate=50000 / vbv-bufsize=50000 / vbv-init=0.9 / min-vbv-fullness=50.0 / max-vbv-fullness=80.0 / crf-max=0.0 / crf-min=0.0 / ipratio=1.40 / pbratio=1.30 / aq-mode=1 / aq-strength=1.00 / no-cutree / zone-count=0 / no-strict-cbr / qg-size=32 / no-rc-grain / qpmax=69 / qpmin=0 / no-const-vbv / sar=1 / overscan=0 / videoformat=5 / range=0 / colorprim=1 / transfer=1 / colormatrix=1 / chromaloc=0 / display-window=0 / cll=0,0 / min-luma=0 / max-luma=1023 / log2-max-poc-lsb=8 / vui-timing-info / vui-hrd-info / slices=1 / no-opt-qp-pps / no-opt-ref-list-length-pps / no-multi-pass-opt-rps / scenecut-bias=0.05 / hist-threshold=0.03 / no-opt-cu-delta-qp / no-aq-motion / no-hdr10 / no-hdr10-opt / no-dhdr10-opt / no-idr-recovery-sei / analysis-reuse-level=0 / analysis-save-reuse-level=0 / analysis-load-reuse-level=0 / scale-factor=0 / refine-intra=0 / refine-inter=0 / refine-mv=1 / refine-ctu-distortion=0 / no-limit-sao / ctu-info=0 / no-lowpass-dct / refine-analysis-type=0 / copy-pic=1 / max-ausize-factor=1.0 / no-dynamic-refine / no-single-sei / no-hevc-aq / no-svt / no-field / qp-adaptation-range=1.00 / scenecut-aware-qp=0conformance-window-offsets / right=0 / bottom=0 / decoder-max-rate=0 / no-vbv-live-multi-pass
    Language : English
    Default : Yes
    Forced : Yes
    Color range : Limited
    Color primaries : BT.709
    Transfer characteristics : BT.709
    Matrix coefficients : BT.709

    Audio #1
    ID : 2
    Format : AC-3
    Format/Info : Audio Coding 3
    Commercial name : Dolby Digital
    Codec ID : A_AC3
    Duration : 1 h 37 min
    Bit rate mode : Constant
    Bit rate : 384 kb/s
    Channel(s) : 6 channels
    Channel layout : L R C LFE Ls Rs
    Sampling rate : 48.0 kHz
    Frame rate : 31.250 FPS (1536 SPF)
    Compression mode : Lossy
    Stream size : 267 MiB (5%)
    Title : AC-3 / 5.1 Ch / 384 kbps / MVO / iTunes
    Language : Russian
    Service kind : Complete Main
    Default : Yes
    Forced : Yes

    Audio #2
    ID : 3
    Format : AC-3
    Format/Info : Audio Coding 3
    Commercial name : Dolby Digital
    Codec ID : A_AC3
    Duration : 1 h 37 min
    Bit rate mode : Constant
    Bit rate : 448 kb/s
    Channel(s) : 6 channels
    Channel layout : L R C LFE Ls Rs
    Sampling rate : 48.0 kHz
    Frame rate : 31.250 FPS (1536 SPF)
    Compression mode : Lossy
    Stream size : 311 MiB (6%)
    Title : AC-3 / 5.1 Ch / 448 kbps / MVO
    Language : Ukrainian
    Service kind : Complete Main
    Default : No
    Forced : No

    Audio #3
    ID : 4
    Format : AC-3
    Format/Info : Audio Coding 3
    Commercial name : Dolby Digital
    Codec ID : A_AC3
    Duration : 1 h 37 min
    Bit rate mode : Constant
    Bit rate : 640 kb/s
    Channel(s) : 6 channels
    Channel layout : L R C LFE Ls Rs
    Sampling rate : 48.0 kHz
    Frame rate : 31.250 FPS (1536 SPF)
    Compression mode : Lossy
    Stream size : 444 MiB (8%)
    Title : AC-3 / 5.1 Ch / 640 kbps / Original
    Language : Turkish
    Service kind : Complete Main
    Default : No
    Forced : No

    Text #1
    ID : 5
    Format : UTF-8
    Codec ID : S_TEXT/UTF8
    Codec ID/Info : UTF-8 Plain Text
    Duration : 1 h 31 min
    Bit rate : 58 b/s
    Count of elements : 679
    Stream size : 38.8 KiB (0%)
    Title : Full
    Language : Russian
    Default : No
    Forced : No

    Text #2
    ID : 6
    Format : UTF-8
    Codec ID : S_TEXT/UTF8
    Codec ID/Info : UTF-8 Plain Text
    Duration : 1 h 31 min
    Bit rate : 57 b/s
    Count of elements : 693
    Stream size : 38.2 KiB (0%)
    Title : Full
    Language : Ukrainian
    Default : No
    Forced : No

    Text #3
    ID : 7
    Format : UTF-8
    Codec ID : S_TEXT/UTF8
    Codec ID/Info : UTF-8 Plain Text
    Duration : 1 h 30 min
    Bit rate : 29 b/s
    Count of elements : 799
    Stream size : 19.4 KiB (0%)
    Title : Full
    Language : English
    Default : No
    Forced : No

    Menu
    00:00:00.000 : Chapter 01
    00:05:29.000 : Chapter 02
    00:10:33.667 : Chapter 03
    00:15:16.000 : Chapter 04
    00:20:54.208 : Chapter 05
    00:30:35.083 : Chapter 06
    00:41:01.375 : Chapter 07
    00:51:52.625 : Chapter 08
    00:59:34.625 : Chapter 09
    01:12:25.083 : Chapter 10
    01:25:12.917 : Chapter 11
    01:32:10.250 : Chapter 12
    Загрузка...Cкриншот1 Мустанг / Mustang (2015) BDRip 1080p [HEVC] 10 bit от TaurohtaRЗагрузка...Cкриншот2 Мустанг / Mustang (2015) BDRip 1080p [HEVC] 10 bit от TaurohtaRЗагрузка...Cкриншот3 Мустанг / Mustang (2015) BDRip 1080p [HEVC] 10 bit от TaurohtaRЗагрузка...Cкриншот4 Мустанг / Mustang (2015) BDRip 1080p [HEVC] 10 bit от TaurohtaR
    Поблагодарили: 4ilyich05, IRIT, makss333, Nuclear70
    Файлы: 1
    • Mustang (2015) BDRip 1080p H.265 [RUS_UKR_TUR] [RIPS-CLUB].mkv

    Рейтинги КП и IMDB, кнопки "Раздайте, пожалуйста" и "Спасибо", а также мультитрекерная статистика доступны только зарегистрированным/авторизованным пользователям!

    StarLord
    015805.49 ГБ

    💬︎ Комментарии

    Добавление комментариев доступно только зарегистрированным/авторизованным пользователям.