Чат

⚫︎
Список изменений сайта - https://rips.club/changelog.html (обновлен 24.05.2024)
  • arwis
  • justmkr
  • Денис
Онлайн (за 10 мин.): 3
Отправка сообщений доступна только зарегистрированным/авторизованным пользователям.

🎥︎Терминатор / The Terminator (1984) [Remastered] BDRip 1080p [HEVC] 10 bit от HANNIBAL


Обложка Терминатор / The Terminator (1984) [Remastered] BDRip 1080p [HEVC] 10 bit от HANNIBAL
HEVC
10 bit
✂︎Сэмпл⤓︎Торрент🧲︎Магнет$Пожертвования
Год: 1984
Страна: США
Жанр: Боевик, Фантастика
Длительность: 01:47:26

Режиссер: Джеймс Кэмерон
В ролях: Арнольд Шварценеггер, Майкл Бьен, Линда Хэмилтон, Пол Уинфилд, Лэнс Хенриксен, Бесс Мотта, Эрл Боэн, Рик Россович, Дик Миллер, Шоун Шеппс

Описание: В центре сюжета — противостояние солдата Кайла Риза и киборга-терминатора, прибывших в 1984-ый год из пост-апокалиптического будущего, где миром правят машины-убийцы, а человечество находится на грани вымирания. Цель киборга: убить девушку по имени Сара Коннор, чей ещё нерождённый сын к 2029 году выиграет войну человечества с машинами. Цель солдата Кайла Риза: спасти Сару и остановить Терминатора любой ценой.


Видео: 1920x1040, 5900 Kbps
Аудио1: AC3, 6 ch, 640 Kbps - РусскийРусский, Дублированный (Лицензия)
Аудио2: AC3, 6 ch, 640 Kbps - РусскийРусский, Одноголосый (Пучков Дмитрий)
Аудио3: AC3, 6 ch, 640 Kbps - РусскийРусский, Одноголосый (Сербин Юрий)
Аудио4: AC3, 6 ch, 640 Kbps - РусскийРусский, Одноголосый (Гаврилов Андрей, новый перевод)
Аудио5: AC3, 6 ch, 640 Kbps - РусскийРусский, Одноголосый (Гаврилов Андрей, старый перевод)
Аудио6: AC3, 6 ch, 640 Kbps - АнглийскийАнглийский, Оригинал
Субтитры: Русские (форсированные, полные), Английские

Как за несколько секунд удалить ненужные аудиодорожки и субтитры (Внимание! После удаления вы не сможете поддержать раздачу)


МедиаинфоGeneral
Unique ID : 20412072963342524997126350011526803331 (0xF5B38E5AF4EC3BFA44A2324E85FEF83)
Complete name : E:\Terminator all\The Terminator (1984) [Remastered] BDRip 1080p [HEVC] 10bit.mkv
Format : Matroska
Format version : Version 4 / Version 2
File size : 7.31 GiB
Duration : 1 h 47 min
Overall bit rate : 9 741 kb/s
Movie name : The Terminator (1984) - Release for RuTracker by Skazhutin & Прагматик
Encoded date : UTC 2018-08-23 05:34:28
Writing application : mkvmerge v20.0.0 ('I Am The Sun') 64-bit
Writing library : libebml v1.3.5 + libmatroska v1.4.8 / Lavf57.71.100
Cover : Yes
Attachments : cover.jpg
ENCODING_INFO : MATROSKA,WEBM > MKV 2160p 10-bit / H264 > X265 ABR 6000kbps Medium / DTS > AC3 CBR 640kbps / DTS-HD MA > AC3 CBR 640kbps / DTS-HD MA > AC3 CBR 640kbps / DTS-HD MA > AC3 CBR 640kbps / DTS-HD MA > AC3 CBR 640kbps / DTS-HD MA > AC3 CBR 640kbps

Video
ID : 1
Format : HEVC
Format/Info : High Efficiency Video Coding
Format profile : Main 10@L5.1@Main
Codec ID : V_MPEGH/ISO/HEVC
Duration : 1 h 47 min
Bit rate : 5 900 kb/s
Width : 1 920 pixels
Height : 1 040 pixels
Display aspect ratio : 1.85:1
Frame rate mode : Constant
Frame rate : 23.976 (24000/1001) FPS
Color space : YUV
Chroma subsampling : 4:2:0
Bit depth : 10 bits
Bits/(Pixel*Frame) : 0.123
Stream size : 4.43 GiB (61%)
Title : Release for RuTracker
Writing library : x265 2.8+19-bcdc610cf5f0:[Windows][GCC 7.3.0][64 bit] 10bit
Encoding settings : cpuid=1111039 / frame-threads=13 / numa-pools=12 / wpp / no-pmode / no-pme / no-psnr / no-ssim / log-level=3 / input-csp=1 / input-res=1920x1040 / interlace=0 / total-frames=0 / level-idc=51 / high-tier=1 / uhd-bd=0 / ref=5 / allow-non-conformance / no-repeat-headers / annexb / no-aud / no-hrd / info / hash=0 / no-temporal-layers / open-gop / min-keyint=24 / keyint=240 / gop-lookahead=0 / bframes=8 / b-adapt=2 / b-pyramid / bframe-bias=0 / rc-lookahead=20 / lookahead-slices=6 / scenecut=40 / radl=0 / no-intra-refresh / ctu=64 / min-cu-size=8 / no-rect / no-amp / max-tu-size=32 / tu-inter-depth=1 / tu-intra-depth=1 / limit-tu=0 / rdoq-level=0 / dynamic-rd=0.00 / no-ssim-rd / signhide / no-tskip / nr-intra=0 / nr-inter=0 / no-constrained-intra / strong-intra-smoothing / max-merge=2 / limit-refs=3 / no-limit-modes / me=3 / subme=7 / merange=57 / temporal-mvp / weightp / no-weightb / no-analyze-src-pics / deblock=-2:-2 / sao / no-sao-non-deblock / rd=3 / no-early-skip / rskip / no-fast-intra / no-tskip-fast / no-cu-lossless / no-b-intra / no-splitrd-skip / rdpenalty=0 / psy-rd=2.00 / psy-rdoq=0.00 / no-rd-refine / no-lossless / cbqpoffs=0 / crqpoffs=0 / rc=abr / bitrate=6000 / qcomp=0.60 / qpstep=4 / stats-write=0 / stats-read=0 / ipratio=1.40 / pbratio=1.30 / aq-mode=1 / aq-strength=1.00 / cutree / zone-count=0 / no-strict-cbr / qg-size=32 / no-rc-grain / qpmax=69 / qpmin=0 / no-const-vbv / sar=1 / overscan=0 / videoformat=5 / range=0 / colorprim=1 / transfer=1 / colormatrix=1 / chromaloc=0 / display-window=0 / max-cll=0,0 / min-luma=0 / max-luma=1023 / log2-max-poc-lsb=8 / vui-timing-info / vui-hrd-info / slices=1 / no-opt-qp-pps / no-opt-ref-list-length-pps / no-multi-pass-opt-rps / scenecut-bias=0.05 / no-opt-cu-delta-qp / no-aq-motion / no-hdr / no-hdr-opt / no-dhdr10-opt / no-idr-recovery-sei / analysis-reuse-level=5 / scale-factor=0 / refine-intra=0 / refine-inter=0 / refine-mv=0 / no-limit-sao / ctu-info=0 / no-lowpass-dct / refine-mv-type=0 / copy-pic=1 / max-ausize-factor=1.0 / no-dynamic-refine / no-single-sei
Language : English
Default : Yes
Forced : No
Color range : Limited
Color primaries : BT.709
Transfer characteristics : BT.709
Matrix coefficients : BT.709

Audio #1
ID : 2
Format : AC-3
Format/Info : Audio Coding 3
Commercial name : Dolby Digital
Codec ID : A_AC3
Duration : 1 h 47 min
Bit rate mode : Constant
Bit rate : 640 kb/s
Channel(s) : 6 channels
Channel positions : Front: L C R, Side: L R, LFE
Sampling rate : 48.0 kHz
Frame rate : 31.250 FPS (1536 SPF)
Bit depth : 16 bits
Compression mode : Lossy
Stream size : 492 MiB (7%)
Title : DTS 5.1 @ 768 kbps - Дублированный, Blu-ray CEE
Language : Russian
Service kind : Complete Main
Default : Yes
Forced : No

Audio #2
ID : 3
Format : AC-3
Format/Info : Audio Coding 3
Commercial name : Dolby Digital
Codec ID : A_AC3
Duration : 1 h 47 min
Bit rate mode : Constant
Bit rate : 640 kb/s
Channel(s) : 6 channels
Channel positions : Front: L C R, Side: L R, LFE
Sampling rate : 48.0 kHz
Frame rate : 31.250 FPS (1536 SPF)
Bit depth : 16 bits
Compression mode : Lossy
Stream size : 492 MiB (7%)
Title : DTS-HD MA 5.1 @ 2245 kbps - Одноголосый, Д. Пучков
Language : Russian
Service kind : Complete Main
Default : No
Forced : No

Audio #3
ID : 4
Format : AC-3
Format/Info : Audio Coding 3
Commercial name : Dolby Digital
Codec ID : A_AC3
Duration : 1 h 47 min
Bit rate mode : Constant
Bit rate : 640 kb/s
Channel(s) : 6 channels
Channel positions : Front: L C R, Side: L R, LFE
Sampling rate : 48.0 kHz
Frame rate : 31.250 FPS (1536 SPF)
Bit depth : 16 bits
Compression mode : Lossy
Stream size : 492 MiB (7%)
Title : DTS-HD MA 5.1 @ 2257 kbps - Одноголосый, Ю. Сербин
Language : Russian
Service kind : Complete Main
Default : No
Forced : No

Audio #4
ID : 5
Format : AC-3
Format/Info : Audio Coding 3
Commercial name : Dolby Digital
Codec ID : A_AC3
Duration : 1 h 47 min
Bit rate mode : Constant
Bit rate : 640 kb/s
Channel(s) : 6 channels
Channel positions : Front: L C R, Side: L R, LFE
Sampling rate : 48.0 kHz
Frame rate : 31.250 FPS (1536 SPF)
Bit depth : 16 bits
Compression mode : Lossy
Stream size : 492 MiB (7%)
Title : DTS-HD MA 5.1 @ 4142 kbps - Одноголосый, А. Гаврилов, новый перевод
Language : Russian
Service kind : Complete Main
Default : No
Forced : No

Audio #5
ID : 6
Format : AC-3
Format/Info : Audio Coding 3
Commercial name : Dolby Digital
Codec ID : A_AC3
Duration : 1 h 47 min
Bit rate mode : Constant
Bit rate : 640 kb/s
Channel(s) : 6 channels
Channel positions : Front: L C R, Side: L R, LFE
Sampling rate : 48.0 kHz
Frame rate : 31.250 FPS (1536 SPF)
Bit depth : 16 bits
Compression mode : Lossy
Stream size : 492 MiB (7%)
Title : DTS-HD MA 5.1 @ 4133 kbps - Одноголосый, А. Гаврилов, старый перевод
Language : Russian
Service kind : Complete Main
Default : No
Forced : No

Audio #6
ID : 7
Format : AC-3
Format/Info : Audio Coding 3
Commercial name : Dolby Digital
Codec ID : A_AC3
Duration : 1 h 47 min
Bit rate mode : Constant
Bit rate : 640 kb/s
Channel(s) : 6 channels
Channel positions : Front: L C R, Side: L R, LFE
Sampling rate : 48.0 kHz
Frame rate : 31.250 FPS (1536 SPF)
Bit depth : 16 bits
Compression mode : Lossy
Stream size : 492 MiB (7%)
Title : DTS-HD MA 5.1 @ 4117 kbps
Language : English
Service kind : Complete Main
Default : No
Forced : No

Text #1
ID : 8
Format : UTF-8
Codec ID : S_TEXT/UTF8
Codec ID/Info : UTF-8 Plain Text
Duration : 1 h 43 min
Bit rate : 0 b/s
Count of elements : 20
Stream size : 723 Bytes (0%)
Title
Загрузка...Cкриншот1 Терминатор / The Terminator (1984) [Remastered] BDRip 1080p [HEVC] 10 bit от HANNIBALЗагрузка...Cкриншот2 Терминатор / The Terminator (1984) [Remastered] BDRip 1080p [HEVC] 10 bit от HANNIBALЗагрузка...Cкриншот3 Терминатор / The Terminator (1984) [Remastered] BDRip 1080p [HEVC] 10 bit от HANNIBALЗагрузка...Cкриншот4 Терминатор / The Terminator (1984) [Remastered] BDRip 1080p [HEVC] 10 bit от HANNIBAL
Поблагодарили: 14annna_95, brukvalub, bs158250, inet7052, inoy, ko1ob, MIGRANT, mr_nikitin, Nebelwerfer, PavelSid, Prince, Rezident, sakurarec, vladd37
Файлы: 1
  • The Terminator (1984) [Remastered] BDRip 1080p [HEVC] 10bit.mkv

Рейтинги КП и IMDB, кнопки "Раздайте, пожалуйста" и "Спасибо", а также мультитрекерная статистика доступны только зарегистрированным/авторизованным пользователям!

HANNIBAL
20730317.31 ГБ

💬︎ Комментарии

Добавление комментариев доступно только зарегистрированным/авторизованным пользователям.

Всего: 31
Аватар Aleks_DW
Aleks_DW
HANNIBAL, вам нужно как то переименовывать названия треков, или что то еще делать, чтоб не получалось такого:
https://b.radikal.ru/b29/1809/c9/f169d8d4955f.png
Аватар не указан
Remontaz
Только с Гавриловым,как в Первый Просмотр На Видухе JVC-530! Спасибо !!!
Аватар не указан
torrentzulu
Спасибо за дорожку Пучкова!
Аватар olegvp
olegvp
mvclub писал(а):
Ребята, 99.9 % пользователей все устраивает. Согласен с Святогубом.
Поддерживаю!
Аватар olegvp
olegvp
eLDeR писал(а):
А чем проигрываете эти файлы? кроме компьютера конечно.. Есть проигрыватели нормальные ?
Я смотрю на компьютере. У меня HTPC на Windows Media Center, кушает всё :)
Аватар mvclub
mvclub
Ребята, 99.9 % пользователей все устраивает. Согласен с Святогубом.
Аватар Гл. Админ
Гл. Админ
Студень писал(а):
такого добра тиголь наваять успел. так что надо вам определится-либо качество, либо ширпотреб как у всех остальных
Если бы нас заботило только качество, то мы выкладывали бы Bly-Ray. Повторяю, нужен баланс между качеством и размером, чтобы это устроило большинству. Не вижу смысла дальше продолжить эту дискуссию.
Аватар Студень
Студень
Гл. Админ писал(а):
Тогда кинут камень по поводу размера. Тут важно и то, и другое. Поэтому нужен баланс между качеством и размером.
такого добра тиголь наваять успел. так что надо вам определится-либо качество, либо ширпотреб как у всех остальных
Аватар Гл. Админ
Гл. Админ
Студень писал(а):
Главный критерий-это чтобы рип понравился всем. Пусть кто-то и не будет качать из-за размера, но кинуть камень по поводу некачественной картинки не сможет
Тогда кинут камень по поводу размера. Тут важно и то, и другое. Поэтому нужен баланс между качеством и размером.
Аватар Святогуб
Святогуб
Студень писал(а):
Это уже какой-то комплекс
Слушай,похоже только тебя не устраивает качество данных релизов,может дело не в релизах?