Чат

⚫︎
Список изменений сайта - https://rips.club/changelog.html (обновлен 24.05.2024)
  • arwis
  • ExoticDeer
  • natali
  • Slava307
Онлайн (за 10 мин.): 4
  • Tastod: Раздайте, пожалуйста, Загадочная история Бенджамина Баттона / The Curious Case of Benjamin Button (2008) BDRip 1080p [HEVC] 10 bit от Spartanec1308
  • Гл. Админ: Исправил баг, когда после анонса коллекции все анонсы показывались в спойлере, даже если не являлись коллекцией.
  • Гл. Админ: Исправил баг, когда в ЛС не возможно было удалить сообщение.
  • bronsonw200: Гл. Админ, Как по мне, так смотрится приятнее.
  • Гл. Админ: В светлой теме задний фон сделал чуть потемнее, чтобы было не слишком ярко. В темной теме поисковую строку сделал черной (как в светлой теме), чтобы выделялась. Убрал рамки вокруг элементов форм. Прокрутку страницы в начало сделал плавной. ( отредактировано: )
  • Гл. Админ: В ближайшие дни по вечерам начну подправлять дизайн.
  • Гл. Админ: Готово.
  • Гл. Админ: Управление релизами закончил, но не буду выкладывать на ночь глядя. Утром протестирую на локальном компе, и днем выложу.
  • Гл. Админ: Фон баннера релиз-группы сделал прозрачным и перезалил на внешнем хостинге.
  • OldGamer: было бы неплохо
  • Гл. Админ: Управление релизами наверно сегодня закончу.
  • HANNIBAL: Сообщение удалено (удалил: HANNIBAL)
  • HANNIBAL: Гл. Админ, не привычно
  • Гл. Админ: HANNIBAL, хорошего или плохого?
  • HANNIBAL: эт чей-то вы тут натворили с сайтом ;)
  • Гл. Админ: ExoticDeer, просто в будущем будет несколько новостных строчек и они будут автоматически переключаться по кругу, поэтому не хочется статичную. Могу ещё уменьшить частоту, если всё равно будет отвлекать. ( отредактировано: )
  • Гл. Админ: ExoticDeer, уменьшил частоту мигания с 5 сек. до 10 сек.
  • ExoticDeer: Гл. Админ, про мигание, скорее отвлекает, особенно на тёмной теме. статичная хорошо смотрелась
  • Гл. Админ: Winsent, Исправил. Теперь, при просмотре комментариев конкретного пользователя, эта галочка не играет роли. Спасибо, что сообщили.
  • Гл. Админ: Winsent, сначала не поверил своим глазам. Это было оооочень странно. Но кажется теперь понял в чем проблема. Ошибка появляется, если в настройках не установлена галочка "Получать уведомления о всех комментариях". Причем у разных пользователей проявляется по разному - у кого-то ничего не показывается, а у кого-то показывается часть комментариев. Поэтому мне долго не удавалось воспроизвести ошибку. Сейчас исправлю.
Отправка сообщений доступна только зарегистрированным/авторизованным пользователям.

🎥︎Мистериум. Начало / Kvinden i buret (2013) BDRip 1080p [HEVC] 10 bit от TaurohtaR


Обложка Мистериум. Начало / Kvinden i buret (2013) BDRip 1080p [HEVC] 10 bit от TaurohtaR
HEVC
10 bit
✂︎Сэмпл⤓︎Торрент🧲︎Магнет$Пожертвования
Год: 2013
Страна: Дания, Германия, Швеция, Норвегия
Студия: Zentropa Entertainments20, Film i Väst, Zentropa Entertainments
Жанр: Детектив, Криминал, Триллер
Длительность: 01:36:33

Режиссер: Миккель Нёргор
В ролях: Николай Ли Каас, Фарес Фарес, Пер Шил Крюгер, Троэльс Любю, Ойвинд Б. Фабрициус Холм, Сёрен Пильмарк, Дивья Дас, Анна Берског Хаугер, Соня Рихтер, Расмус Ботофт и др.

Описание: Детективы Карл Мёрк и Ассад работают в отделе Q, занимающемся «глухарями». Взявшись за дело пятилетней давности об исчезновении женщины по имени Мерет, они внезапно выходят на след маньяка-психопата. Но преследуя его по всей стране, всё равно на шаг отстают.


Видео: 1920x804, ~3318 Кбит/сек
Аудио1: AC3, 6 ch, 384 Kbps - РусскийРусский, Профессиональный многоголосый закадровый (Позитив)
Аудио2: AC3, 6 ch, 640 Kbps - РусскийРусский, Авторский одноголосый (Переводман)
Аудио3: AC3, 6 ch, 640 Kbps - РусскийРусский, Авторский одноголосый (А. Алексеев)
Аудио4: AC3, 6 ch, 640 Kbps - РусскийРусский, Авторский одноголосый (В. Белов)
Аудио5: AC3, 2 ch, 192 Kbps - УкраинскийУкраинский, Профессиональный многоголосый закадровый (НЛО-ТВ)
Аудио6: AC3, 6 ch, 640 Kbps - Датский, Оригинал
Субтитры: русские, английские, датские (форс., полные, SDH)

Как за несколько секунд удалить ненужные аудиодорожки и субтитры (Внимание! После удаления вы не сможете поддержать раздачу)


Лог (x265 info)x265 [info]: frame I: 1122, Avg QP:14.47 kb/s: 12309.61
x265 [info]: frame P: 23079, Avg QP:15.34 kb/s: 6379.96
x265 [info]: frame B: 114813, Avg QP:17.34 kb/s: 2614.05
x265 [info]: Weighted P-Frames: Y:4.1% UV:2.5%
x265 [info]: Weighted B-Frames: Y:2.9% UV:1.7%
x265 [info]: consecutive B-frames: 6.8% 5.0% 4.2% 20.1% 10.5% 24.2% 8.7% 5.6% 5.7% 3.0% 1.1% 2.2% 0.9% 0.6% 0.6% 0.2% 0.5%

encoded 139014 frames in 42676.74s (3.26 fps), 3317.52 kb/s, Avg QP:16.98
МедиаинфоGeneral
Unique ID : 44017398400210987738510842207139456881 (0x211D714BF59D2F6D0E834AC3D7FAE771)
Complete name : Kvinden i buret (2013) BDRip 1080p H.265 [4xRUS_UKR_DAN] [RIPS-CLUB].mkv
Format : Matroska
Format version : Version 4
File size : 4.36 GiB
Duration : 1 h 36 min
Overall bit rate : 6 458 kb/s
Movie name : Мистериум. Начало / Містеріум: Початок / The Keeper of Lost Causes / Kvinden i buret (2013)
Encoded date : UTC 2022-02-12 18:13:25
Writing application : mkvmerge v65.0.0 ('Too Much') 64-bit
Writing library : libebml v1.4.2 + libmatroska v1.6.4
Cover : Yes
Attachments : Cover.jpg

Video
ID : 1
Format : HEVC
Format/Info : High Efficiency Video Coding
Format profile : Main 10@L4.1@High
Codec ID : V_MPEGH/ISO/HEVC
Duration : 1 h 36 min
Bit rate : 3 318 kb/s
Width : 1 920 pixels
Height : 804 pixels
Display aspect ratio : 2.40:1
Frame rate mode : Constant
Frame rate : 24.000 FPS
Color space : YUV
Chroma subsampling : 4:2:0
Bit depth : 10 bits
Bits/(Pixel*Frame) : 0.090
Stream size : 2.24 GiB (51%)
Title : Мистериум. Начало / Містеріум: Початок / The Keeper of Lost Causes / Kvinden i buret (2013)
Writing library : x265 3.5+1-ce882936d:[Windows][MSVC 1928][64 bit] 10bit
Encoding settings : cpuid=1111039 / frame-threads=4 / numa-pools=24 / wpp / no-pmode / no-pme / no-psnr / no-ssim / log-level=2 / input-csp=1 / input-res=1920x804 / interlace=0 / total-frames=139014 / level-idc=41 / high-tier=1 / uhd-bd=0 / ref=5 / no-allow-non-conformance / no-repeat-headers / annexb / no-aud / no-hrd / info / hash=0 / no-temporal-layers / open-gop / min-keyint=24 / keyint=240 / gop-lookahead=0 / bframes=16 / b-adapt=2 / b-pyramid / bframe-bias=0 / rc-lookahead=60 / lookahead-slices=4 / scenecut=40 / hist-scenecut=0 / radl=0 / no-splice / no-intra-refresh / ctu=32 / min-cu-size=8 / rect / amp / max-tu-size=32 / tu-inter-depth=4 / tu-intra-depth=4 / limit-tu=1 / rdoq-level=2 / dynamic-rd=0.00 / no-ssim-rd / signhide / no-tskip / nr-intra=0 / nr-inter=0 / no-constrained-intra / no-strong-intra-smoothing / max-merge=5 / limit-refs=2 / limit-modes / me=3 / subme=7 / merange=57 / temporal-mvp / no-frame-dup / no-hme / weightp / weightb / no-analyze-src-pics / deblock=-3:-3 / no-sao / no-sao-non-deblock / rd=6 / selective-sao=0 / no-early-skip / no-rskip / no-fast-intra / no-tskip-fast / no-cu-lossless / no-b-intra / no-splitrd-skip / rdpenalty=0 / psy-rd=2.00 / psy-rdoq=1.00 / no-rd-refine / no-lossless / cbqpoffs=0 / crqpoffs=0 / rc=crf / crf=20.5 / qcomp=0.65 / qpstep=4 / stats-write=0 / stats-read=0 / vbv-maxrate=50000 / vbv-bufsize=50000 / vbv-init=0.9 / min-vbv-fullness=50.0 / max-vbv-fullness=80.0 / crf-max=0.0 / crf-min=0.0 / ipratio=1.40 / pbratio=1.30 / aq-mode=1 / aq-strength=1.00 / no-cutree / zone-count=0 / no-strict-cbr / qg-size=32 / no-rc-grain / qpmax=69 / qpmin=0 / no-const-vbv / sar=1 / overscan=0 / videoformat=5 / range=0 / colorprim=1 / transfer=1 / colormatrix=1 / chromaloc=0 / display-window=0 / cll=0,0 / min-luma=0 / max-luma=1023 / log2-max-poc-lsb=8 / vui-timing-info / vui-hrd-info / slices=1 / no-opt-qp-pps / no-opt-ref-list-length-pps / no-multi-pass-opt-rps / scenecut-bias=0.05 / hist-threshold=0.03 / no-opt-cu-delta-qp / no-aq-motion / no-hdr10 / no-hdr10-opt / no-dhdr10-opt / no-idr-recovery-sei / analysis-reuse-level=0 / analysis-save-reuse-level=0 / analysis-load-reuse-level=0 / scale-factor=0 / refine-intra=0 / refine-inter=0 / refine-mv=1 / refine-ctu-distortion=0 / no-limit-sao / ctu-info=0 / no-lowpass-dct / refine-analysis-type=0 / copy-pic=1 / max-ausize-factor=1.0 / no-dynamic-refine / no-single-sei / no-hevc-aq / no-svt / no-field / qp-adaptation-range=1.00 / scenecut-aware-qp=0conformance-window-offsets / right=0 / bottom=0 / decoder-max-rate=0 / no-vbv-live-multi-pass
Language : Danish
Default : Yes
Forced : Yes
Color range : Limited
Color primaries : BT.709
Transfer characteristics : BT.709
Matrix coefficients : BT.709

Audio #1
ID : 2
Format : AC-3
Format/Info : Audio Coding 3
Commercial name : Dolby Digital
Codec ID : A_AC3
Duration : 1 h 36 min
Bit rate mode : Constant
Bit rate : 384 kb/s
Channel(s) : 6 channels
Channel layout : L R C LFE Ls Rs
Sampling rate : 48.0 kHz
Frame rate : 31.250 FPS (1536 SPF)
Bit depth : 16 bits
Compression mode : Lossy
Stream size : 265 MiB (6%)
Title : AC-3 / 5.1 Ch / 384 kbps / MVO / Позитив
Language : Russian
Service kind : Complete Main
Default : Yes
Forced : Yes

Audio #2
ID : 3
Format : AC-3
Format/Info : Audio Coding 3
Commercial name : Dolby Digital
Codec ID : A_AC3
Duration : 1 h 36 min
Bit rate mode : Constant
Bit rate : 640 kb/s
Channel(s) : 6 channels
Channel layout : L R C LFE Ls Rs
Sampling rate : 48.0 kHz
Frame rate : 31.250 FPS (1536 SPF)
Bit depth : 16 bits
Compression mode : Lossy
Stream size : 442 MiB (10%)
Title : AC-3 / 5.1 Ch / 640 kbps / AVO / Переводман
Language : Russian
Service kind : Complete Main
Default : No
Forced : No

Audio #3
ID : 4
Format : AC-3
Format/Info : Audio Coding 3
Commercial name : Dolby Digital
Codec ID : A_AC3
Duration : 1 h 36 min
Bit rate mode : Constant
Bit rate : 640 kb/s
Channel(s) : 6 channels
Channel layout : L R C LFE Ls Rs
Sampling rate : 48.0 kHz
Frame rate : 31.250 FPS (1536 SPF)
Bit depth : 16 bits
Compression mode : Lossy
Stream size : 442 MiB (10%)
Title : AC-3 / 5.1 Ch / 640 kbps / AVO / А. Алексеев
Language : Russian
Service kind : Complete Main
Default : No
Forced : No

Audio #4
ID : 5
Format : AC-3
Format/Info : Audio Coding 3
Commercial name : Dolby Digital
Codec ID : A_AC3
Duration : 1 h 36 min
Bit rate mode : Constant
Bit rate : 640 kb/s
Channel(s) : 6 channels
Channel layout : L R C LFE Ls Rs
Sampling rate : 48.0 kHz
Frame rate : 31.250 FPS (1536 SPF)
Bit depth : 16 bits
Compression mode : Lossy
Stream size : 442 MiB (10%)
Title : AC-3 / 5.1 Ch / 640 kbps / AVO / В. Белов
Language : Russian
Service kind : Complete Main
Default : No
Forced : No

Audio #5
ID : 6
Format : AC-3
Format/Info : Audio Coding 3
Commercial name : Dolby Digital
Codec ID : A_AC3
Duration : 1 h 36 min
Bit rate mode : Constant
Bit rate : 192 kb/s
Channel(s) : 2 channels
Channel layout : L R
Sampling rate : 48.0 kHz
Frame rate : 31.250 FPS (1536 SPF)
Compression mode : Lossy
Stream size : 133 MiB (3%)
Title : AC-3 / 2.0 Ch / 192 kbps / MVO / НЛО-ТВ
Language : Ukrainian
Service kind : Complete Main
Default : No
Forced : No

Audio #6
ID : 7
Format : AC-3
Format/Info : Audio Coding 3
Commercial name : Dolby Digital
Codec ID : A_AC3
Duration : 1 h 36 min
Bit rate mode : Constant
Bit rate : 640 kb/s
Channel(s) : 6 channels
Channel layout : L R C LFE Ls Rs
Sampling rate : 48.0 kHz
Frame rate : 31.250 FPS (1536 SPF)
Bit depth : 16 bits
Compression mode : Lossy
Stream size : 442 MiB (10%)
Title : AC-3 / 5.1 Ch / 640 kbps / Original
Language : Danish
Service kind : Complete Main
Default : No
Forced : No

Text #1
ID : 8
Format : UTF-8
Codec ID : S_TEXT/UTF8
Codec ID/Info : UTF-8 Plain Text
Duration : 1 h 32 min
Bit rate : 63 b/s
Count of elements : 709
Stream size : 43.3 KiB (0%)
Title : Full
Language : Russian
Default : No
Forced : No

Text #2
ID : 9
Format : UTF-8
Codec ID : S_TEXT/UTF8
Codec ID/Info : UTF-8 Plain Text
Duration : 1 h 36 min
Bit rate : 35 b/s
Count of elements : 688
Stream size : 24.8 KiB (0%)
Title : Full
Language : English
Default : No
Forced : No

Text #3
ID : 10
Format : UTF-8
Codec ID : S_TEXT/UTF8
Codec ID/Info : UTF-8 Plain Text
Duration : 4 min 56 s
Bit rate : 24 b/s
Count of elements : 26
Stream size : 899 Bytes (0%)
Title : Forced
Language : Danish
Default : No
Forced : No

Text #4
ID : 11
Format : UTF-8
Codec ID : S_TEXT/UTF8
Codec ID/Info : UTF-8 Plain Text
Duration : 1 h 31 min
Bit rate : 40 b/s
Count of elements : 725
Stream size : 27.6 KiB (0%)
Title : Full
Language : Danish
Default : No
Forced : No

Text #5
ID : 12
Format : UTF-8
Codec ID : S_TEXT/UTF8
Codec ID/Info : UTF-8 Plain Text
Duration : 1 h 36 min
Bit rate : 40 b/s
Count of elements : 726
Stream size : 28.4 KiB (0%)
Title : SDH
Language : Danish
Default : No
Forced : No

Menu
00:00:00.000 : da:Chapter 01
00:09:32.113 : da:Chapter 02
00:18:30.775 : da:Chapter 03
00:29:20.674 : da:Chapter 04
00:38:02.112 : da:Chapter 05
00:47:34.684 : da:Chapter 06
00:55:56.310 : da:Chapter 07
01:04:45.296 : da:Chapter 08
01:10:10.912 : da:Chapter 09
01:16:44.264 : da:Chapter 10
01:25:34.336 : da:Chapter 11
01:32:53.523 : da:Chapter 12
Загрузка...Cкриншот1 Мистериум. Начало / Kvinden i buret (2013) BDRip 1080p [HEVC] 10 bit от TaurohtaRЗагрузка...Cкриншот2 Мистериум. Начало / Kvinden i buret (2013) BDRip 1080p [HEVC] 10 bit от TaurohtaRЗагрузка...Cкриншот3 Мистериум. Начало / Kvinden i buret (2013) BDRip 1080p [HEVC] 10 bit от TaurohtaRЗагрузка...Cкриншот4 Мистериум. Начало / Kvinden i buret (2013) BDRip 1080p [HEVC] 10 bit от TaurohtaR
Поблагодарили: 1277carlsson77, and50, davidoff_k4, Diman, FFantasy, han-nik, ilyich05, IRIT, makss333, MIGRANT, Nuclear70, SergKote
Файлы: 1
  • Kvinden i buret (2013) BDRip 1080p H.265 [4xRUS_UKR_DAN] [RIPS-CLUB].mkv

Рейтинги КП и IMDB, кнопки "Раздайте, пожалуйста" и "Спасибо", а также мультитрекерная статистика доступны только зарегистрированным/авторизованным пользователям!

StarLord
4035304.36 ГБ

💬︎ Комментарии

Добавление комментариев доступно только зарегистрированным/авторизованным пользователям.