💬 Мини-чат

Убедительная просьба не обсуждать тут политику.
AdminЛёшикоБэст, вроде потихоньку идёт. Подождем, если не докачается, то встану.
AdminЛёшикоБэст, перекачайте торрент, а то в профиле не отображается ждете или уже нет
ЛёшикоБэстРаздайте, пожалуйста, Неудержимые / The Expendables (2010) [Theatrical Cut] BDRip 1080p [HEVC] 10 bit от Spartanec1308
OldGamerДа, есть.
ЛёшикоБэстДоброго вечера) Скажите пожалуйста, есть ли в планах сделать релиз дилогии "Зорро" с Антонио Бандерасом?
HANNIBALAdmin, 👍
AdminГоро, встал
ГороРаздайте, пожалуйста, Хищники / Predators (2010) BDRip 1080p [HEVC] 10 bit от HANNIBAL
AdminHANNIBAL, привет. Не помню за сколько брал, но продление в этот раз обошлось примерно в $14 со всякими комиссиями. А аренда VDS обходится примерно в $30-35 за год. Не исключено, что всё это подорожает. Пока что пожертвования с трудом покрывают расходы. Иногда если требуется и со своего кармана оплачиваю, не страшно. Прорвемся.
HANNIBALсколько сейчас стоит
HANNIBALAdmin, ПРИВЕТ
AdminНаконец-то получил банковскую карту. Продлил доменное имя (адрес сайта) на год.
  • OldGamer
  • ivan_1965
Отправка сообщений доступна только зарегистрированным/авторизованным пользователям.
Онлайн (за 10 мин.): 2

Каратель / The Punisher (2004) [Director's Cut] BDRip 1080p [HEVC] 10 bit от Spartanec1308

HEVC
10 bit
Обложка Каратель / The Punisher (2004) [Director's Cut] BDRip 1080p [HEVC] 10 bit от Spartanec1308 Год: 2004
Страна: США, Германия
Студия: Lions Gate Films, Marvel Enterprises, Valhalla Motion Pictures
Жанр: Боевик, Триллер, Драма, Криминал
Продолжительность: 02:19:01

Режиссер: Джонатан Хенсли
В ролях: Томас Джейн, Джон Траволта, Уилл Пэттон, Эдди Джемисон, Ребекка Ромейн, Бен Фостер, Джон Пинетт, Лора Хэрринг, Джеймс Карпинелло, Марко Ст. Джон, Энтони Короне, Рик Элмхурст

Описание: Бывший оперативник отряда Дельта, Фрэнк Кастл, приходит на службу в ФБР в качестве агента под прикрытием. Во время одной из операций Кастл становится виновником смерти Бобби Сэйнта — сына известного криминального босса Говарда Сэйнта. Сэйнт приказывает убить Кастла и его семью. Гангстеры Сэйнта убивают всю семью Кастла, но самому Фрэнку чудом удаётся выжить. Благодаря местному отшельнику, который его выходил, Фрэнк возвращается к жизни с твёрдым намерением отомстить. Фрэнк Кастл — человек, который решил самолично вершить правосудие при помощи убийств, похищений, вымогательств, принуждения, угроз и пыток. Будучи ветераном войны во Вьетнаме, Кастл является экспертом самых разнообразных видов оружия, тактики скрытного проникновения и мастером боевых искусств.


Видео: 1920x808, 9037 Кбит/сек, 0.243 бит/(Пиксели*Кадры), 23,976 кадр/сек, HEVC (Main10@L.4.1@High) 10 бит
Аудио1: AC3, 6 ch, 448 Kbps - РусскийРусский, Многоголосый (Киномания)
Аудио2: AC3, 6 ch, 448 Kbps - РусскийРусский, Одноголосый (А. Королёв)
Аудио3: AC3, 6 ch, 448 Kbps - РусскийРусский, Одноголосый (М. Чадов)
Аудио4: AC3, 6 ch, 640 Kbps - АнглийскийАнглийский, Оригинал
Субтитры: Русские, английские

Как за пару секунд удалить ненужные аудиодорожки и субтитры (Внимание! После удаления вы не сможете поддержать раздачу)

Лог (x265 info)
x265 [info]: frame I: 1989, Avg QP:17.66 kb/s: 29576.13
x265 [info]: frame P: 39157, Avg QP:19.02 kb/s: 20303.16
x265 [info]: frame B: 158824, Avg QP:21.35 kb/s: 6000.91
x265 [info]: Weighted P-Frames: Y:8.1% UV:6.5%
x265 [info]: Weighted B-Frames: Y:5.1% UV:3.5%
x265 [info]: consecutive B-frames: 7.6% 2.6% 6.0% 34.2% 7.6% 25.0% 6.1% 10.5% 0.3% 0.1% 0.0% 0.0% 0.0%

encoded 199970 frames in 240135.97s (0.83 fps), 9035.99 kb/s, Avg QP:20.85
Медиаинфо
Формат : Matroska
Версия формата : Version 4
Размер файла : 10,7 Гбайт
Продолжительность : 2 ч. 19 м.
Общий поток : 11,0 Мбит/сек
Название фильма : by Spartanec
Дата кодирования : UTC 2022-02-15 17:19:53
Программа кодирования : mkvmerge v7.0.0 ('Where We Going') 64bit built on Jun 9 2014 15:16:27
Библиотека кодирования : libebml v1.3.0 + libmatroska v1.4.1
Обложка : Yes
Attachments : cover.jpg

Видео
Идентификатор : 1
Формат : HEVC
Формат/Информация : High Efficiency Video Coding
Профиль формата : Main 10@L4.1@High
Идентификатор кодека : V_MPEGH/ISO/HEVC
Продолжительность : 2 ч. 19 м.
Битрейт : 9 037 Кбит/сек
Ширина : 1 920 пикселей
Высота : 808 пикселей
Соотношение сторон : 2,40:1
Режим частоты кадров : Постоянный
Частота кадров : 23,976 (23976/1000) кадра/сек
Частота кадров в оригинале : 23,976 (24000/1001) кадра/сек
Цветовое пространство : YUV
Субдискретизация насыщенности : 4:2:0
Битовая глубина : 10 бит
Бит/(Пиксели*Кадры) : 0.243
Размер потока : 8,77 Гбайт (82%)
Заголовок : Spartanec
Библиотека кодирования : x265 3.5+20-17839cc0d:[Windows][GCC 11.2.0][64 bit] 10bit
Настройки программы : cpuid=1111039 / frame-threads=4 / numa-pools=16 / wpp / no-pmode / no-pme / no-psnr / no-ssim / log-level=2 / input-csp=1 / input-res=1920x808 / interlace=0 / total-frames=199970 / level-idc=41 / high-tier=1 / uhd-bd=0 / ref=5 / no-allow-non-conformance / no-repeat-headers / annexb / no-aud / no-eob / no-eos / no-hrd / info / hash=0 / no-temporal-layers / open-gop / min-keyint=23 / keyint=240 / gop-lookahead=0 / bframes=12 / b-adapt=2 / b-pyramid / bframe-bias=0 / rc-lookahead=60 / lookahead-slices=1 / scenecut=40 / no-hist-scenecut / radl=0 / no-splice / no-intra-refresh / ctu=32 / min-cu-size=8 / rect / amp / max-tu-size=32 / tu-inter-depth=4 / tu-intra-depth=4 / limit-tu=1 / rdoq-level=1 / dynamic-rd=0.00 / no-ssim-rd / signhide / no-tskip / nr-intra=0 / nr-inter=0 / no-constrained-intra / no-strong-intra-smoothing / max-merge=5 / limit-refs=0 / no-limit-modes / me=3 / subme=7 / merange=57 / temporal-mvp / no-frame-dup / no-hme / weightp / weightb / no-analyze-src-pics / deblock=-2:-2 / no-sao / no-sao-non-deblock / rd=6 / selective-sao=0 / no-early-skip / no-rskip / no-fast-intra / no-tskip-fast / no-cu-lossless / b-intra / no-splitrd-skip / rdpenalty=0 / psy-rd=2.00 / psy-rdoq=1.00 / no-rd-refine / no-lossless / cbqpoffs=0 / crqpoffs=0 / rc=crf / crf=20.2 / qcomp=0.70 / qpstep=4 / stats-write=0 / stats-read=0 / vbv-maxrate=50000 / vbv-bufsize=50000 / vbv-init=0.9 / min-vbv-fullness=50.0 / max-vbv-fullness=80.0 / crf-max=0.0 / crf-min=0.0 / ipratio=1.40 / pbratio=1.30 / aq-mode=2 / aq-strength=1.00 / no-cutree / zone-count=0 / no-strict-cbr / qg-size=32 / no-rc-grain / qpmax=69 / qpmin=0 / no-const-vbv / sar=1 / overscan=0 / videoformat=5 / range=0 / colorprim=1 / transfer=1 / colormatrix=1 / chromaloc=0 / display-window=0 / cll=0,0 / min-luma=0 / max-luma=1023 / log2-max-poc-lsb=8 / vui-timing-info / vui-hrd-info / slices=1 / no-opt-qp-pps / no-opt-ref-list-length-pps / no-multi-pass-opt-rps / scenecut-bias=0.05 / hist-threshold=0.03 / no-opt-cu-delta-qp / no-aq-motion / no-hdr10 / no-hdr10-opt / no-dhdr10-opt / no-idr-recovery-sei / analysis-reuse-level=0 / analysis-save-reuse-level=0 / analysis-load-reuse-level=0 / scale-factor=0 / refine-intra=0 / refine-inter=0 / refine-mv=0 / refine-ctu-distortion=0 / no-limit-sao / ctu-info=0 / no-lowpass-dct / refine-analysis-type=0 / copy-pic=1 / max-ausize-factor=1.0 / no-dynamic-refine / no-single-sei / no-hevc-aq / no-svt / no-field / qp-adaptation-range=1.00 / scenecut-aware-qp=0conformance-window-offsets / right=0 / bottom=0 / decoder-max-rate=0 / no-vbv-live-multi-pass
Язык : English
Default : Да
Forced : Нет
Цветовой диапазон : Limited
Основные цвета : BT.709
Характеристики трансфера : BT.709
Коэффициенты матрицы : BT.709

Аудио #1
Идентификатор : 2
Формат : AC-3
Формат/Информация : Audio Coding 3
Коммерческое название : Dolby Digital
Идентификатор кодека : A_AC3
Продолжительность : 2 ч. 19 м.
Вид битрейта : Постоянный
Битрейт : 448 Кбит/сек
Каналы : 6 каналов
Channel layout : L R C LFE Ls Rs
Частота : 48,0 КГц
Частота кадров : 31,250 кадров/сек (1536 SPF)
Метод сжатия : С потерями
Размер потока : 445 Мбайт (4%)
Заголовок : MVO (Киномания)
Язык : Russian
Service kind : Complete Main
Default : Да
Forced : Нет

Аудио #2
Идентификатор : 3
Формат : AC-3
Формат/Информация : Audio Coding 3
Коммерческое название : Dolby Digital
Идентификатор кодека : A_AC3
Продолжительность : 2 ч. 19 м.
Вид битрейта : Постоянный
Битрейт : 448 Кбит/сек
Каналы : 6 каналов
Channel layout : L R C LFE Ls Rs
Частота : 48,0 КГц
Частота кадров : 31,250 кадров/сек (1536 SPF)
Метод сжатия : С потерями
Размер потока : 445 Мбайт (4%)
Заголовок : АVO (В.Королев)
Язык : Russian
Service kind : Complete Main
Default : Нет
Forced : Нет

Аудио #3
Идентификатор : 4
Формат : AC-3
Формат/Информация : Audio Coding 3
Коммерческое название : Dolby Digital
Идентификатор кодека : A_AC3
Продолжительность : 2 ч. 19 м.
Вид битрейта : Постоянный
Битрейт : 448 Кбит/сек
Каналы : 6 каналов
Channel layout : L R C LFE Ls Rs
Частота : 48,0 КГц
Частота кадров : 31,250 кадров/сек (1536 SPF)
Метод сжатия : С потерями
Размер потока : 445 Мбайт (4%)
Заголовок : АVO (М.Чадов)
Язык : Russian
Service kind : Complete Main
Default : Нет
Forced : Нет

Аудио #4
Идентификатор : 5
Формат : AC-3
Формат/Информация : Audio Coding 3
Коммерческое название : Dolby Digital
Идентификатор кодека : A_AC3
Продолжительность : 2 ч. 19 м.
Вид битрейта : Постоянный
Битрейт : 640 Кбит/сек
Каналы : 6 каналов
Channel layout : L R C LFE Ls Rs
Частота : 48,0 КГц
Частота кадров : 31,250 кадров/сек (1536 SPF)
Метод сжатия : С потерями
Размер потока : 636 Мбайт (6%)
Заголовок : Оригинал
Язык : English
Service kind : Complete Main
Default : Нет
Forced : Нет

Текст #1
Идентификатор : 6
Формат : UTF-8
Идентификатор кодека : S_TEXT/UTF8
Идентификатор кодека/Информация : UTF-8 Plain Text
Продолжительность : 2 ч. 12 м.
Битрейт : 57 бит/сек
Count of elements : 1067
Размер потока : 56,0 Кбайт (0%)
Язык : Russian
Default : Да
Forced : Нет

Текст #2
Идентификатор : 7
Формат : UTF-8
Идентификатор кодека : S_TEXT/UTF8
Идентификатор кодека/Информация : UTF-8 Plain Text
Продолжительность : 2 ч. 9 м.
Битрейт : 34 бит/сек
Count of elements : 1039
Размер потока : 32,7 Кбайт (0%)
Язык : English
Default : Нет
Forced : Нет

Меню
00:00:00.000 : :Dirty Deal
00:07:39.400 : :Surprise!
00:10:38.533 : :Last One
00:15:37.233 : :Professional Work
00:19:17.100 : :Identity Leak
00:22:06.433 : :Family Reunion
00:25:12.100 : :Tragedy's Toll
00:29:57.233 : :Party Crashers
00:35:52.433 : :Violent Vengeance
00:39:27.933 : :Open Wounds
00:45:08.433 : :Building Strength
00:48:55.866 : :Finding Answers
00:53:48.000 : :Restricted Access
00:59:48.500 : :Breaking News
01:04:39.066 : :Late Night Trouble
01:10:39.033 : :Enemy Waters
01:12:42.066 : :Good Neighbors
01:26:18.433 : :Battle Of Brawn
01:31:10.066 : :Time To Talk
01:38:34.566 : :One Good Turn
01:43:19.933 : :Planting Thoughts
01:46:25.700 : :Cheating Partner
01:53:32.633 : :Loyalty Issues
01:56:55.000 : :Pursuing Justice
02:02:16.266 : :Setting Traps
02:03:52.533 : :Last Target
02:06:43.000 : :Memories
02:09:16.533 : :For The Family
Загрузка...Cкриншот1 Каратель / The Punisher (2004) [Director's Cut] BDRip 1080p [HEVC] 10 bit от Spartanec1308Загрузка...Cкриншот2 Каратель / The Punisher (2004) [Director's Cut] BDRip 1080p [HEVC] 10 bit от Spartanec1308Загрузка...Cкриншот3 Каратель / The Punisher (2004) [Director's Cut] BDRip 1080p [HEVC] 10 bit от Spartanec1308Загрузка...Cкриншот4 Каратель / The Punisher (2004) [Director's Cut] BDRip 1080p [HEVC] 10 bit от Spartanec1308
Сэмпл Торрент🧲 Магнет

Рейтинги КП и IMDB, кнопки "Позвать в чате" и "Спасибо", а также мультитрекерная статистика доступны только зарегистрированным/авторизованным пользователям!

Файлы: 1
  • Каратель (2004) Extended BDRip 1080p [HEVC] 10bit by Spartanec.mkv   10.7 ГБ
Поблагодарили: 9
77carlsson77, and50, bs158250, D16T, ilyich05, IRIT, Kiran, makss333, Nuclear70
Spartanec1308
0460010.7 ГБ

Добавление нового комментария

Добавление комментариев доступно только зарегистрированным/авторизованным пользователям.