💬 Мини-чат

Убедительная просьба не обсуждать тут политику.
МичманADVOKAT69, ✋
ADVOKAT69Spartanec1308, ✋
AlexTwittAdmin, странно, что только на 1 часть 😃
AdminРелизы Гоголь - старые. Просто вытащил из антологии, так как на первую часть пришла жалоба, и придется заблокировать.
  • GIS88
  • torrentzulu
  • yalibgot
Отправка сообщений доступна только зарегистрированным/авторизованным пользователям.
Онлайн (за 10 мин.): 3

Агент 117: Из Африки с любовью / OSS 117: Alerte rouge en Afrique noire (2021) BDRip 1080p [HEVC] 10 bit от OldGamer (RG RIPS CLUB)

HEVC
10 bit
Обложка Агент 117: Из Африки с любовью / OSS 117: Alerte rouge en Afrique noire (2021) BDRip 1080p [HEVC] 10 bit от OldGamer (RG RIPS CLUB) Год: 2021
Страна: Франция, Бельгия
Студия: Blue Sky Films, Canal+ [fr], Ciné, Gaumont
Жанр: Боевик, Комедия
Продолжительность: 01:55:37

Режиссер: Николя Бедос
В ролях: Жан Дюжарден, Пьер Нинэ, Фату Н’Диайе, Наташа Линдинжер, Владимир Иорданов, Жиль Коэн, Балла Хабиб Дембеле, Иван Франек, Пол Уайт, Эмиль Абоссоло Мбо

Описание: Судьба заносит легендарного Агента 117 в Африку, где горячее пустыни только женщины. Вооружённый неиссякаемой уверенностью в себе и убийственной харизмой, он может справиться со всеми врагами, кроме самого себя.


Исходник: Blu-Ray Remux 1080p (SuperCat)
Видео: 1920x804 (2.40:1), 8378 Кбит/сек, HEVC (Main10@L.4.1@High)
Аудио1: AC3, 6 ch, 384 Kbps - РусскийРусский, DUB
Аудио2: AC3, 6 ch, 640 Kbps - FrenchFrench, Original
Субтитры: Русские форсированные и полные (SRT), English full (SRT), French full (SRT)

Как за пару секунд удалить ненужные аудиодорожки и субтитры (Внимание! После удаления вы не сможете поддержать раздачу)

Лог (x265 info)
x265 [info]: frame I: 696, Avg QP:18.41 kb/s: 20008.75
x265 [info]: frame P: 28032, Avg QP:20.02 kb/s: 14330.54
x265 [info]: frame B: 137780, Avg QP:21.69 kb/s: 7106.71
x265 [info]: Weighted P-Frames: Y:8.3% UV:7.2%
x265 [info]: Weighted B-Frames: Y:6.5% UV:5.5%
x265 [info]: consecutive B-frames: 1.6% 1.8% 5.0% 30.2% 10.6% 21.3% 5.8% 14.3% 2.7% 1.7% 1.1% 2.4% 0.6% 0.4% 0.5%
x265 [info]: encoded 166508 frames in 119238.42s (1.40 fps), 8376.78 kb/s, Avg QP:21.40
Медиаинфо
Общее
Уникальный идентификатор : 308591516588082769843474477697598246492 (0xE8289071E83E1B3B0892976F221C4E5C)
Полное имя : \\.\Агент.117.Из.Африки.с любовью.OSS.117.Alerte.rouge.en.Afrique.Noire.2021.BDRip-HEVC.1080p.mkv
Формат : Matroska
Версия формата : Version 4
Размер файла : 7,60 Гбайт
Продолжительность : 1 ч. 55 м.
Общий поток : 9 404 Кбит/сек
Название фильма : Агент.117.Из.Африки.с любовью.OSS.117.Alerte.rouge.en.Afrique.Noire.2021.BDRip-HEVC.1080p
Дата кодирования : UTC 2022-02-23 10:51:18
Программа кодирования : mkvmerge v65.0.0 ('Too Much') 64-bit
Библиотека кодирования : libebml v1.4.2 + libmatroska v1.6.4

Видео
Идентификатор : 1
Формат : HEVC
Формат/Информация : High Efficiency Video Coding
Профиль формата : Main 10@L4.1@High
Идентификатор кодека : V_MPEGH/ISO/HEVC
Продолжительность : 1 ч. 55 м.
Битрейт : 8 378 Кбит/сек
Ширина : 1 920 пикселей
Высота : 804 пикселя
Соотношение сторон : 2,40:1
Режим частоты кадров : Постоянный
Частота кадров : 24,000 кадра/сек
Цветовое пространство : YUV
Субдискретизация насыщенности : 4:2:0
Битовая глубина : 10 бит
Бит/(Пиксели*Кадры) : 0.226
Размер потока : 6,77 Гбайт (89%)
Заголовок : OSS 117: Alerte rouge en Afrique noire / Rip by OldGamer
Библиотека кодирования : x265 3.5+29-3415705dd:[Windows][GCC 11.2.0][64 bit] 10bit
Настройки программы : cpuid=1111039 / frame-threads=3 / numa-pools=8 / wpp / no-pmode / no-pme / no-psnr / no-ssim / log-level=2 / input-csp=1 / input-res=1920x804 / interlace=0 / total-frames=166508 / level-idc=41 / high-tier=1 / uhd-bd=0 / ref=5 / no-allow-non-conformance / no-repeat-headers / annexb / no-aud / no-eob / no-eos / no-hrd / info / hash=0 / no-temporal-layers / open-gop / min-keyint=23 / keyint=240 / gop-lookahead=0 / bframes=14 / b-adapt=2 / b-pyramid / bframe-bias=0 / rc-lookahead=40 / lookahead-slices=0 / scenecut=40 / no-hist-scenecut / radl=0 / no-splice / no-intra-refresh / ctu=32 / min-cu-size=8 / rect / amp / max-tu-size=32 / tu-inter-depth=4 / tu-intra-depth=4 / limit-tu=1 / rdoq-level=2 / dynamic-rd=0.00 / no-ssim-rd / signhide / no-tskip / nr-intra=0 / nr-inter=0 / no-constrained-intra / no-strong-intra-smoothing / max-merge=5 / limit-refs=3 / no-limit-modes / me=3 / subme=7 / merange=57 / temporal-mvp / no-frame-dup / no-hme / weightp / weightb / no-analyze-src-pics / deblock=-3:-3 / no-sao / no-sao-non-deblock / rd=6 / selective-sao=0 / no-early-skip / no-rskip / no-fast-intra / no-tskip-fast / no-cu-lossless / b-intra / no-splitrd-skip / rdpenalty=0 / psy-rd=2.00 / psy-rdoq=1.00 / no-rd-refine / no-lossless / cbqpoffs=0 / crqpoffs=0 / rc=crf / crf=19.7 / qcomp=0.60 / qpstep=4 / stats-write=0 / stats-read=0 / vbv-maxrate=50000 / vbv-bufsize=50000 / vbv-init=0.9 / min-vbv-fullness=50.0 / max-vbv-fullness=80.0 / crf-max=0.0 / crf-min=0.0 / ipratio=1.40 / pbratio=1.30 / aq-mode=1 / aq-strength=1.00 / no-cutree / zone-count=1 / zones: / start-frame=161030 / end-frame=166508 / qp=36 / no-strict-cbr / qg-size=32 / no-rc-grain / qpmax=69 / qpmin=0 / no-const-vbv / sar=1 / overscan=0 / videoformat=5 / range=0 / colorprim=2 / transfer=2 / colormatrix=2 / chromaloc=0 / display-window=0 / cll=0,0 / min-luma=0 / max-luma=1023 / log2-max-poc-lsb=8 / vui-timing-info / vui-hrd-info / slices=1 / no-opt-qp-pps / no-opt-ref-list-length-pps / no-multi-pass-opt-rps / scenecut-bias=0.00 / hist-threshold=0.03 / no-opt-cu-delta-qp / no-aq-motion / no-hdr10 / no-hdr10-opt / no-dhdr10-opt / no-idr-recovery-sei / analysis-reuse-level=0 / analysis-save-reuse-level=0 / analysis-load-reuse-level=0 / scale-factor=0 / refine-intra=0 / refine-inter=0 / refine-mv=1 / refine-ctu-distortion=0 / no-limit-sao / ctu-info=0 / no-lowpass-dct / refine-analysis-type=0 / copy-pic=1 / max-ausize-factor=1.0 / no-dynamic-refine / no-single-sei / no-hevc-aq / no-svt / no-field / qp-adaptation-range=1.00 / scenecut-aware-qp=0conformance-window-offsets / right=0 / bottom=0 / decoder-max-rate=0 / no-vbv-live-multi-pass
Язык : French
Default : Да
Forced : Нет

Аудио #1
Идентификатор : 2
Формат : AC-3
Формат/Информация : Audio Coding 3
Коммерческое название : Dolby Digital
Идентификатор кодека : A_AC3
Продолжительность : 1 ч. 55 м.
Вид битрейта : Постоянный
Битрейт : 384 Кбит/сек
Каналы : 6 каналов
Channel layout : L R C LFE Ls Rs
Частота : 48,0 КГц
Частота кадров : 31,250 кадров/сек (1536 SPF)
Метод сжатия : С потерями
Размер потока : 318 Мбайт (4%)
Заголовок : DUB
Язык : Russian
Service kind : Complete Main
Default : Да
Forced : Да

Аудио #2
Идентификатор : 3
Формат : AC-3
Формат/Информация : Audio Coding 3
Коммерческое название : Dolby Digital
Идентификатор кодека : A_AC3
Продолжительность : 1 ч. 55 м.
Вид битрейта : Постоянный
Битрейт : 640 Кбит/сек
Каналы : 6 каналов
Channel layout : L R C LFE Ls Rs
Частота : 48,0 КГц
Частота кадров : 31,250 кадров/сек (1536 SPF)
Метод сжатия : С потерями
Размер потока : 529 Мбайт (7%)
Заголовок : Original
Язык : French
Service kind : Complete Main
Default : Нет
Forced : Нет

Текст #1
Идентификатор : 4
Формат : UTF-8
Идентификатор кодека : S_TEXT/UTF8
Идентификатор кодека/Информация : UTF-8 Plain Text
Продолжительность : 1 ч. 5 м.
Битрейт : 0 бит/сек
Count of elements : 13
Размер потока : 286 байт (0%)
Заголовок : Forced
Язык : Russian
Default : Да
Forced : Да

Текст #2
Идентификатор : 5
Формат : UTF-8
Идентификатор кодека : S_TEXT/UTF8
Идентификатор кодека/Информация : UTF-8 Plain Text
Продолжительность : 1 ч. 49 м.
Битрейт : 81 бит/сек
Count of elements : 1675
Размер потока : 65,9 Кбайт (0%)
Заголовок : Full
Язык : Russian
Default : Нет
Forced : Нет

Текст #3
Идентификатор : 6
Формат : UTF-8
Идентификатор кодека : S_TEXT/UTF8
Идентификатор кодека/Информация : UTF-8 Plain Text
Продолжительность : 1 ч. 54 м.
Битрейт : 45 бит/сек
Count of elements : 1689
Размер потока : 38,6 Кбайт (0%)
Язык : English
Default : Нет
Forced : Нет

Текст #4
Идентификатор : 7
Формат : ASS
Идентификатор кодека : S_TEXT/ASS
Идентификатор кодека/Информация : Advanced Sub Station Alpha
Продолжительность : 1 ч. 55 м.
Битрейт : 219 бит/сек
Count of elements : 2773
Метод сжатия : Без потерь
Размер потока : 186 Кбайт (0%)
Заголовок : Full
Язык : French
Default : Нет
Forced : Нет

Меню
00:00:00.000 : :Chapitre 01
00:08:49.125 : :Chapitre 02
00:17:44.625 : :Chapitre 03
00:24:37.208 : :Chapitre 04
00:37:12.750 : :Chapitre 05
00:44:00.583 : :Chapitre 06
00:52:40.542 : :Chapitre 07
01:02:11.250 : :Chapitre 08
01:09:47.792 : :Chapitre 09
01:25:47.125 : :Chapitre 10
01:34:34.250 : :Chapitre 11
01:42:25.458 : :Chapitre 12
Загрузка...Cкриншот1 Агент 117: Из Африки с любовью / OSS 117: Alerte rouge en Afrique noire (2021) BDRip 1080p [HEVC] 10 bit от OldGamer (RG RIPS CLUB)Загрузка...Cкриншот2 Агент 117: Из Африки с любовью / OSS 117: Alerte rouge en Afrique noire (2021) BDRip 1080p [HEVC] 10 bit от OldGamer (RG RIPS CLUB)Загрузка...Cкриншот3 Агент 117: Из Африки с любовью / OSS 117: Alerte rouge en Afrique noire (2021) BDRip 1080p [HEVC] 10 bit от OldGamer (RG RIPS CLUB)Загрузка...Cкриншот4 Агент 117: Из Африки с любовью / OSS 117: Alerte rouge en Afrique noire (2021) BDRip 1080p [HEVC] 10 bit от OldGamer (RG RIPS CLUB)
Релиз-группа: RIPS CLUB
Сэмпл Торрент🧲 Магнет

Рейтинги КП и IMDB, кнопки "Позвать в чате" и "Спасибо", а также мультитрекерная статистика доступны только зарегистрированным/авторизованным пользователям!

Файлы: 1
  • Агент.117.Из.Африки.с любовью.OSS.117.Alerte.rouge.en.Afrique.Noire.2021.BDRip-HEVC.1080p.mkv   7.6 ГБ
Поблагодарили: 8
and50, donadar, dr_xanax, FijiMAX, IRIT, makss333, mr_nikitin, netfigni
OldGamer
0375307.6 ГБ

Добавление нового комментария

Добавление комментариев доступно только зарегистрированным/авторизованным пользователям.