💬 Мини-чат

Для тех, кому интересен процесс переделки сайта - https://rips.club/changelog.html (обновлен 20.04.2024)
Отправка сообщений доступна только зарегистрированным/авторизованным пользователям.
Онлайн (за 10 мин.): 0

Иерихон / Jericho (2006-2008) [1, 2 сезоны] BDRip 1080p [HEVC] 10 bit от OldGamer (RG RIPS CLUB)

HEVC
10 bit
Обложка Иерихон / Jericho (2006-2008) [1, 2 сезоны] BDRip 1080p [HEVC] 10 bit от OldGamer (RG RIPS CLUB) Год: 2006-2008
Страна: США
Студия: CBS Paramount Network Television, Fixed Mark Productions, Junction Entertainment
Жанр: Фантастика, Боевик, Драма, Детектив
Продолжительность: 20:54:09

Режиссер: Гай Норман Би, Сэнфорд Букставер, Джеймс Уитмор мл.
В ролях: Скит Ульрих, Ленни Джеймс, Эшли Скотт, Кеннет Митчелл, Брэд Бейер, Эйприл Паркер, Алисия Коппола, Памела Рид, Боб Стивенсон, Джералд МакРэйни

Описание: Иерихон - это драма о том, что происходит, когда внезапно появившееся на горизонте грибовидное облако повергает жителей маленького мирного канзасского городка в хаос, оставляя их в полной изоляции. Им остаётся только гадать, выжил ли ещё кто-то в Америке. Страх перед неизвестностью окунает Иерихон в бурю социальных, психологических и физических конфликтов в то время, как город остаётся без связи и электроэнергии. Город начинает трещать по швам в силу того, что страх, гнев и неразбериха пробуждают самое плохое в некоторых жителях.


Исходник: Blu-Ray Remux 1080p (EPSiLON)
Видео: 1920x1080 (16:9), 5521-7326 Кбит/сек, HEVC (Main10@L.4.1@High)
Аудио1: AC3, 2 ch, 192 Kbps - РусскийРусский, MVO (DTV)
Аудио2: AC3, 2 ch, 192 Kbps - РусскийРусский, DVO/VO (LostFilm)
Аудио3: AC3, 6 ch, 384 Kbps - EnglishEnglish, Original
Субтитры: Отсутствуют

Как за пару секунд удалить ненужные аудиодорожки и субтитры (Внимание! После удаления вы не сможете поддержать раздачу)

Лог (x265 info)
x265 [info]: frame I: 248, Avg QP:18.12 kb/s: 15897.37
x265 [info]: frame P: 10462, Avg QP:19.25 kb/s: 12699.53
x265 [info]: frame B: 47974, Avg QP:21.25 kb/s: 5064.30
x265 [info]: Weighted P-Frames: Y:10.6% UV:8.5%
x265 [info]: Weighted B-Frames: Y:9.4% UV:7.6%
x265 [info]: consecutive B-frames: 2.0% 2.6% 4.5% 23.7% 11.9% 39.4% 5.7% 4.9% 2.0% 1.1% 0.4% 0.5% 0.4% 0.3% 0.6%
x265 [info]: encoded 58684 frames in 44405.51s (1.32 fps), 6471.27 kb/s, Avg QP:20.88
Медиаинфо
Общее
Уникальный идентификатор : 56316691271136550408885333112239842276 (0x2A5E3340E21A7A812221D50F521263E4)
Полное имя : \\.\Jericho.S01E01.Pilot.The.First.Seventeen.Hours.mkv
Формат : Matroska
Версия формата : Version 4
Размер файла : 2,06 Гбайт
Продолжительность : 40 м. 47 с.
Общий поток : 7 242 Кбит/сек
Название фильма : Jericho.S01E01.Pilot.The.First.Seventeen.Hours
Дата кодирования : UTC 2022-02-24 14:46:13
Программа кодирования : mkvmerge v65.0.0 ('Too Much') 64-bit
Библиотека кодирования : libebml v1.4.2 + libmatroska v1.6.4

Видео
Идентификатор : 1
Формат : HEVC
Формат/Информация : High Efficiency Video Coding
Профиль формата : Main 10@L4.1@High
Идентификатор кодека : V_MPEGH/ISO/HEVC
Продолжительность : 40 м. 47 с.
Битрейт : 6 472 Кбит/сек
Ширина : 1 920 пикселей
Высота : 1 080 пикселей
Соотношение сторон : 16:9
Режим частоты кадров : Постоянный
Частота кадров : 23,976 (24000/1001) кадра/сек
Цветовое пространство : YUV
Субдискретизация насыщенности : 4:2:0
Битовая глубина : 10 бит
Бит/(Пиксели*Кадры) : 0.130
Размер потока : 1,84 Гбайт (89%)
Заголовок : Jericho S01E01 / Rip by OldGamer
Библиотека кодирования : x265 3.5+19-8003e4382:[Windows][GCC 11.2.0][64 bit] 10bit
Настройки программы : cpuid=1111039 / frame-threads=4 / numa-pools=16 / wpp / no-pmode / no-pme / no-psnr / no-ssim / log-level=2 / input-csp=1 / input-res=1920x1080 / interlace=0 / total-frames=58684 / level-idc=41 / high-tier=1 / uhd-bd=0 / ref=5 / no-allow-non-conformance / no-repeat-headers / annexb / no-aud / no-eob / no-eos / no-hrd / info / hash=0 / no-temporal-layers / open-gop / min-keyint=23 / keyint=240 / gop-lookahead=0 / bframes=14 / b-adapt=2 / b-pyramid / bframe-bias=0 / rc-lookahead=40 / lookahead-slices=0 / scenecut=40 / no-hist-scenecut / radl=0 / no-splice / no-intra-refresh / ctu=32 / min-cu-size=8 / rect / amp / max-tu-size=32 / tu-inter-depth=4 / tu-intra-depth=4 / limit-tu=1 / rdoq-level=2 / dynamic-rd=0.00 / no-ssim-rd / signhide / no-tskip / nr-intra=0 / nr-inter=0 / no-constrained-intra / no-strong-intra-smoothing / max-merge=5 / limit-refs=3 / no-limit-modes / me=3 / subme=7 / merange=57 / temporal-mvp / no-frame-dup / no-hme / weightp / weightb / no-analyze-src-pics / deblock=-2:-2 / no-sao / no-sao-non-deblock / rd=6 / selective-sao=0 / no-early-skip / no-rskip / no-fast-intra / no-tskip-fast / no-cu-lossless / b-intra / no-splitrd-skip / rdpenalty=0 / psy-rd=2.00 / psy-rdoq=1.00 / no-rd-refine / no-lossless / cbqpoffs=0 / crqpoffs=0 / rc=crf / crf=21.5 / qcomp=0.60 / qpstep=4 / stats-write=0 / stats-read=0 / vbv-maxrate=50000 / vbv-bufsize=50000 / vbv-init=0.9 / min-vbv-fullness=50.0 / max-vbv-fullness=80.0 / crf-max=0.0 / crf-min=0.0 / ipratio=1.40 / pbratio=1.30 / aq-mode=1 / aq-strength=1.00 / no-cutree / zone-count=1 / zones: / start-frame=57731 / end-frame=58684 / qp=36 / no-strict-cbr / qg-size=32 / no-rc-grain / qpmax=69 / qpmin=0 / no-const-vbv / sar=1 / overscan=0 / videoformat=5 / range=0 / colorprim=2 / transfer=2 / colormatrix=2 / chromaloc=0 / display-window=0 / cll=0,0 / min-luma=0 / max-luma=1023 / log2-max-poc-lsb=8 / vui-timing-info / vui-hrd-info / slices=1 / no-opt-qp-pps / no-opt-ref-list-length-pps / no-multi-pass-opt-rps / scenecut-bias=0.00 / hist-threshold=0.03 / no-opt-cu-delta-qp / no-aq-motion / no-hdr10 / no-hdr10-opt / no-dhdr10-opt / no-idr-recovery-sei / analysis-reuse-level=0 / analysis-save-reuse-level=0 / analysis-load-reuse-level=0 / scale-factor=0 / refine-intra=0 / refine-inter=0 / refine-mv=1 / refine-ctu-distortion=0 / no-limit-sao / ctu-info=0 / no-lowpass-dct / refine-analysis-type=0 / copy-pic=1 / max-ausize-factor=1.0 / no-dynamic-refine / no-single-sei / no-hevc-aq / no-svt / no-field / qp-adaptation-range=1.00 / scenecut-aware-qp=0conformance-window-offsets / right=0 / bottom=0 / decoder-max-rate=0 / no-vbv-live-multi-pass
Язык : English
Default : Да
Forced : Нет

Аудио #1
Идентификатор : 2
Формат : AC-3
Формат/Информация : Audio Coding 3
Коммерческое название : Dolby Digital
Идентификатор кодека : A_AC3
Продолжительность : 40 м. 45 с.
Вид битрейта : Постоянный
Битрейт : 192 Кбит/сек
Каналы : 2 канала
Channel layout : L R
Частота : 48,0 КГц
Частота кадров : 31,250 кадров/сек (1536 SPF)
Метод сжатия : С потерями
Задержка видео : 1 с. 0 мс.
Размер потока : 56,0 Мбайт (3%)
Заголовок : DD 2.0 (DTV) by MIF
Язык : Russian
Service kind : Complete Main
Default : Да
Forced : Нет

Аудио #2
Идентификатор : 3
Формат : AC-3
Формат/Информация : Audio Coding 3
Коммерческое название : Dolby Digital
Идентификатор кодека : A_AC3
Продолжительность : 40 м. 45 с.
Вид битрейта : Постоянный
Битрейт : 192 Кбит/сек
Каналы : 2 канала
Channel layout : L R
Частота : 48,0 КГц
Частота кадров : 31,250 кадров/сек (1536 SPF)
Метод сжатия : С потерями
Задержка видео : 1 с. 0 мс.
Размер потока : 56,0 Мбайт (3%)
Заголовок : DD 2.0 (LostFilm) by MIF
Язык : Russian
Service kind : Complete Main
Default : Нет
Forced : Нет

Аудио #3
Идентификатор : 4
Формат : AC-3
Формат/Информация : Audio Coding 3
Коммерческое название : Dolby Digital
Идентификатор кодека : A_AC3
Продолжительность : 40 м. 45 с.
Вид битрейта : Постоянный
Битрейт : 384 Кбит/сек
Каналы : 6 каналов
Channel layout : L R C LFE Ls Rs
Частота : 48,0 КГц
Частота кадров : 31,250 кадров/сек (1536 SPF)
Метод сжатия : С потерями
Задержка видео : 1 с. 0 мс.
Размер потока : 112 Мбайт (5%)
Заголовок : DD 5.1
Язык : English
Service kind : Complete Main
Default : Нет
Forced : Нет

Меню
00:00:00.000 : en:Chapter 1
00:10:28.294 : en:Chapter 2
00:17:10.988 : en:Chapter 3
00:25:55.929 : en:Chapter 4
00:32:18.728 : en:Chapter 5
Загрузка...Cкриншот1 Иерихон / Jericho (2006-2008) [1, 2 сезоны] BDRip 1080p [HEVC] 10 bit от OldGamer (RG RIPS CLUB)Загрузка...Cкриншот2 Иерихон / Jericho (2006-2008) [1, 2 сезоны] BDRip 1080p [HEVC] 10 bit от OldGamer (RG RIPS CLUB)Загрузка...Cкриншот3 Иерихон / Jericho (2006-2008) [1, 2 сезоны] BDRip 1080p [HEVC] 10 bit от OldGamer (RG RIPS CLUB)Загрузка...Cкриншот4 Иерихон / Jericho (2006-2008) [1, 2 сезоны] BDRip 1080p [HEVC] 10 bit от OldGamer (RG RIPS CLUB)
Релиз-группа: RIPS CLUB
Сэмпл Торрент🧲 Магнет

Рейтинги КП и IMDB, кнопки "Позвать в чате" и "Спасибо", а также мультитрекерная статистика доступны только зарегистрированным/авторизованным пользователям!

Файлы: 29
  • Иерихон.Jericho.S01-02.BDRip-HEVC.1080p
    • Jericho.S01E01.Pilot.The.First.Seventeen.Hours.mkv   2.06 ГБ
    • Jericho.S01E02.Fallout.mkv   2.28 ГБ
    • Jericho.S01E03.Four.Horsemen.mkv   2.47 ГБ
    • Jericho.S01E04.Walls.of.Jericho.mkv   2.07 ГБ
    • Jericho.S01E05.Federal.Response.mkv   2.22 ГБ
    • Jericho.S01E06.9.02.mkv   2.34 ГБ
    • Jericho.S01E07.Long.Live.the.Mayor.mkv   2.3 ГБ
    • Jericho.S01E08.Rogue.River.mkv   2.12 ГБ
    • Jericho.S01E09.Crossroads.mkv   2.07 ГБ
    • Jericho.S01E10.Red.Flag.mkv   2.04 ГБ
    • Jericho.S01E11.Vox.Populi.mkv   2.21 ГБ
    • Jericho.S01E12.The.Day.Before.mkv   2.02 ГБ
    • Jericho.S01E13.Black.Jack.mkv   2.43 ГБ
    • Jericho.S01E14.Heart.of.Winter.mkv   2.39 ГБ
    • Jericho.S01E15.Semper.Fidelis.mkv   2.24 ГБ
    • Jericho.S01E16.Winters.End.mkv   2.17 ГБ
    • Jericho.S01E17.One.Mans.Terrorist.mkv   2.21 ГБ
    • Jericho.S01E18.A.K.A..mkv   2.14 ГБ
    • Jericho.S01E19.Casus.Belli.mkv   1.97 ГБ
    • Jericho.S01E20.One.If.by.Land.mkv   2.08 ГБ
    • Jericho.S01E21.Coalition.of.the.Willing.mkv   2.27 ГБ
    • Jericho.S01E22.Why.We.Fight.mkv   2.18 ГБ
    • Jericho.S02E01.Reconstruction.mkv   2.26 ГБ
    • Jericho.S02E02.Condor.mkv   2.18 ГБ
    • Jericho.S02E03.Jennings.and.Rall.mkv   2.06 ГБ
    • Jericho.S02E04.Oversight.mkv   2.15 ГБ
    • Jericho.S02E05.Termination.for.Cause.mkv   2.21 ГБ
    • Jericho.S02E06.Sedition.mkv   2.37 ГБ
    • Jericho.S02E07.Patriots.and.Tyrants.mkv   2.13 ГБ
Поблагодарили: 9
Brooklyn, garant3v, ilyich05, Niflung, SergKote, shurang, torrentzulu, VIS, Тренер по Йоге
OldGamer
322354 (29)  63.66 ГБ

Добавление нового комментария

Добавление комментариев доступно только зарегистрированным/авторизованным пользователям.
Аватар OldGamer
  OldGamer  
AZ писал(а):
Говорят, фильм стоит посмотреть. Можете возобновить раздачу?
Будет раздаваться несколько дней, при отсутствии скачивающих остановится автоматически.
Аватар не указан
  AZ  
Говорят, фильм стоит посмотреть. Можете возобновить раздачу?
Аватар Nuclear70
  Nuclear70  
Кто смотрел что да как ?