💬 Мини-чат

Убедительная просьба не обсуждать тут политику.
МичманADVOKAT69, ✋
ADVOKAT69Spartanec1308, ✋
AlexTwittAdmin, странно, что только на 1 часть 😃
AdminРелизы Гоголь - старые. Просто вытащил из антологии, так как на первую часть пришла жалоба, и придется заблокировать.
Отправка сообщений доступна только зарегистрированным/авторизованным пользователям.
Онлайн (за 10 мин.): 0

Дом Gucci / House of Gucci (2021) BDRip 1080p [HEVC] 10 bit [HDR] от mikos

HEVC
HDR
10 bit
Обложка Дом Gucci / House of Gucci (2021) BDRip 1080p [HEVC] 10 bit [HDR] от mikos Год: 2021
Страна: США, Канада
Студия: Bron Studios, Metro-Goldwyn-Mayer (MGM), Scott Free Productions, Universal Pictures
Жанр: Биография, Драма, Криминал
Продолжительность: 02:37:47

Режиссер: Ридли Скотт
В ролях: Леди Гага, Адам Драйвер, Аль Пачино, Джереми Айронс, Джаред Лето, Джек Хьюстон, Сальма Хайек, Алексия Мюррей, Винсент Риотта, Гаэтано Бруно, Камилла Коттин, Юссеф Керкур, Рив Карни, Флоренс Эндрюс, Мехди Неббу, Милуд Мурад Бенамара, Андреа Пьедимонте Бодини, Винченцо Танасси, Мауро Ламантиа, Николь Бани Саркуте

Описание: Фамилия Гуччи звучала так сладко, так соблазнительно. Синоним роскоши, стиля, власти. Но она же была их проклятьем. Шокирующая история любви, предательства, падения и мести, которая привела к жестокому убийству в одной из самых знаменитых модных империй мира.


Видео: 1920x804, ~6210 Кбит/сек
Аудио1: AC3, 6 ch, 384 Kbps - РусскийРусский, Дублированный (Пифагор)
Аудио2: DTS, 6 ch, 1509 Kbps - EnglishEnglish, Original
Субтитры: Русские (форсированные, полные), английские

Как за пару секунд удалить ненужные аудиодорожки и субтитры (Внимание! После удаления вы не сможете поддержать раздачу)

Лог (x265 info)
x265 info: frame I: 1722, Avg QP:13.78 kb/s: 19744.10
x265 info: frame P: 40154, Avg QP:15.07 kb/s: 10931.84
x265 info: frame B: 185080, Avg QP:17.10 kb/s: 5054.87
x265 info: Weighted P-Frames: Y:7.2% UV:4.6%
x265 info: Weighted B-Frames: Y:4.7% UV:2.5%
x265 info: consecutive B-frames: 8.2% 4.3% 4.2% 29.2% 10.3% 17.1% 6.1% 9.0% 3.2% 2.9% 1.5% 1.6% 0.8% 0.6% 0.9%
Медиаинфо
General
Unique ID : 241696497921419977100612681284089044977 (0xB5D50D623981C1C0147125C929585FF1)
Complete name : D:ТоррентHouse of Gucci 2021.UHD BDRip.1080p.HEVC.HDR10.10bit.DUB.mikos.mkv
Format : Matroska
Format version : Version 4
File size : 8.93 GiB
Duration : 2 h 37 min
Overall bit rate : 8 106 kb/s
Movie name : House of Gucci 2021.UHD BDRip.1080p.HEVC.HDR10.10bit.DUB.mikos
Encoded date : UTC 2022-03-12 05:12:23
Writing application : mkvmerge v65.0.0 ('Too Much') 64-bit
Writing library : libebml v1.4.2 + libmatroska v1.6.4

Video
ID : 1
Format : HEVC
Format/Info : High Efficiency Video Coding
Format profile : Main 10@L4.1@High
HDR format : SMPTE ST 2086, HDR10 compatible
Codec ID : V_MPEGH/ISO/HEVC
Duration : 2 h 37 min
Bit rate : 6 210 kb/s
Width : 1 920 pixels
Height : 804 pixels
Display aspect ratio : 2.40:1
Frame rate mode : Constant
Frame rate : 23.976 (24000/1001) FPS
Color space : YUV
Chroma subsampling : 4:2:0 (Type 2)
Bit depth : 10 bits
Bits/(Pixel*Frame) : 0.168
Stream size : 6.84 GiB (77%)
Title : Rip by mikos
Writing library : x265 3.4+28-419182243:[Windows][clang 13.0.0][64 bit] 10bit
Encoding settings : cpuid=1111039 / frame-threads=3 / numa-pools=12 / wpp / no-pmode / no-pme / no-psnr / no-ssim / log-level=3 / input-csp=1 / input-res=1920x804 / interlace=0 / total-frames=0 / level-idc=41 / high-tier=1 / uhd-bd=0 / ref=5 / allow-non-conformance / repeat-headers / annexb / no-aud / no-hrd / info / hash=0 / no-temporal-layers / open-gop / min-keyint=23 / keyint=240 / gop-lookahead=0 / bframes=14 / b-adapt=2 / b-pyramid / bframe-bias=0 / rc-lookahead=60 / lookahead-slices=4 / scenecut=40 / hist-scenecut=0 / radl=0 / no-splice / no-intra-refresh / ctu=32 / min-cu-size=8 / no-rect / no-amp / max-tu-size=32 / tu-inter-depth=4 / tu-intra-depth=4 / limit-tu=1 / rdoq-level=2 / dynamic-rd=0.00 / no-ssim-rd / signhide / no-tskip / nr-intra=0 / nr-inter=0 / no-constrained-intra / strong-intra-smoothing / max-merge=4 / limit-refs=2 / no-limit-modes / me=3 / subme=7 / merange=57 / temporal-mvp / no-frame-dup / no-hme / weightp / weightb / no-analyze-src-pics / deblock=-3:-3 / no-sao / no-sao-non-deblock / rd=4 / selective-sao=0 / no-early-skip / no-rskip / fast-intra / no-tskip-fast / no-cu-lossless / no-b-intra / no-splitrd-skip / rdpenalty=0 / psy-rd=2.00 / psy-rdoq=1.00 / no-rd-refine / no-lossless / cbqpoffs=0 / crqpoffs=0 / rc=crf / crf=17.1 / qcomp=0.65 / qpstep=4 / stats-write=0 / stats-read=0 / vbv-maxrate=50000 / vbv-bufsize=50000 / vbv-init=0.9 / min-vbv-fullness=50.0 / max-vbv-fullness=80.0 / crf-max=27.0 / crf-min=0.0 / ipratio=1.40 / pbratio=1.30 / aq-mode=1 / aq-strength=1.00 / no-cutree / zone-count=0 / no-strict-cbr / qg-size=32 / no-rc-grain / qpmax=69 / qpmin=0 / no-const-vbv / sar=1 / overscan=0 / videoformat=5 / range=0 / colorprim=9 / transfer=16 / colormatrix=9 / chromaloc=1 / chromaloc-top=2 / chromaloc-bottom=2 / display-window=0 / master-display=G(13250,34500)B(7500,3000)R(34000,16000)WP(15635,16450)L(10000000,1) / cll=800,22 / min-luma=0 / max-luma=1023 / log2-max-poc-lsb=8 / vui-timing-info / vui-hrd-info / slices=1 / no-opt-qp-pps / no-opt-ref-list-length-pps / no-multi-pass-opt-rps / scenecut-bias=0.05 / hist-threshold=0.03 / no-opt-cu-delta-qp / no-aq-motion / hdr10 / hdr10-opt / no-dhdr10-opt / no-idr-recovery-sei / analysis-reuse-level=0 / analysis-save-reuse-level=0 / analysis-load-reuse-level=0 / scale-factor=0 / refine-intra=0 / refine-inter=0 / refine-mv=1 / refine-ctu-distortion=0 / no-limit-sao / ctu-info=0 / no-lowpass-dct / refine-analysis-type=0 / copy-pic=1 / max-ausize-factor=1.0 / no-dynamic-refine / no-single-sei / no-hevc-aq / no-svt / no-field / qp-adaptation-range=1.00 / no-scenecut-aware-qpconformance-window-offsets / right=0 / bottom=0 / decoder-max-rate=0 / no-vbv-live-multi-pass
Language : English
Default : Yes
Forced : No
Color range : Limited
Color primaries : BT.2020
Transfer characteristics : PQ
Matrix coefficients : BT.2020 non-constant
Mastering display color primaries : Display P3
Mastering display luminance : min: 0.0001 cd/m2, max: 1000 cd/m2
Maximum Content Light Level : 800 cd/m2
Maximum Frame-Average Light Level : 22 cd/m2

Audio #1
ID : 2
Format : AC-3
Format/Info : Audio Coding 3
Commercial name : Dolby Digital
Codec ID : A_AC3
Duration : 2 h 37 min
Bit rate mode : Constant
Bit rate : 384 kb/s
Channel(s) : 6 channels
Channel layout : L R C LFE Ls Rs
Sampling rate : 48.0 kHz
Frame rate : 31.250 FPS (1536 SPF)
Bit depth : 32 bits
Compression mode : Lossy
Stream size : 433 MiB (5%)
Title : Dub
Language : Russian
Service kind : Complete Main
Default : Yes
Forced : No

Audio #2
ID : 3
Format : DTS
Format/Info : Digital Theater Systems
Codec ID : A_DTS
Duration : 2 h 37 min
Bit rate mode : Constant
Bit rate : 1 509 kb/s
Channel(s) : 6 channels
Channel layout : C L R Ls Rs LFE
Sampling rate : 48.0 kHz
Frame rate : 93.750 FPS (512 SPF)
Bit depth : 16 bits
Compression mode : Lossy
Stream size : 1.66 GiB (19%)
Title : Original
Language : English
Default : No
Forced : No

Text #1
ID : 4
Format : UTF-8
Codec ID : S_TEXT/UTF8
Codec ID/Info : UTF-8 Plain Text
Duration : 2 h 28 min
Bit rate : 2 b/s
Count of elements : 32
Stream size : 2.25 KiB (0%)
Title : Forced
Language : Russian
Default : Yes
Forced : Yes

Text #2
ID : 5
Format : UTF-8
Codec ID : S_TEXT/UTF8
Codec ID/Info : UTF-8 Plain Text
Duration : 2 h 30 min
Bit rate : 79 b/s
Count of elements : 1930
Stream size : 87.6 KiB (0%)
Title : Full
Language : Russian
Default : No
Forced : No

Text #3
ID : 6
Format : UTF-8
Codec ID : S_TEXT/UTF8
Codec ID/Info : UTF-8 Plain Text
Duration : 2 h 31 min
Bit rate : 49 b/s
Count of elements : 2038
Stream size : 54.9 KiB (0%)
Title : Full
Language : English
Default : No
Forced : No

Menu
00:00:00.000 : :Chapter 01
00:21:05.764 : :Chapter 02
00:41:24.148 : :Chapter 03
01:03:58.376 : :Chapter 04
01:23:04.020 : :Chapter 05
01:41:35.964 : :Chapter 06
02:02:53.908 : :Chapter 07
02:22:02.639 : :Chapter 08
Загрузка...Cкриншот1 Дом Gucci / House of Gucci (2021) BDRip 1080p [HEVC] 10 bit [HDR] от mikosЗагрузка...Cкриншот2 Дом Gucci / House of Gucci (2021) BDRip 1080p [HEVC] 10 bit [HDR] от mikosЗагрузка...Cкриншот3 Дом Gucci / House of Gucci (2021) BDRip 1080p [HEVC] 10 bit [HDR] от mikosЗагрузка...Cкриншот4 Дом Gucci / House of Gucci (2021) BDRip 1080p [HEVC] 10 bit [HDR] от mikos
Сэмпл Торрент🧲 Магнет

Рейтинги КП и IMDB, кнопки "Позвать в чате" и "Спасибо", а также мультитрекерная статистика доступны только зарегистрированным/авторизованным пользователям!

Файлы: 1
  • House of Gucci 2021.UHD BDRip.1080p.HEVC.HDR10.10bit.DUB.mikos.mkv   8.93 ГБ
Поблагодарили: 3
and50, makss333, Тренер по Йоге
HANNIBAL
05281408.93 ГБ

Добавление нового комментария

Добавление комментариев доступно только зарегистрированным/авторизованным пользователям.