💬 Мини-чат

Убедительная просьба не обсуждать тут политику.
МичманADVOKAT69, ✋
ADVOKAT69Spartanec1308, ✋
AlexTwittAdmin, странно, что только на 1 часть 😃
AdminРелизы Гоголь - старые. Просто вытащил из антологии, так как на первую часть пришла жалоба, и придется заблокировать.
  • makss333
  • MIGRANT
Отправка сообщений доступна только зарегистрированным/авторизованным пользователям.
Онлайн (за 10 мин.): 2

Чёрный ящик / Boite noire / Black Box (2021) BDRip 1080p [HEVC] 10 bit от mikos

HEVC
10 bit
Обложка Чёрный ящик / Boite noire / Black Box (2021) BDRip 1080p [HEVC] 10 bit от mikos Год: 2021
Страна: Франция, Бельгия
Студия: 2425 Films, Wy Productions, France 2 Cinéma
Жанр: Триллер, Драма, Детектив
Продолжительность: 02:09:43

Режиссер: Ян Гозлан
В ролях: Пьер Нинэ, Лу де Лааж, Андре Дюссолье, Себастьен Пудеру, Оливье Рабурден, Гийом Марке, Мехди Джаади, Энн Азулай, Орельен Рекуан, Грегори Деранжер

Описание: Крушение новейшего авиалайнера уносит жизни сотен людей. Пролить свет на причины катастрофы может только расшифровка чёрного ящика. Расследование возглавляет талантливый и эксцентричный аналитик Матьё с уникальным слухом. Чем дальше он продвигается на своем пути, тем больше обнаруживает подозрительных обстоятельств. Но никто не верит Матьё. Так может это всего лишь изощрённые игры его разума.


Видео: 1920x800, ~4258 Кбит/сек
Аудио1: AC3, 6 ch, 448 Kbps - РусскийРусский, Дублированный (Кинопоиск HD)
Аудио2: AC3, 6 ch, 640 Kbps - ФранцузскийФранцузский Original
Субтитры: Английские, французские

Как за пару секунд удалить ненужные аудиодорожки и субтитры (Внимание! После удаления вы не сможете поддержать раздачу)

Лог (x265 info)
x265 info: frame I: 1991, Avg QP:14.72 kb/s: 15889.17
x265 info: frame P: 31010, Avg QP:16.10 kb/s: 8670.06
x265 info: frame B: 153808, Avg QP:18.20 kb/s: 3214.39
x265 info: Weighted P-Frames: Y:5.6% UV:4.2%
x265 info: consecutive B-frames: 8.9% 3.6% 4.3% 26.9% 6.1% 13.3% 3.3% 25.4% 1.8% 1.3% 0.5% 3.7% 0.4% 0.2% 0.4%
Медиаинфо
General
Unique ID : 281406135085600934108152488214780405651 (0xD3B4D9A7557F6F034FF7250C2C5B6793)
Complete name : D:\Торрент\Chernyiy.yaschik.2021.BDRip.1080p.HEVC.10bit.DUB.mikos.mkv
Format : Matroska
Format version : Version 4
File size : 4.84 GiB
Duration : 2 h 9 min
Overall bit rate : 5 346 kb/s
Movie name : Chernyiy.yaschik.2021.BDRip.1080p.HEVC.10bit.DUB.mikos
Encoded date : UTC 2022-02-08 09:35:29
Writing application : mkvmerge v65.0.0 ('Too Much') 64-bit
Writing library : libebml v1.4.2 + libmatroska v1.6.4

Video
ID : 1
Format : HEVC
Format/Info : High Efficiency Video Coding
Format profile : Main 10@L4.1@High
Codec ID : V_MPEGH/ISO/HEVC
Duration : 2 h 9 min
Bit rate : 4 256 kb/s
Width : 1 920 pixels
Height : 800 pixels
Display aspect ratio : 2.40:1
Frame rate mode : Constant
Frame rate : 24.000 FPS
Color space : YUV
Chroma subsampling : 4:2:0
Bit depth : 10 bits
Bits/(Pixel*Frame) : 0.115
Stream size : 3.86 GiB (80%)
Title : Rip by mikos
Writing library : x265 3.4+28-419182243:[Windows][clang 13.0.0][64 bit] 10bit
Encoding settings : cpuid=1111039 / frame-threads=3 / numa-pools=12 / wpp / no-pmode / no-pme / no-psnr / no-ssim / log-level=3 / input-csp=1 / input-res=1920x800 / interlace=0 / total-frames=0 / level-idc=41 / high-tier=1 / uhd-bd=0 / ref=5 / allow-non-conformance / no-repeat-headers / annexb / no-aud / no-hrd / info / hash=0 / no-temporal-layers / open-gop / min-keyint=23 / keyint=240 / gop-lookahead=0 / bframes=14 / b-adapt=2 / b-pyramid / bframe-bias=0 / rc-lookahead=60 / lookahead-slices=4 / scenecut=40 / hist-scenecut=0 / radl=0 / no-splice / no-intra-refresh / ctu=32 / min-cu-size=8 / no-rect / no-amp / max-tu-size=32 / tu-inter-depth=4 / tu-intra-depth=4 / limit-tu=1 / rdoq-level=2 / dynamic-rd=0.00 / no-ssim-rd / signhide / no-tskip / nr-intra=0 / nr-inter=0 / no-constrained-intra / strong-intra-smoothing / max-merge=5 / limit-refs=3 / no-limit-modes / me=3 / subme=7 / merange=57 / temporal-mvp / no-frame-dup / no-hme / weightp / no-weightb / no-analyze-src-pics / deblock=-3:-3 / no-sao / no-sao-non-deblock / rd=4 / selective-sao=0 / no-early-skip / no-rskip / no-fast-intra / no-tskip-fast / no-cu-lossless / b-intra / no-splitrd-skip / rdpenalty=0 / psy-rd=2.00 / psy-rdoq=1.00 / no-rd-refine / no-lossless / cbqpoffs=0 / crqpoffs=0 / rc=crf / crf=19.8 / qcomp=0.65 / qpstep=5 / stats-write=0 / stats-read=0 / vbv-maxrate=50000 / vbv-bufsize=50000 / vbv-init=0.9 / min-vbv-fullness=50.0 / max-vbv-fullness=80.0 / crf-max=27.0 / crf-min=0.0 / ipratio=1.40 / pbratio=1.30 / aq-mode=1 / aq-strength=1.00 / no-cutree / zone-count=0 / no-strict-cbr / qg-size=32 / no-rc-grain / qpmax=69 / qpmin=0 / no-const-vbv / sar=1 / overscan=0 / videoformat=5 / range=0 / colorprim=2 / transfer=2 / colormatrix=2 / chromaloc=0 / display-window=0 / cll=0,0 / min-luma=0 / max-luma=1023 / log2-max-poc-lsb=8 / vui-timing-info / vui-hrd-info / slices=1 / no-opt-qp-pps / no-opt-ref-list-length-pps / no-multi-pass-opt-rps / scenecut-bias=0.05 / hist-threshold=0.03 / no-opt-cu-delta-qp / no-aq-motion / no-hdr10 / no-hdr10-opt / no-dhdr10-opt / no-idr-recovery-sei / analysis-reuse-level=0 / analysis-save-reuse-level=0 / analysis-load-reuse-level=0 / scale-factor=0 / refine-intra=0 / refine-inter=0 / refine-mv=1 / refine-ctu-distortion=0 / no-limit-sao / ctu-info=0 / no-lowpass-dct / refine-analysis-type=0 / copy-pic=1 / max-ausize-factor=1.0 / no-dynamic-refine / no-single-sei / no-hevc-aq / no-svt / no-field / qp-adaptation-range=1.00 / no-scenecut-aware-qpconformance-window-offsets / right=0 / bottom=0 / decoder-max-rate=0 / no-vbv-live-multi-pass
Default : Yes
Forced : No
Color range : Limited

Audio #1
ID : 2
Format : AC-3
Format/Info : Audio Coding 3
Commercial name : Dolby Digital
Codec ID : A_AC3
Duration : 2 h 9 min
Bit rate mode : Constant
Bit rate : 448 kb/s
Channel(s) : 6 channels
Channel layout : L R C LFE Ls Rs
Sampling rate : 48.0 kHz
Frame rate : 31.250 FPS (1536 SPF)
Bit depth : 32 bits
Compression mode : Lossy
Stream size : 416 MiB (8%)
Title : DUB (KinoPoisk HD)
Language : Russian
Service kind : Complete Main
Default : Yes
Forced : No

Audio #2
ID : 3
Format : AC-3
Format/Info : Audio Coding 3
Commercial name : Dolby Digital
Codec ID : A_AC3
Duration : 2 h 9 min
Bit rate mode : Constant
Bit rate : 640 kb/s
Channel(s) : 6 channels
Channel layout : L R C LFE Ls Rs
Sampling rate : 48.0 kHz
Frame rate : 31.250 FPS (1536 SPF)
Bit depth : 32 bits
Compression mode : Lossy
Stream size : 594 MiB (12%)
Title : Original
Language : French
Service kind : Complete Main
Default : No
Forced : No

Text #1
ID : 4
Format : UTF-8
Codec ID : S_TEXT/UTF8
Codec ID/Info : UTF-8 Plain Text
Duration : 2 h 9 min
Bit rate : 45 b/s
Count of elements : 1475
Stream size : 43.3 KiB (0%)
Title : full
Language : English
Default : Yes
Forced : No

Text #2
ID : 5
Format : UTF-8
Codec ID : S_TEXT/UTF8
Codec ID/Info : UTF-8 Plain Text
Duration : 2 h 9 min
Bit rate : 47 b/s
Count of elements : 1475
Stream size : 44.6 KiB (0%)
Title : full
Language : French
Default : No
Forced : No

Menu
00:00:00.000 : :Chapter 01
00:08:26.083 : :Chapter 02
00:19:20.542 : :Chapter 03
00:28:55.000 : :Chapter 04
00:39:09.000 : :Chapter 05
00:49:04.958 : :Chapter 06
00:59:41.000 : :Chapter 07
01:13:12.500 : :Chapter 08
01:19:47.500 : :Chapter 09
01:31:26.833 : :Chapter 10
01:40:16.750 : :Chapter 11
01:48:49.667 : :Chapter 12
Загрузка...Cкриншот1 Чёрный ящик / Boite noire / Black Box (2021) BDRip 1080p [HEVC] 10 bit от mikosЗагрузка...Cкриншот2 Чёрный ящик / Boite noire / Black Box (2021) BDRip 1080p [HEVC] 10 bit от mikosЗагрузка...Cкриншот3 Чёрный ящик / Boite noire / Black Box (2021) BDRip 1080p [HEVC] 10 bit от mikosЗагрузка...Cкриншот4 Чёрный ящик / Boite noire / Black Box (2021) BDRip 1080p [HEVC] 10 bit от mikos
Сэмпл Торрент🧲 Магнет

Рейтинги КП и IMDB, кнопки "Позвать в чате" и "Спасибо", а также мультитрекерная статистика доступны только зарегистрированным/авторизованным пользователям!

Файлы: 1
  • Chernyiy.yaschik.2021.BDRip.1080p.HEVC.10bit.DUB.mikos.mkv   4.84 ГБ
Поблагодарили: 5
alexyak, Brooklyn, ivan_1965, makss333, Тренер по Йоге
HANNIBAL
0130204.84 ГБ

Добавление нового комментария

Добавление комментариев доступно только зарегистрированным/авторизованным пользователям.