💬 Мини-чат

Убедительная просьба не обсуждать тут политику.
МичманADVOKAT69, ✋
ADVOKAT69Spartanec1308, ✋
AlexTwittAdmin, странно, что только на 1 часть 😃
AdminРелизы Гоголь - старые. Просто вытащил из антологии, так как на первую часть пришла жалоба, и придется заблокировать.
  • GIS88
  • makss333
  • yalibgot
Отправка сообщений доступна только зарегистрированным/авторизованным пользователям.
Онлайн (за 10 мин.): 3

Крик / Scream (2022) BDRip 1080p [HEVC] 10 bit от HANNIBAL

HEVC
10 bit
Обложка Крик / Scream (2022) BDRip 1080p [HEVC] 10 bit от HANNIBAL Год: 2022
Страна: США
Студия: Lantern Entertainment, Outerbanks Entertainment, Paramount Pictures, Project X Entertainment, Radio Silence Productions, Spyglass Media Group
Жанр: Ужасы
Продолжительность: 01:54:18

Режиссер: Мэттью Беттинелли, Тайлер Джиллетт
В ролях: Нив Кэмпбелл, Кортни Кокс, Дэвид Аркетт, Марли Шелтон, Мелисса Баррера, Дженна Ортега, Дилан Миннетт, Джек Куэйд, Джасмин Савой Браун, Соня Бен Аммар, Мики Мэдисон, Мэйсон Гудинг, Кайл Галлнер

Описание: Спустя 25 лет после жестоких убийств, потрясших тихий городок Вудсборо, и выхода серии культовых слэшеров на основе тех событий старшеклассница Тара подвергается нападению, такому же, как и в фильме. Узнав о случившемся, в Вудсборо возвращается её старшая сестра Сэм и просит помощи у бывшего шерифа городка Дьюи Райли в поимке нового убийцы, скрывающегося за маской Призрачного лица.


Видео: 1920x800, ~3454 Кбит/сек
Аудио1: AC3, 6 ch, 448 Kbps - РусскийРусский, Дублированный (Пифагор)
Аудио2: AC3, 6 ch, 448 Kbps - АнглийскийАнглийский, Оригинал
Субтитры: Русские (форсированные, полные), английские

Как за пару секунд удалить ненужные аудиодорожки и субтитры (Внимание! После удаления вы не сможете поддержать раздачу)

Лог (x265 info)
x265 [info]: frame I: 2075, Avg QP:16.27 kb/s: 21955.09
x265 [info]: frame P: 31205, Avg QP:17.67 kb/s: 8008.08
x265 [info]: frame B: 131164, Avg QP:20.30 kb/s: 2077.09
x265 [info]: Weighted P-Frames: Y:5.5% UV:3.8%
x265 [info]: Weighted B-Frames: Y:4.7% UV:2.9%
x265 [info]: consecutive B-frames: 9.4% 4.0% 6.0% 25.7% 10.4% 25.1% 6.8% 9.8% 1.3% 0.7% 0.3% 0.2% 0.2%
Медиаинфо
General
Unique ID : 252511034578329945774827302314494048206 (0xBDF7DB350D55B78143D1D2637F3EB7CE)
Complete name : G:\HEVC\Scream (2022) BDRip-HEVC 1080p 10 bit.mkv
Format : Matroska
Format version : Version 4
File size : 3.48 GiB
Duration : 1 h 54 min
Overall bit rate : 4 350 kb/s
Movie name : by-HANNIBAL
Encoded date : UTC 2022-03-22 14:48:02
Writing application : mkvmerge v63.0.0 ('Everything') 64-bit
Writing library : libebml v1.4.2 + libmatroska v1.6.4
Cover : Yes
Attachments : cover.jpg

Video
ID : 1
Format : HEVC
Format/Info : High Efficiency Video Coding
Format profile : Main 10@L4.1@High
Codec ID : V_MPEGH/ISO/HEVC
Duration : 1 h 54 min
Bit rate : 3 454 kb/s
Width : 1 920 pixels
Height : 800 pixels
Display aspect ratio : 2.40:1
Frame rate mode : Constant
Frame rate : 23.976 (23976/1000) FPS
Original frame rate : 23.976 (24000/1001) FPS
Color space : YUV
Chroma subsampling : 4:2:0
Bit depth : 10 bits
Bits/(Pixel*Frame) : 0.094
Stream size : 2.76 GiB (79%)
Writing library : x265 3.5+1-ce882936d:[Windows][GCC 10.2.0][64 bit] 10bit
Encoding settings : cpuid=1111039 / frame-threads=3 / numa-pools=12 / wpp / no-pmode / no-pme / no-psnr / no-ssim / log-level=2 / input-csp=1 / input-res=1920x800 / interlace=0 / total-frames=164444 / level-idc=41 / high-tier=1 / uhd-bd=0 / ref=5 / no-allow-non-conformance / no-repeat-headers / annexb / no-aud / no-hrd / info / hash=0 / no-temporal-layers / open-gop / min-keyint=23 / keyint=240 / gop-lookahead=0 / bframes=12 / b-adapt=2 / b-pyramid / bframe-bias=0 / rc-lookahead=60 / lookahead-slices=4 / scenecut=40 / hist-scenecut=0 / radl=0 / no-splice / no-intra-refresh / ctu=32 / min-cu-size=8 / rect / amp / max-tu-size=32 / tu-inter-depth=4 / tu-intra-depth=4 / limit-tu=0 / rdoq-level=2 / dynamic-rd=0.00 / no-ssim-rd / signhide / no-tskip / nr-intra=0 / nr-inter=0 / no-constrained-intra / no-strong-intra-smoothing / max-merge=5 / limit-refs=0 / no-limit-modes / me=3 / subme=7 / merange=57 / temporal-mvp / no-frame-dup / no-hme / weightp / weightb / no-analyze-src-pics / deblock=-3:-3 / no-sao / no-sao-non-deblock / rd=4 / selective-sao=0 / no-early-skip / rskip / no-fast-intra / no-tskip-fast / no-cu-lossless / b-intra / no-splitrd-skip / rdpenalty=0 / psy-rd=2.00 / psy-rdoq=1.00 / no-rd-refine / no-lossless / cbqpoffs=0 / crqpoffs=0 / rc=crf / crf=20.0 / qcomp=0.70 / qpstep=4 / stats-write=0 / stats-read=0 / vbv-maxrate=50000 / vbv-bufsize=50000 / vbv-init=0.9 / min-vbv-fullness=50.0 / max-vbv-fullness=80.0 / crf-max=0.0 / crf-min=0.0 / ipratio=1.40 / pbratio=1.30 / aq-mode=2 / aq-strength=1.00 / no-cutree / zone-count=0 / no-strict-cbr / qg-size=32 / no-rc-grain / qpmax=69 / qpmin=0 / no-const-vbv / sar=1 / overscan=0 / videoformat=5 / range=0 / colorprim=1 / transfer=1 / colormatrix=1 / chromaloc=0 / display-window=0 / cll=0,0 / min-luma=0 / max-luma=1023 / log2-max-poc-lsb=8 / vui-timing-info / vui-hrd-info / slices=1 / no-opt-qp-pps / no-opt-ref-list-length-pps / no-multi-pass-opt-rps / scenecut-bias=0.05 / hist-threshold=0.03 / no-opt-cu-delta-qp / no-aq-motion / no-hdr10 / no-hdr10-opt / no-dhdr10-opt / no-idr-recovery-sei / analysis-reuse-level=0 / analysis-save-reuse-level=0 / analysis-load-reuse-level=0 / scale-factor=0 / refine-intra=0 / refine-inter=0 / refine-mv=1 / refine-ctu-distortion=0 / no-limit-sao / ctu-info=0 / no-lowpass-dct / refine-analysis-type=0 / copy-pic=1 / max-ausize-factor=1.0 / no-dynamic-refine / no-single-sei / no-hevc-aq / no-svt / no-field / qp-adaptation-range=1.00 / scenecut-aware-qp=0conformance-window-offsets / right=0 / bottom=0 / decoder-max-rate=0 / no-vbv-live-multi-pass
Default : Yes
Forced : No
Color range : Limited
Color primaries : BT.709
Transfer characteristics : BT.709
Matrix coefficients : BT.709

Audio #1
ID : 2
Format : AC-3
Format/Info : Audio Coding 3
Commercial name : Dolby Digital
Codec ID : A_AC3
Duration : 1 h 54 min
Bit rate mode : Constant
Bit rate : 448 kb/s
Channel(s) : 6 channels
Channel layout : L R C LFE Ls Rs
Sampling rate : 48.0 kHz
Frame rate : 31.250 FPS (1536 SPF)
Compression mode : Lossy
Stream size : 367 MiB (10%)
Title : Dub
Language : Russian
Service kind : Complete Main
Default : Yes
Forced : Yes

Audio #2
ID : 3
Format : AC-3
Format/Info : Audio Coding 3
Commercial name : Dolby Digital
Codec ID : A_AC3
Duration : 1 h 54 min
Bit rate mode : Constant
Bit rate : 448 kb/s
Channel(s) : 6 channels
Channel layout : L R C LFE Ls Rs
Sampling rate : 48.0 kHz
Frame rate : 31.250 FPS (1536 SPF)
Compression mode : Lossy
Stream size : 366 MiB (10%)
Language : English
Service kind : Complete Main
Default : Yes
Forced : No

Text #1
ID : 4
Format : UTF-8
Codec ID : S_TEXT/UTF8
Codec ID/Info : UTF-8 Plain Text
Duration : 1 h 47 min
Bit rate : 2 b/s
Count of elements : 49
Stream size : 2.08 KiB (0%)
Title : Forced
Language : Russian
Default : Yes
Forced : Yes

Text #2
ID : 5
Format : UTF-8
Codec ID : S_TEXT/UTF8
Codec ID/Info : UTF-8 Plain Text
Duration : 1 h 53 min
Bit rate : 90 b/s
Count of elements : 1497
Stream size : 74.7 KiB (0%)
Title : Full
Language : Russian
Default : No
Forced : No

Text #3
ID : 6
Format : UTF-8
Codec ID : S_TEXT/UTF8
Codec ID/Info : UTF-8 Plain Text
Duration : 1 h 46 min
Bit rate : 58 b/s
Count of elements : 1475
Stream size : 45.2 KiB (0%)
Title : Full
Language : English
Default : No
Forced : No

Menu
00:00:00.000 : en:Chapter 1
00:11:18.970 : en:Chapter 2
00:19:12.568 : en:Chapter 3
00:31:06.364 : en:Chapter 4
00:38:23.551 : en:Chapter 5
00:44:21.826 : en:Chapter 6
00:53:05.599 : en:Chapter 7
00:59:44.289 : en:Chapter 8
01:08:48.583 : en:Chapter 9
01:16:27.708 : en:Chapter 10
01:26:17.339 : en:Chapter 11
01:38:30.780 : en:Chapter 12
01:48:02.976 : en:Chapter 13
Загрузка...Cкриншот1 Крик / Scream (2022) BDRip 1080p [HEVC] 10 bit от HANNIBALЗагрузка...Cкриншот2 Крик / Scream (2022) BDRip 1080p [HEVC] 10 bit от HANNIBALЗагрузка...Cкриншот3 Крик / Scream (2022) BDRip 1080p [HEVC] 10 bit от HANNIBALЗагрузка...Cкриншот4 Крик / Scream (2022) BDRip 1080p [HEVC] 10 bit от HANNIBAL
Сэмпл Торрент🧲 Магнет

Рейтинги КП и IMDB, кнопки "Позвать в чате" и "Спасибо", а также мультитрекерная статистика доступны только зарегистрированным/авторизованным пользователям!

Файлы: 1
  • Scream (2022) BDRip-HEVC 1080p 10 bit.mkv   3.48 ГБ
Поблагодарили: 6
bs158250, ivan_1965, Kiran, makss333, Rezident, Тренер по Йоге
HANNIBAL
1113103.48 ГБ

Добавление нового комментария

Добавление комментариев доступно только зарегистрированным/авторизованным пользователям.
Аватар Денис
  Денис  
все крики огонь...