💬 Мини-чат

Убедительная просьба не обсуждать тут политику.
МичманADVOKAT69, ✋
ADVOKAT69Spartanec1308, ✋
AlexTwittAdmin, странно, что только на 1 часть 😃
AdminРелизы Гоголь - старые. Просто вытащил из антологии, так как на первую часть пришла жалоба, и придется заблокировать.
  • Kokainum_21
  • magni
  • Мичман
Отправка сообщений доступна только зарегистрированным/авторизованным пользователям.
Онлайн (за 10 мин.): 3

Человек-паук: Нет пути домой / Spider-Man: No Way Home (2021) BDRip 1080p [HEVC] 10 bit от OldGamer (RG RIPS CLUB)

HEVC
10 bit
Обложка Человек-паук: Нет пути домой / Spider-Man: No Way Home (2021) BDRip 1080p [HEVC] 10 bit от OldGamer (RG RIPS CLUB) Год: 2021
Страна: США
Студия: Columbia Pictures Corporation, Marvel Studios Inc., Pascal Pictures, Sony Pictures Entertainment (SPE)
Жанр: Фантастика, Боевик, Приключения, Фэнтези
Продолжительность: 02:28:10

Режиссер: Джон Уоттс
В ролях: Том Холланд, Зендея, Бенедикт Камбербэтч, Мариса Томей, Уиллем Дефо, Альфред Молина, Джейми Фокс, Томас Хейден Чёрч, Рис Иванс, Джейкоб Баталон

Описание: Жизнь и репутация Питера Паркера оказываются под угрозой, поскольку Мистерио раскрыл всему миру тайну личности Человека-паука. Пытаясь исправить ситуацию, Питер обращается за помощью к Стивену Стрэнджу, но вскоре всё становится намного опаснее.


Исходник: Blu-Ray Remux 1080p
Видео: 1920x804 (2.40:1), 4254 Кбит/сек, HEVC (Main10@L.4.1@High)
Аудио1: AC3, 6 ch, 640 Kbps - РусскийРусский, DUB
Аудио2: AC3, 6 ch, 640 Kbps - EnglishEnglish, Original
Субтитры: Русские форсированные и полные (SRT), English full (SRT)

Как за пару секунд удалить ненужные аудиодорожки и субтитры (Внимание! После удаления вы не сможете поддержать раздачу)

Лог (x265 info)
x265 [info]: frame I: 904, Avg QP:16.38 kb/s: 15097.13
x265 [info]: frame P: 41714, Avg QP:18.00 kb/s: 9724.09
x265 [info]: frame B: 170525, Avg QP:20.41 kb/s: 2857.34
x265 [info]: Weighted P-Frames: Y:9.8% UV:8.2%
x265 [info]: Weighted B-Frames: Y:10.6% UV:7.9%
x265 [info]: consecutive B-frames: 7.2% 6.5% 6.9% 35.6% 6.3% 11.5% 2.4% 19.7% 0.6% 1.3% 0.2% 1.5% 0.1% 0.1% 0.1%
x265 [info]: encoded 213143 frames in 127617.06s (1.67 fps), 4253.14 kb/s, Avg QP:19.92
Медиаинфо
Общее
Уникальный идентификатор : 155562021492160067233442945366636447707 (0x750827D17A20387D3045A5312F2947DB)
Полное имя : \\.\27.Человек-паук.Нет.пути.домой.Spider-Man.No.Way.Home.2021.BDRip-HEVC.1080p.mkv
Формат : Matroska
Версия формата : Version 4
Размер файла : 5,73 Гбайт
Продолжительность : 2 ч. 28 м.
Общий поток : 5 536 Кбит/сек
Дата кодирования : UTC 2022-04-08 15:55:41
Программа кодирования : mkvmerge v66.0.0 ('Josie') 64-bit
Библиотека кодирования : libebml v1.4.2 + libmatroska v1.6.4

Видео
Идентификатор : 1
Формат : HEVC
Формат/Информация : High Efficiency Video Coding
Профиль формата : Main 10@L4.1@High
Идентификатор кодека : V_MPEGH/ISO/HEVC
Продолжительность : 2 ч. 28 м.
Битрейт : 4 254 Кбит/сек
Ширина : 1 920 пикселей
Высота : 804 пикселя
Соотношение сторон : 2,40:1
Режим частоты кадров : Постоянный
Частота кадров : 23,976 (24000/1001) кадра/сек
Цветовое пространство : YUV
Субдискретизация насыщенности : 4:2:0
Битовая глубина : 10 бит
Бит/(Пиксели*Кадры) : 0.115
Размер потока : 4,40 Гбайт (77%)
Заголовок : Spider-Man: No Way Home / Rip by OldGamer
Библиотека кодирования : x265 3.5+35-e3713124d:[Windows][GCC 11.2.0][64 bit] 10bit
Настройки программы : cpuid=1111039 / frame-threads=3 / numa-pools=8 / wpp / no-pmode / no-pme / no-psnr / no-ssim / log-level=2 / input-csp=1 / input-res=1920x804 / interlace=0 / total-frames=213143 / level-idc=41 / high-tier=1 / uhd-bd=0 / ref=5 / no-allow-non-conformance / no-repeat-headers / annexb / no-aud / no-eob / no-eos / no-hrd / info / hash=0 / no-temporal-layers / open-gop / min-keyint=23 / keyint=240 / gop-lookahead=0 / bframes=14 / b-adapt=2 / b-pyramid / bframe-bias=0 / rc-lookahead=40 / lookahead-slices=0 / scenecut=40 / no-hist-scenecut / radl=0 / no-splice / no-intra-refresh / ctu=32 / min-cu-size=8 / rect / amp / max-tu-size=32 / tu-inter-depth=4 / tu-intra-depth=4 / limit-tu=1 / rdoq-level=2 / dynamic-rd=0.00 / no-ssim-rd / signhide / no-tskip / nr-intra=0 / nr-inter=0 / no-constrained-intra / no-strong-intra-smoothing / max-merge=5 / limit-refs=3 / no-limit-modes / me=3 / subme=7 / merange=57 / temporal-mvp / no-frame-dup / no-hme / weightp / weightb / no-analyze-src-pics / deblock=-3:-3 / no-sao / no-sao-non-deblock / rd=6 / selective-sao=0 / no-early-skip / no-rskip / no-fast-intra / no-tskip-fast / no-cu-lossless / b-intra / no-splitrd-skip / rdpenalty=0 / psy-rd=2.00 / psy-rdoq=1.00 / no-rd-refine / no-lossless / cbqpoffs=0 / crqpoffs=0 / rc=crf / crf=20.0 / qcomp=0.75 / qpstep=4 / stats-write=0 / stats-read=0 / vbv-maxrate=50000 / vbv-bufsize=50000 / vbv-init=0.9 / min-vbv-fullness=50.0 / max-vbv-fullness=80.0 / crf-max=0.0 / crf-min=0.0 / ipratio=1.40 / pbratio=1.30 / aq-mode=1 / aq-strength=1.00 / no-cutree / zone-count=1 / zones: / start-frame=199836 / end-frame=210129 / qp=36 / no-strict-cbr / qg-size=32 / no-rc-grain / qpmax=69 / qpmin=0 / no-const-vbv / sar=1 / overscan=0 / videoformat=5 / range=0 / colorprim=2 / transfer=2 / colormatrix=2 / chromaloc=0 / display-window=0 / cll=0,0 / min-luma=0 / max-luma=1023 / log2-max-poc-lsb=8 / vui-timing-info / vui-hrd-info / slices=1 / no-opt-qp-pps / no-opt-ref-list-length-pps / no-multi-pass-opt-rps / scenecut-bias=0.00 / hist-threshold=0.03 / no-opt-cu-delta-qp / no-aq-motion / no-hdr10 / no-hdr10-opt / no-dhdr10-opt / no-idr-recovery-sei / analysis-reuse-level=0 / analysis-save-reuse-level=0 / analysis-load-reuse-level=0 / scale-factor=0 / refine-intra=0 / refine-inter=0 / refine-mv=1 / refine-ctu-distortion=0 / no-limit-sao / ctu-info=0 / no-lowpass-dct / refine-analysis-type=0 / copy-pic=1 / max-ausize-factor=1.0 / no-dynamic-refine / no-single-sei / no-hevc-aq / no-svt / no-field / qp-adaptation-range=1.00 / scenecut-aware-qp=0conformance-window-offsets / right=0 / bottom=0 / decoder-max-rate=0 / no-vbv-live-multi-pass
Язык : English
Default : Да
Forced : Нет

Аудио #1
Идентификатор : 2
Формат : AC-3
Формат/Информация : Audio Coding 3
Коммерческое название : Dolby Digital
Идентификатор кодека : A_AC3
Продолжительность : 2 ч. 28 м.
Вид битрейта : Постоянный
Битрейт : 640 Кбит/сек
Каналы : 6 каналов
Channel layout : L R C LFE Ls Rs
Частота : 48,0 КГц
Частота кадров : 31,250 кадров/сек (1536 SPF)
Метод сжатия : С потерями
Размер потока : 678 Мбайт (12%)
Заголовок : DUB
Язык : Russian
Service kind : Complete Main
Default : Да
Forced : Нет

Аудио #2
Идентификатор : 3
Формат : AC-3
Формат/Информация : Audio Coding 3
Коммерческое название : Dolby Digital
Идентификатор кодека : A_AC3
Продолжительность : 2 ч. 28 м.
Вид битрейта : Постоянный
Битрейт : 640 Кбит/сек
Каналы : 6 каналов
Channel layout : L R C LFE Ls Rs
Частота : 48,0 КГц
Частота кадров : 31,250 кадров/сек (1536 SPF)
Метод сжатия : С потерями
Размер потока : 678 Мбайт (12%)
Язык : English
Service kind : Complete Main
Default : Нет
Forced : Нет

Текст #1
Идентификатор : 4
Формат : UTF-8
Идентификатор кодека : S_TEXT/UTF8
Идентификатор кодека/Информация : UTF-8 Plain Text
Продолжительность : 2 ч. 16 м.
Битрейт : 0 бит/сек
Count of elements : 9
Размер потока : 532 байт (0%)
Заголовок : Forced
Язык : Russian
Default : Да
Forced : Нет

Текст #2
Идентификатор : 5
Формат : UTF-8
Идентификатор кодека : S_TEXT/UTF8
Идентификатор кодека/Информация : UTF-8 Plain Text
Продолжительность : 2 ч. 28 м.
Битрейт : 83 бит/сек
Count of elements : 1941
Размер потока : 90,1 Кбайт (0%)
Заголовок : Full
Язык : Russian
Default : Нет
Forced : Нет

Текст #3
Идентификатор : 6
Формат : UTF-8
Идентификатор кодека : S_TEXT/UTF8
Идентификатор кодека/Информация : UTF-8 Plain Text
Продолжительность : 2 ч. 28 м.
Битрейт : 97 бит/сек
Count of elements : 2092
Размер потока : 106 Кбайт (0%)
Заголовок : Full [FOCS]
Язык : Russian
Default : Нет
Forced : Нет

Текст #4
Идентификатор : 7
Формат : UTF-8
Идентификатор кодека : S_TEXT/UTF8
Идентификатор кодека/Информация : UTF-8 Plain Text
Продолжительность : 2 ч. 27 м.
Битрейт : 63 бит/сек
Count of elements : 2187
Размер потока : 69,1 Кбайт (0%)
Заголовок : Full
Язык : English
Default : Нет
Forced : Нет

Меню
00:00:00.000 : en:Capítulo 01
00:05:03.177 : en:Capítulo 02
00:11:58.591 : en:Capítulo 03
00:18:38.909 : en:Capítulo 04
00:27:00.451 : en:Capítulo 05
00:37:21.239 : en:Capítulo 06
00:48:02.003 : en:Capítulo 07
00:59:51.795 : en:Capítulo 08
01:04:06.634 : en:Capítulo 09
01:09:51.311 : en:Capítulo 10
01:18:29.453 : en:Capítulo 11
01:28:59.625 : en:Capítulo 12
01:33:48.287 : en:Capítulo 13
01:46:38.390 : en:Capítulo 14
02:05:39.323 : en:Capítulo 15
02:13:03.600 : en:Capítulo 16
Загрузка...Cкриншот1 Человек-паук: Нет пути домой / Spider-Man: No Way Home (2021) BDRip 1080p [HEVC] 10 bit от OldGamer (RG RIPS CLUB)Загрузка...Cкриншот2 Человек-паук: Нет пути домой / Spider-Man: No Way Home (2021) BDRip 1080p [HEVC] 10 bit от OldGamer (RG RIPS CLUB)Загрузка...Cкриншот3 Человек-паук: Нет пути домой / Spider-Man: No Way Home (2021) BDRip 1080p [HEVC] 10 bit от OldGamer (RG RIPS CLUB)Загрузка...Cкриншот4 Человек-паук: Нет пути домой / Spider-Man: No Way Home (2021) BDRip 1080p [HEVC] 10 bit от OldGamer (RG RIPS CLUB)
Релиз-группа: RIPS CLUB
Сэмпл Торрент🧲 Магнет

Раздача обновлена!
Замена дубляжа на лицензию.

Рейтинги КП и IMDB, кнопки "Позвать в чате" и "Спасибо", а также мультитрекерная статистика доступны только зарегистрированным/авторизованным пользователям!

Файлы: 1
  • 27.Человек-паук.Нет.пути.домой.Spider-Man.No.Way.Home.2021.BDRip-HEVC.1080p.mkv   5.73 ГБ
Поблагодарили: 21
77carlsson77, alexyak, and50, anderb, denisptp4, FijiMAX, HANNIBAL, ilyich05, IRIT, Kiran, makss333, melnik-10, MIGRANT, Nuclear70, SergKote, SoulBoy, VIS, Waldemar, z_artem, Горо, Тренер по Йоге
OldGamer
2157405.73 ГБ

Добавление нового комментария

Добавление комментариев доступно только зарегистрированным/авторизованным пользователям.
Аватар OldGamer
  OldGamer  
Aleks_DW писал(а):
А чей дубляж?, если это не секрет
Я не знаю, какая студия сделала дубляж для лицензионного диска
Аватар Aleks_DW
  Aleks_DW  
А чей дубляж?, если это не секрет