💬 Мини-чат

Убедительная просьба не обсуждать тут политику.
МичманADVOKAT69, ✋
ADVOKAT69Spartanec1308, ✋
AlexTwittAdmin, странно, что только на 1 часть 😃
AdminРелизы Гоголь - старые. Просто вытащил из антологии, так как на первую часть пришла жалоба, и придется заблокировать.
  • JackShredder
Отправка сообщений доступна только зарегистрированным/авторизованным пользователям.
Онлайн (за 10 мин.): 1

Книга Бобы Фетта / The Book of Boba Fett (2021) [Сезон 1] UHD-WEB-DLRip 1080p [HEVC] 10 bit [HDR] от Mr. Fox

HEVC
HDR
10 bit
Обложка Книга Бобы Фетта / The Book of Boba Fett (2021) [Сезон 1] UHD-WEB-DLRip 1080p [HEVC] 10 bit [HDR] от Mr. Fox Год: 2021
Страна: США
Студия: Golem Creations, Lucasfilm Ltd.
Жанр: Фантастика, Боевик, Приключения
Продолжительность: 05:28:10

Режиссер: Роберт Родригес, Дэйв Филони, Стеф Грин
В ролях: Темуэра Моррисон, Мин-На Вэнь, Фрэнк Тригг, Collin Hymes, Мэтт Берри, Дэвид Паскуэзи, Кэри Джонс, Дженнифер Билз, Роберт Родригес, Марлон Аквино

Описание: Боба Фетт вместе с напарницей Феннек Шанд пытается завоевать авторитет в преступном мире, захватив территорию, когда-то принадлежавшую Джаббе Хатту.


Видео: 1920x804, ~2661-3129 Кбит/сек
Аудио1: AC3, 2 ch, 320 Kbps - РусскийРусский, Дублированный (Flarrow Films)
Аудио2: AC3, 6 ch, 384 Kbps - УкраинскийУкраинский, Многоголосый (DniproFilm/HDRezka)
Аудио3: E-AC-3 JOC, 6 ch, 768 Kbps - АнглийскийАнглийский, Оригинал
Субтитры: русские (форсированные, полные), украинские (форсированные), английские (полные)

Как за пару секунд удалить ненужные аудиодорожки и субтитры (Внимание! После удаления вы не сможете поддержать раздачу)

Лог (x265 info)
x265 [info]: frame I: Avg QP:13.62; 13.71; 14.58; 14.23; 15.23; 15.15; 14.87
x265 [info]: frame P: Avg QP:15.40; 15.53; 16.09; 15.69; 16.76; 17.41; 16.40
x265 [info]: frame B: Avg QP:18.24; 18.43; 18.68; 18.28; 19.14; 19.40; 18,95
Медиаинфо
General
Unique ID : 41996766000945047414502882056147222819 (0x1F98486D8073E408580DFF0034AAC123)
Complete name : E:\Torrent\The Book of Boba Fett\The.Book.of.Boba.Fett.S01E01.Chapter.1.Stranger.in.a.Strange.Land 2.mkv
Format : Matroska
Format version : Version 4
File size : 1.13 GiB
Duration : 37 min 43 s
Overall bit rate : 4 297 kb/s
Movie name : The Book of Boba Fett Chapter 1: Stranger in a Strange Land (2021)
Encoded date : UTC 2022-02-12 19:54:57
Writing application : mkvmerge v65.0.0 ('Too Much') 64-bit
Writing library : libebml v1.4.2 + libmatroska v1.6.4
Cover : Yes
Attachments : cover

Video
ID : 1
Format : HEVC
Format/Info : High Efficiency Video Coding
Format profile : Main 10@L4.1@High
Codec ID : V_MPEGH/ISO/HEVC
Duration : 37 min 43 s
Bit rate : 2 823 kb/s
Width : 1 920 pixels
Height : 804 pixels
Display aspect ratio : 2.40:1
Frame rate mode : Constant
Frame rate : 24.000 FPS
Color space : YUV
Chroma subsampling : 4:2:0 (Type 2)
Bit depth : 10 bits
Bits/(Pixel*Frame) : 0.076
Stream size : 762 MiB (66%)
Writing library : x265 3.5+1-ce882936d:[Windows][MSVC 1928][64 bit] 10bit
Encoding settings : cpuid=1111039 / frame-threads=4 / numa-pools=16 / wpp / no-pmode / no-pme / no-psnr / no-ssim / log-level=2 / input-csp=1 / input-res=1920x804 / interlace=0 / total-frames=54317 / level-idc=41 / high-tier=1 / uhd-bd=0 / ref=5 / no-allow-non-conformance / repeat-headers / annexb / no-aud / no-hrd / info / hash=0 / no-temporal-layers / open-gop / min-keyint=24 / keyint=240 / gop-lookahead=0 / bframes=16 / b-adapt=2 / b-pyramid / bframe-bias=0 / rc-lookahead=60 / lookahead-slices=4 / scenecut=40 / hist-scenecut=0 / radl=0 / no-splice / no-intra-refresh / ctu=32 / min-cu-size=8 / rect / amp / max-tu-size=32 / tu-inter-depth=4 / tu-intra-depth=4 / limit-tu=1 / rdoq-level=2 / dynamic-rd=0.00 / no-ssim-rd / signhide / no-tskip / nr-intra=0 / nr-inter=0 / no-constrained-intra / no-strong-intra-smoothing / max-merge=4 / limit-refs=2 / limit-modes / me=3 / subme=7 / merange=57 / temporal-mvp / no-frame-dup / no-hme / weightp / weightb / no-analyze-src-pics / deblock=-3:-3 / no-sao / no-sao-non-deblock / rd=6 / selective-sao=0 / no-early-skip / no-rskip / no-fast-intra / no-tskip-fast / no-cu-lossless / no-b-intra / no-splitrd-skip / rdpenalty=0 / psy-rd=2.00 / psy-rdoq=1.00 / no-rd-refine / no-lossless / cbqpoffs=0 / crqpoffs=0 / rc=crf / crf=19.0 / qcomp=0.70 / qpstep=4 / stats-write=0 / stats-read=0 / vbv-maxrate=50000 / vbv-bufsize=50000 / vbv-init=0.9 / min-vbv-fullness=50.0 / max-vbv-fullness=80.0 / crf-max=0.0 / crf-min=0.0 / ipratio=1.40 / pbratio=1.30 / aq-mode=1 / aq-strength=1.00 / no-cutree / zone-count=0 / no-strict-cbr / qg-size=32 / no-rc-grain / qpmax=69 / qpmin=0 / no-const-vbv / sar=1 / overscan=0 / videoformat=5 / range=0 / colorprim=9 / transfer=16 / colormatrix=9 / chromaloc=1 / chromaloc-top=2 / chromaloc-bottom=2 / display-window=0 / cll=0,0 / min-luma=0 / max-luma=1023 / log2-max-poc-lsb=8 / vui-timing-info / vui-hrd-info / slices=1 / no-opt-qp-pps / no-opt-ref-list-length-pps / no-multi-pass-opt-rps / scenecut-bias=0.05 / hist-threshold=0.03 / no-opt-cu-delta-qp / no-aq-motion / hdr10 / hdr10-opt / no-dhdr10-opt / no-idr-recovery-sei / analysis-reuse-level=0 / analysis-save-reuse-level=0 / analysis-load-reuse-level=0 / scale-factor=0 / refine-intra=0 / refine-inter=0 / refine-mv=1 / refine-ctu-distortion=0 / no-limit-sao / ctu-info=0 / no-lowpass-dct / refine-analysis-type=0 / copy-pic=1 / max-ausize-factor=1.0 / no-dynamic-refine / no-single-sei / no-hevc-aq / no-svt / no-field / qp-adaptation-range=1.00 / scenecut-aware-qp=0conformance-window-offsets / right=0 / bottom=0 / decoder-max-rate=0 / no-vbv-live-multi-pass
Default : Yes
Forced : No
Color range : Limited
Color primaries : BT.2020
Transfer characteristics : PQ
Matrix coefficients : BT.2020 non-constant

Audio #1
ID : 2
Format : AC-3
Format/Info : Audio Coding 3
Commercial name : Dolby Digital
Codec ID : A_AC3
Duration : 37 min 40 s
Bit rate mode : Constant
Bit rate : 320 kb/s
Channel(s) : 2 channels
Channel layout : L R
Sampling rate : 48.0 kHz
Frame rate : 31.250 FPS (1536 SPF)
Compression mode : Lossy
Delay relative to video : 3 s 0 ms
Stream size : 86.2 MiB (7%)
Title : Дубляж (Flarrow Films)
Language : Russian
Service kind : Complete Main
Default : Yes
Forced : No

Audio #2
ID : 3
Format : AC-3
Format/Info : Audio Coding 3
Commercial name : Dolby Digital
Codec ID : A_AC3
Duration : 37 min 40 s
Bit rate mode : Constant
Bit rate : 384 kb/s
Channel(s) : 6 channels
Channel layout : L R C LFE Ls Rs
Sampling rate : 48.0 kHz
Frame rate : 31.250 FPS (1536 SPF)
Compression mode : Lossy
Delay relative to video : 3 s 0 ms
Stream size : 103 MiB (9%)
Title : MVO (DniproFilm/HDRezka)
Language : Ukrainian
Service kind : Complete Main
Default : No
Forced : No

Audio #3
ID : 4
Format : E-AC-3 JOC
Format/Info : Enhanced AC-3 with Joint Object Coding
Commercial name : Dolby Digital Plus with Dolby Atmos
Codec ID : A_EAC3
Duration : 37 min 43 s
Bit rate mode : Constant
Bit rate : 768 kb/s
Channel(s) : 6 channels
Channel layout : L R C LFE Ls Rs
Sampling rate : 48.0 kHz
Frame rate : 31.250 FPS (1536 SPF)
Compression mode : Lossy
Stream size : 207 MiB (18%)
Title : Оригинал
Language : English
Service kind : Complete Main
Default : No
Forced : No
Complexity index : 16
Number of dynamic objects : 15
Bed channel count : 1 channel
Bed channel configuration : LFE

Text #1
ID : 5
Format : UTF-8
Codec ID : S_TEXT/UTF8
Codec ID/Info : UTF-8 Plain Text
Duration : 28 min 9 s
Bit rate : 0 b/s
Count of elements : 2
Stream size : 155 Bytes (0%)
Title : Forced
Language : Russian
Default : Yes
Forced : Yes

Text #2
ID : 6
Format : UTF-8
Codec ID : S_TEXT/UTF8
Codec ID/Info : UTF-8 Plain Text
Duration : 28 min 30 s
Bit rate : 37 b/s
Count of elements : 134
Stream size : 7.92 KiB (0%)
Title : Full
Language : Russian
Default : No
Forced : No

Text #3
ID : 7
Format : UTF-8
Codec ID : S_TEXT/UTF8
Codec ID/Info : UTF-8 Plain Text
Duration : 4 s 542 ms
Bit rate : 116 b/s
Count of elements : 1
Stream size : 66.0 Bytes (0%)
Title : Forced
Language : Ukrainian
Default : No
Forced : No

Text #4
ID : 8
Format : UTF-8
Codec ID : S_TEXT/UTF8
Codec ID/Info : UTF-8 Plain Text
Duration : 28 min 30 s
Bit rate : 22 b/s
Count of elements : 133
Stream size : 4.60 KiB (0%)
Title : Full
Language : English
Default : No
Forced : No

Text #5
ID : 9
Format : UTF-8
Codec ID : S_TEXT/UTF8
Codec ID/Info : UTF-8 Plain Text
Duration : 33 min 30 s
Bit rate : 28 b/s
Count of elements : 261
Stream size : 7.06 KiB (0%)
Title : SDH
Language : English
Default : No
Forced : No

Menu
00:36:16.417 : en:Credits
Загрузка...Cкриншот1 Книга Бобы Фетта / The Book of Boba Fett (2021) [Сезон 1] UHD-WEB-DLRip 1080p [HEVC] 10 bit [HDR] от Mr. FoxЗагрузка...Cкриншот2 Книга Бобы Фетта / The Book of Boba Fett (2021) [Сезон 1] UHD-WEB-DLRip 1080p [HEVC] 10 bit [HDR] от Mr. FoxЗагрузка...Cкриншот3 Книга Бобы Фетта / The Book of Boba Fett (2021) [Сезон 1] UHD-WEB-DLRip 1080p [HEVC] 10 bit [HDR] от Mr. FoxЗагрузка...Cкриншот4 Книга Бобы Фетта / The Book of Boba Fett (2021) [Сезон 1] UHD-WEB-DLRip 1080p [HEVC] 10 bit [HDR] от Mr. Fox
Сэмпл Торрент🧲 Магнет

Рейтинги КП и IMDB, кнопки "Позвать в чате" и "Спасибо", а также мультитрекерная статистика доступны только зарегистрированным/авторизованным пользователям!

Файлы: 7
  • The Book of Boba Fett
    • The.Book.of.Boba.Fett.S01E01.Chapter.1.Stranger.in.a.Strange.Land 2.mkv   1.13 ГБ
    • The.Book.of.Boba.Fett.S01E02.Chapter.2.The.Tribes.of.Tatooine.mkv   1.5 ГБ
    • The.Book.of.Boba.Fett.S01E03.Chapter.3.The.Streets.of.Mos.Espa.mkv   1.11 ГБ
    • The.Book.of.Boba.Fett.S01E04.Chapter.4.The.Gathering.Storm.mkv   1.41 ГБ
    • The.Book.of.Boba.Fett.S01E05.Chapter.5.Return.of.the.Mandalorian.mkv   1.54 ГБ
    • The.Book.of.Boba.Fett.S01E06.Chapter.6.From.the.Desert.Comes.a.Stranger.mkv   1.33 ГБ
    • The.Book.of.Boba.Fett.S01E07.Chapter.7.In.the.Name.of.Honor.mkv   1.89 ГБ
Поблагодарили: 8
aquarius, makss333, Niflung, Rexaur, Rexfire, sergeich, Михаил161, Тренер по Йоге
Admin
36920 (7)  9.9 ГБ

Добавление нового комментария

Добавление комментариев доступно только зарегистрированным/авторизованным пользователям.
Аватар Nuclear70
  Nuclear70  (Отредактировал Nuclear70: )    
Дубляж 2х канальный а к хорошему 5,1 быстро привыкаешь
Аватар не указан
  AlexStallone  
Nuclear70 писал(а):
Есть же перевод от MVO - LostFilm [AC3 5.1 @ 640 kbps]
зачем нужен этот лост если дубляж классный сделали?
Аватар Nuclear70
  Nuclear70  
Есть же перевод от MVO - LostFilm [AC3 5.1 @ 640 kbps]