Чат

⚫︎
Список изменений сайта - https://rips.club/changelog.html (обновлен 24.05.2024)
  • arwis
  • Kiran
  • Денис
Онлайн (за 10 мин.): 3
Отправка сообщений доступна только зарегистрированным/авторизованным пользователям.

🎥︎🎥︎Ганнибал: Пенталогия / Hannibal: Pentalogy (1986-2006) BDRip 1080p [HEVC] 10 bit от OldGamer (RG RIPS CLUB)


Обложка Ганнибал: Пенталогия / Hannibal: Pentalogy (1986-2006) BDRip 1080p [HEVC] 10 bit от OldGamer (RG RIPS CLUB)
HEVC
10 bit
⤓︎Торрент🧲︎Магнет$Пожертвования

При перезаливке на другие сайты просьба указать автора и релиз-группу.


Год: 1986-2006
Страна: Великобритания, Чехия, Франция, Италия, США
Жанр: Триллер, Драма, Криминал


Релиз-группа: RIPS CLUB
1. Ганнибал: Восхождение / Hannibal Rising (2006) [Unrated] BDRip 1080p [HEVC] 10 bit от OldGamer
Обложка Ганнибал: Восхождение / Hannibal Rising (2006) [Unrated] BDRip 1080p [HEVC] 10 bit от OldGamer
HEVC
10 bit
✂︎Сэмпл
Год: 2006
Страна: Великобритания, Чехия, Франция, Италия, США
Студия: Carthago Films S.a.r.l., Dino De Laurentiis Productions, ETIC Film, Ingenious Film Partners, Quinta Communications, Young Hannibal Productions
Жанр: Триллер, Драма, Криминал
Длительность: 02:10:33

Режиссер: Питер Веббер
В ролях: Гаспар Ульель, Гун Ли, Рис Иванс, Доминик Уэст, Кевин МакКидд, Ингеборга Дапкунайте, Ричард Лиф, Ааран Томас, Хелена Лиа Тачовска, Мишель Вэйд

Описание: Первая глава жизни самого знаменитого и хитроумного маньяка всех времён… Ему было шесть, когда на его глазах жестоко убили его семью. В двадцать, бежав во Францию, а затем в США, он получил блестящее образование психиатра. Впереди его ждала жизнь, полная привилегий. Но жажда мести за убийство семьи только разгоралась в нём…


Исходник: Blu-Ray Remux 1080p (rutracker)
Видео: 1920x822 (2.35:1), 5315 Кбит/сек, HEVC (Main10@L.4.1@High)
Аудио1: AC3, 6 ch, 448 Kbps - РусскийРусский, DUB (Мосфильм-Мастер) + вставки MVO (Киномания)
Аудио2: AC3, 6 ch, 448 Kbps - РусскийРусский, MVO (Киномания)
Аудио3: AC3, 6 ch, 640 Kbps - РусскийРусский, AVO (Сергей Рябов)
Аудио4: AC3, 6 ch, 448 Kbps - УкраинскийУкраинский, MVO
Аудио5: AC3, 6 ch, 640 Kbps - EnglishEnglish, Original
Субтитры: Русские полные (SRT), English full (SRT)

Как за несколько секунд удалить ненужные аудиодорожки и субтитры (Внимание! После удаления вы не сможете поддержать раздачу)


Лог (x265 info)x265 [info]: frame I: 784, Avg QP:17.14 kb/s: 15799.73
x265 [info]: frame P: 32770, Avg QP:18.37 kb/s: 11387.27
x265 [info]: frame B: 154244, Avg QP:20.62 kb/s: 3971.07
x265 [info]: Weighted P-Frames: Y:8.3% UV:6.7%
x265 [info]: Weighted B-Frames: Y:8.2% UV:5.7%
x265 [info]: consecutive B-frames: 1.8% 2.5% 3.7% 24.8% 10.3% 31.2% 9.7% 12.5% 1.5% 1.0% 0.2% 0.1% 0.1% 0.5%
x265 [info]: encoded 187798 frames in 111773.38s (1.68 fps), 5314.55 kb/s, Avg QP:20.21
МедиаинфоОбщее
Уникальный идентификатор : 126090811235559334333436061575821756081 (0x5EDC34F7DC82278D1512C6D2D7E186B1)
Полное имя : \\.\01.Ганнибал.Восхождение.Hannibal.Rising.2006.Unrated.BDRip-HEVC.1080p.mkv
Формат : Matroska
Версия формата : Version 4
Размер файла : 7,24 Гбайт
Продолжительность : 2 ч. 10 м.
Общий поток : 7 942 Кбит/сек
Частота кадров : 23,976 кадра/сек
Дата кодирования : 2023-07-09 12:57:47 UTC
Программа кодирования : mkvmerge v78.0 ('Running') 64-bit
Библиотека кодирования : libebml v1.4.4 + libmatroska v1.7.1

Видео
Идентификатор : 1
Формат : HEVC
Формат/Информация : High Efficiency Video Coding
Профиль формата : Main 10@L4.1@High
Идентификатор кодека : V_MPEGH/ISO/HEVC
Продолжительность : 2 ч. 10 м.
Битрейт : 5 315 Кбит/сек
Ширина : 1 920 пикселей
Высота : 822 пикселя
Соотношение сторон : 2,35:1
Режим частоты кадров : Постоянный
Частота кадров : 23,976 (24000/1001) кадра/сек
Цветовое пространство : YUV
Субдискретизация насыщенности : 4:2:0
Битовая глубина : 10 бит
Бит/(Пиксели*Кадры) : 0.140
Размер потока : 4,85 Гбайт (67%)
Заголовок : Hannibal Rising / Rip by OldGamer
Библиотека кодирования : x265 3.5+35-e3713124d:[Windows][GCC 11.2.0][64 bit] 10bit
Настройки программы : cpuid=1111039 / frame-threads=3 / numa-pools=8 / wpp / no-pmode / no-pme / no-psnr / no-ssim / log-level=2 / input-csp=1 / input-res=1920x822 / interlace=0 / total-frames=187798 / level-idc=41 / high-tier=1 / uhd-bd=0 / ref=5 / no-allow-non-conformance / no-repeat-headers / annexb / no-aud / no-eob / no-eos / no-hrd / info / hash=0 / no-temporal-layers / open-gop / min-keyint=23 / keyint=240 / gop-lookahead=0 / bframes=13 / b-adapt=2 / b-pyramid / bframe-bias=0 / rc-lookahead=40 / lookahead-slices=0 / scenecut=40 / no-hist-scenecut / radl=0 / no-splice / no-intra-refresh / ctu=32 / min-cu-size=8 / rect / amp / max-tu-size=32 / tu-inter-depth=4 / tu-intra-depth=4 / limit-tu=1 / rdoq-level=2 / dynamic-rd=0.00 / no-ssim-rd / signhide / no-tskip / nr-intra=0 / nr-inter=0 / no-constrained-intra / no-strong-intra-smoothing / max-merge=5 / limit-refs=3 / no-limit-modes / me=3 / subme=7 / merange=57 / temporal-mvp / no-frame-dup / no-hme / weightp / weightb / no-analyze-src-pics / deblock=-2:-2 / no-sao / no-sao-non-deblock / rd=6 / selective-sao=0 / no-early-skip / no-rskip / no-fast-intra / no-tskip-fast / no-cu-lossless / b-intra / no-splitrd-skip / rdpenalty=0 / psy-rd=2.00 / psy-rdoq=1.00 / no-rd-refine / no-lossless / cbqpoffs=0 / crqpoffs=0 / rc=crf / crf=20.0 / qcomp=0.60 / qpstep=4 / stats-write=0 / stats-read=0 / vbv-maxrate=50000 / vbv-bufsize=50000 / vbv-init=0.9 / min-vbv-fullness=50.0 / max-vbv-fullness=80.0 / crf-max=0.0 / crf-min=0.0 / ipratio=1.40 / pbratio=1.30 / aq-mode=1 / aq-strength=1.00 / no-cutree / zone-count=1 / zones: / start-frame=178591 / end-frame=187798 / qp=36 / no-strict-cbr / qg-size=32 / no-rc-grain / qpmax=69 / qpmin=0 / no-const-vbv / sar=1 / overscan=0 / videoformat=5 / range=0 / colorprim=2 / transfer=2 / colormatrix=2 / chromaloc=0 / display-window=0 / cll=0,0 / min-luma=0 / max-luma=1023 / log2-max-poc-lsb=8 / vui-timing-info / vui-hrd-info / slices=1 / no-opt-qp-pps / no-opt-ref-list-length-pps / no-multi-pass-opt-rps / scenecut-bias=0.00 / hist-threshold=0.03 / no-opt-cu-delta-qp / no-aq-motion / no-hdr10 / no-hdr10-opt / no-dhdr10-opt / no-idr-recovery-sei / analysis-reuse-level=0 / analysis-save-reuse-level=0 / analysis-load-reuse-level=0 / scale-factor=0 / refine-intra=0 / refine-inter=0 / refine-mv=1 / refine-ctu-distortion=0 / no-limit-sao / ctu-info=0 / no-lowpass-dct / refine-analysis-type=0 / copy-pic=1 / max-ausize-factor=1.0 / no-dynamic-refine / no-single-sei / no-hevc-aq / no-svt / no-field / qp-adaptation-range=1.00 / scenecut-aware-qp=0conformance-window-offsets / right=0 / bottom=0 / decoder-max-rate=0 / no-vbv-live-multi-pass
Язык : English
Default : Да
Forced : Нет

Аудио #1
Идентификатор : 2
Формат : AC-3
Формат/Информация : Audio Coding 3
Коммерческое название : Dolby Digital
Идентификатор кодека : A_AC3
Продолжительность : 2 ч. 10 м.
Вид битрейта : Постоянный
Битрейт : 448 Кбит/сек
Каналы : 6 каналов
Channel layout : L R C LFE Ls Rs
Частота : 48,0 КГц
Частота кадров : 31,250 кадров/сек (1536 SPF)
Метод сжатия : С потерями
Размер потока : 418 Мбайт (6%)
Заголовок : DUB (Мосфильм-Мастер) + вставки MVO (Киномания)
Язык : Russian
Service kind : Complete Main
Default : Да
Forced : Нет

Аудио #2
Идентификатор : 3
Формат : AC-3
Формат/Информация : Audio Coding 3
Коммерческое название : Dolby Digital
Идентификатор кодека : A_AC3
Продолжительность : 2 ч. 10 м.
Вид битрейта : Постоянный
Битрейт : 448 Кбит/сек
Каналы : 6 каналов
Channel layout : L R C LFE Ls Rs
Частота : 48,0 КГц
Частота кадров : 31,250 кадров/сек (1536 SPF)
Метод сжатия : С потерями
Размер потока : 418 Мбайт (6%)
Заголовок : MVO (Киномания)
Язык : Russian
Service kind : Complete Main
Default : Нет
Forced : Нет

Аудио #3
Идентификатор : 4
Формат : AC-3
Формат/Информация : Audio Coding 3
Коммерческое название : Dolby Digital
Идентификатор кодека : A_AC3
Продолжительность : 2 ч. 10 м.
Вид битрейта : Постоянный
Битрейт : 640 Кбит/сек
Каналы : 6 каналов
Channel layout : L R C LFE Ls Rs
Частота : 48,0 КГц
Частота кадров : 31,250 кадров/сек (1536 SPF)
Метод сжатия : С потерями
Размер потока : 598 Мбайт (8%)
Заголовок : AVO (Сергей Рябов)
Язык : Russian
Service kind : Complete Main
Default : Нет
Forced : Нет

Аудио #4
Идентификатор : 5
Формат : AC-3
Формат/Информация : Audio Coding 3
Коммерческое название : Dolby Digital
Идентификатор кодека : A_AC3
Продолжительность : 2 ч. 10 м.
Вид битрейта : Постоянный
Битрейт : 448 Кбит/сек
Каналы : 6 каналов
Channel layout : L R C LFE Ls Rs
Частота : 48,0 КГц
Частота кадров : 31,250 кадров/сек (1536 SPF)
Метод сжатия : С потерями
Размер потока : 418 Мбайт (6%)
Заголовок : MVO
Язык : Ukrainian
Service kind : Complete Main
Default : Нет
Forced : Нет

Аудио #5
Идентификатор : 6
Формат : AC-3
Формат/Информация : Audio Coding 3
Коммерческое название : Dolby Digital
Идентификатор кодека : A_AC3
Продолжительность : 2 ч. 10 м.
Вид битрейта : Постоянный
Битрейт : 640 Кбит/сек
Каналы : 6 каналов
Channel layout : L R C LFE Ls Rs
Частота : 48,0 КГц
Частота кадров : 31,250 кадров/сек (1536 SPF)
Метод сжатия : С потерями
Размер потока : 598 Мбайт (8%)
Язык : English
Service kind : Complete Main
Default : Нет
Forced : Нет

Текст #1
Идентификатор : 7
Формат : UTF-8
Идентификатор кодека : S_TEXT/UTF8
Идентификатор кодека/Информация : UTF-8 Plain Text
Битрейт : 0 бит/сек
Count of elements : 0
Размер потока : 0,00 байт (0%)
Язык : Russian
Default : Нет
Forced : Нет

Текст #2
Идентификатор : 8
Формат : UTF-8
Идентификатор кодека : S_TEXT/UTF8
Идентификатор кодека/Информация : UTF-8 Plain Text
Продолжительность : 2 ч. 2 м.
Битрейт : 25 бит/сек
Частота кадров : 0,105 кадр/сек
Count of elements : 774
Размер потока : 22,8 Кбайт (0%)
Язык : English
Default : Нет
Forced : Нет

Меню
00:00:00.000 : en:Casualties of War
00:10:06.022 : en:Soldiers of Fortune
00:18:08.379 : en:8 Years Later
00:26:01.143 : en:Family Reunion
00:36:12.170 : en:A Grave Insult
00:45:09.248 : en:Inspector Popil
00:55:03.675 : en:Medical School
01:04:39.501 : en:Repressed Memories
01:12:14.455 : en:Das Mannlein Im Walde
01:24:41.868 : en:Fontainebleau
01:32:32.422 : en:The Graveyard Shift
01:42:58.631 : en:A Vendetta Revealed
01:50:09.728 : en:A Life for a Life
02:02:39.435 : en:Family Man
Загрузка...Cкриншот1 Ганнибал: Восхождение / Hannibal Rising (2006) [Unrated] BDRip 1080p [HEVC] 10 bit от OldGamerЗагрузка...Cкриншот2 Ганнибал: Восхождение / Hannibal Rising (2006) [Unrated] BDRip 1080p [HEVC] 10 bit от OldGamerЗагрузка...Cкриншот3 Ганнибал: Восхождение / Hannibal Rising (2006) [Unrated] BDRip 1080p [HEVC] 10 bit от OldGamerЗагрузка...Cкриншот4 Ганнибал: Восхождение / Hannibal Rising (2006) [Unrated] BDRip 1080p [HEVC] 10 bit от OldGamer
2. Охотник на людей / Manhunter (1986) [Theatrical Cut] BDRip 1080p [HEVC] 10 bit от OldGamer
Обложка Охотник на людей / Manhunter (1986) [Theatrical Cut] BDRip 1080p [HEVC] 10 bit от OldGamer
HEVC
10 bit
✂︎Сэмпл
Год: 1986
Страна: США
Студия: De Laurentiis Entertainment Group (DEG), Red Dragon Productions S.A.
Жанр: Триллер, Криминал, Детектив
Длительность: 02:00:05

Режиссер: Майкл Манн
В ролях: Уильям Петерсен, Брайан Кокс, Том Нунен, Деннис Фарина, Ким Грайст, Джоан Аллен, Стивен Лэнг, Дэвид Симан, Бенджамин Хендриксон, Майкл Тэлботт

Описание: «Охотник на людей» - это завораживающее преследование маньяка-убийцы, получившего прозвище «Зубная фея». Идущий по следам этого опаснейшего преступника агент ФБР вынужден использовать единственный способ поиска: сотрудничая с доктором Ганнибалом Лектером, заключённым в тюремную психбольницу, он должен «войти» в кошмарный внутренний мир убийцы…


Исходник: Blu-Ray Remux 1080p (rutracker)
Видео: 1920x816 (2.35:1), 8100 Кбит/сек, HEVC (Main10@L.4.1@High)
Аудио1: AC3, 6 ch, 448 Kbps - РусскийРусский, MVO (CP Digital, без вставок на непереведённые фрагменты)
Аудио2: AC3, 2 ch, 192 Kbps - РусскийРусский, DVO (Екатеринбург Арт)
Аудио3: AC3, 6 ch, 640 Kbps - РусскийРусский, AVO (Андрей Гаврилов)
Аудио4: AC3, 6 ch, 640 Kbps - EnglishEnglish, Original
Субтитры: Русские форсированные и полные (SDH), English full (SDH)

Как за несколько секунд удалить ненужные аудиодорожки и субтитры (Внимание! После удаления вы не сможете поддержать раздачу)


Лог (x265 info)x265 [info]: frame I: 729, Avg QP:17.45 kb/s: 17486.52
x265 [info]: frame P: 25398, Avg QP:19.31 kb/s: 13196.80
x265 [info]: frame B: 146641, Avg QP:20.59 kb/s: 7169.76
x265 [info]: Weighted P-Frames: Y:8.5% UV:6.6%
x265 [info]: Weighted B-Frames: Y:5.8% UV:4.0%
x265 [info]: consecutive B-frames: 1.0% 1.7% 3.3% 15.8% 6.6% 26.4% 9.3% 16.9% 9.3% 4.9% 1.7% 1.5% 0.4% 0.2% 0.4% 0.2% 0.3%
x265 [info]: encoded 172768 frames in 112707.80s (1.53 fps), 8099.31 kb/s, Avg QP:20.39
МедиаинфоОбщее
Уникальный идентификатор : 144977637597740738992333348976702075974 (0x6D11AD66EA1E0A45B3388EAEE7513446)
Полное имя : \\.\02.Охотник.на.людей.Manhunter.1986.Theatrical.Cut.BDRip-HEVC.1080p.mkv
Формат : Matroska
Версия формата : Version 4
Размер файла : 8,41 Гбайт
Продолжительность : 2 ч. 0 м.
Общий поток : 10,0 Мбит/сек
Название фильма : 02.Охотник.на.людей.Manhunter.1986.Theatrical.Cut.BDRip-HEVC.1080p
Дата кодирования : UTC 2022-05-22 11:20:44
Программа кодирования : mkvmerge v67.0.0 ('Under Stars') 64-bit
Библиотека кодирования : libebml v1.4.2 + libmatroska v1.6.4

Видео
Идентификатор : 1
Формат : HEVC
Формат/Информация : High Efficiency Video Coding
Профиль формата : Main 10@L4.1@High
Идентификатор кодека : V_MPEGH/ISO/HEVC
Продолжительность : 2 ч. 0 м.
Битрейт : 8 100 Кбит/сек
Ширина : 1 920 пикселей
Высота : 816 пикселей
Соотношение сторон : 2,35:1
Режим частоты кадров : Постоянный
Частота кадров : 23,976 (24000/1001) кадра/сек
Цветовое пространство : YUV
Субдискретизация насыщенности : 4:2:0
Битовая глубина : 10 бит
Бит/(Пиксели*Кадры) : 0.216
Размер потока : 6,80 Гбайт (81%)
Заголовок : Manhunter / Rip by OldGamer
Библиотека кодирования : x265 3.5+35-e3713124d:[Windows][GCC 11.2.0][64 bit] 10bit
Настройки программы : cpuid=1111039 / frame-threads=3 / numa-pools=8 / wpp / no-pmode / no-pme / no-psnr / no-ssim / log-level=2 / input-csp=1 / input-res=1920x816 / interlace=0 / total-frames=172768 / level-idc=41 / high-tier=1 / uhd-bd=0 / ref=5 / no-allow-non-conformance / no-repeat-headers / annexb / no-aud / no-eob / no-eos / no-hrd / info / hash=0 / no-temporal-layers / open-gop / min-keyint=23 / keyint=240 / gop-lookahead=0 / bframes=16 / b-adapt=2 / b-pyramid / bframe-bias=0 / rc-lookahead=40 / lookahead-slices=0 / scenecut=40 / no-hist-scenecut / radl=0 / no-splice / no-intra-refresh / ctu=32 / min-cu-size=8 / rect / amp / max-tu-size=32 / tu-inter-depth=4 / tu-intra-depth=4 / limit-tu=1 / rdoq-level=2 / dynamic-rd=0.00 / no-ssim-rd / signhide / no-tskip / nr-intra=0 / nr-inter=0 / no-constrained-intra / no-strong-intra-smoothing / max-merge=5 / limit-refs=3 / no-limit-modes / me=3 / subme=7 / merange=57 / temporal-mvp / no-frame-dup / no-hme / weightp / weightb / no-analyze-src-pics / deblock=-2:-2 / no-sao / no-sao-non-deblock / rd=6 / selective-sao=0 / no-early-skip / no-rskip / no-fast-intra / no-tskip-fast / no-cu-lossless / b-intra / no-splitrd-skip / rdpenalty=0 / psy-rd=2.00 / psy-rdoq=1.00 / no-rd-refine / no-lossless / cbqpoffs=0 / crqpoffs=0 / rc=crf / crf=19.7 / qcomp=0.60 / qpstep=4 / stats-write=0 / stats-read=0 / vbv-maxrate=50000 / vbv-bufsize=50000 / vbv-init=0.9 / min-vbv-fullness=50.0 / max-vbv-fullness=80.0 / crf-max=0.0 / crf-min=0.0 / ipratio=1.40 / pbratio=1.30 / aq-mode=1 / aq-strength=1.00 / no-cutree / zone-count=1 / zones: / start-frame=167014 / end-frame=172768 / qp=36 / no-strict-cbr / qg-size=32 / no-rc-grain / qpmax=69 / qpmin=0 / no-const-vbv / sar=1 / overscan=0 / videoformat=5 / range=0 / colorprim=2 / transfer=2 / colormatrix=2 / chromaloc=0 / display-window=0 / cll=0,0 / min-luma=0 / max-luma=1023 / log2-max-poc-lsb=8 / vui-timing-info / vui-hrd-info / slices=1 / no-opt-qp-pps / no-opt-ref-list-length-pps / no-multi-pass-opt-rps / scenecut-bias=0.00 / hist-threshold=0.03 / no-opt-cu-delta-qp / no-aq-motion / no-hdr10 / no-hdr10-opt / no-dhdr10-opt / no-idr-recovery-sei / analysis-reuse-level=0 / analysis-save-reuse-level=0 / analysis-load-reuse-level=0 / scale-factor=0 / refine-intra=0 / refine-inter=0 / refine-mv=1 / refine-ctu-distortion=0 / no-limit-sao / ctu-info=0 / no-lowpass-dct / refine-analysis-type=0 / copy-pic=1 / max-ausize-factor=1.0 / no-dynamic-refine / no-single-sei / no-hevc-aq / no-svt / no-field / qp-adaptation-range=1.00 / scenecut-aware-qp=0conformance-window-offsets / right=0 / bottom=0 / decoder-max-rate=0 / no-vbv-live-multi-pass
Язык : English
Default : Да
Forced : Нет

Аудио #1
Идентификатор : 2
Формат : AC-3
Формат/Информация : Audio Coding 3
Коммерческое название : Dolby Digital
Идентификатор кодека : A_AC3
Продолжительность : 2 ч. 0 м.
Вид битрейта : Постоянный
Битрейт : 448 Кбит/сек
Каналы : 6 каналов
Channel layout : L R C LFE Ls Rs
Частота : 48,0 КГц
Частота кадров : 31,250 кадров/сек (1536 SPF)
Метод сжатия : С потерями
Размер потока : 385 Мбайт (4%)
Заголовок : MVO (CP Digital, без вставок на непереведённые фрагменты)
Язык : Russian
Service kind : Complete Main
Default : Нет
Forced : Нет

Аудио #2
Идентификатор : 3
Формат : AC-3
Формат/Информация : Audio Coding 3
Коммерческое название : Dolby Digital
Идентификатор кодека : A_AC3
Продолжительность : 1 ч. 59 м.
Вид битрейта : Постоянный
Битрейт : 192 Кбит/сек
Каналы : 2 канала
Channel layout : L R
Частота : 48,0 КГц
Частота кадров : 31,250 кадров/сек (1536 SPF)
Метод сжатия : С потерями
Размер потока : 165 Мбайт (2%)
Заголовок : DVO (Екатеринбург Арт)
Язык : Russian
Service kind : Complete Main
Default : Да
Forced : Нет

Аудио #3
Идентификатор : 4
Формат : AC-3
Формат/Информация : Audio Coding 3
Коммерческое название : Dolby Digital
Идентификатор кодека : A_AC3
Продолжительность : 2 ч. 0 м.
Вид битрейта : Постоянный
Битрейт : 640 Кбит/сек
Каналы : 6 каналов
Channel layout : L R C LFE Ls Rs
Частота : 48,0 КГц
Частота кадров : 31,250 кадров/сек (1536 SPF)
Метод сжатия : С потерями
Размер потока : 550 Мбайт (6%)
Заголовок : AVO (Андрей Гаврилов)
Язык : Russian
Service kind : Complete Main
Default : Нет
Forced : Нет

Аудио #4
Идентификатор : 5
Формат : AC-3
Формат/Информация : Audio Coding 3
Коммерческое название : Dolby Digital
Идентификатор кодека : A_AC3
Продолжительность : 2 ч. 0 м.
Вид битрейта : Постоянный
Битрейт : 640 Кбит/сек
Каналы : 6 каналов
Channel layout : L R C LFE Ls Rs
Частота : 48,0 КГц
Частота кадров : 31,250 кадров/сек (1536 SPF)
Метод сжатия : С потерями
Размер потока : 550 Мбайт (6%)
Язык : English
Service kind : Complete Main
Default : Нет
Forced : Нет

Текст #1
Идентификатор : 6
Формат : UTF-8
Идентификатор кодека : S_TEXT/UTF8
Идентификатор кодека/Информация : UTF-8 Plain Text
Продолжительность : 1 ч. 16 м.
Битрейт : 4 бит/сек
Count of elements : 26
Размер потока : 2,29 Кбайт (0%)
Заголовок : RUS Forced SRT
Язык : Russian
Default : Да
Forced : Нет

Текст #2
Идентификатор : 7
Формат : UTF-8
Идентификатор кодека : S_TEXT/UTF8
Идентификатор кодека/Информация : UTF-8 Plain Text
Продолжительность : 1 ч. 56 м.
Битрейт : 94 бит/сек
Count of elements : 1161
Размер потока : 81,0 Кбайт (0%)
Заголовок : RUS SDH SRT
Язык : Russian
Default : Нет
Forced : Нет

Текст #3
Идентификатор : 8
Формат : UTF-8
Идентификатор кодека : S_TEXT/UTF8
Идентификатор кодека/Информация : UTF-8 Plain Text
Продолжительность : 1 ч. 56 м.
Битрейт : 55 бит/сек
Count of elements : 1128
Размер потока : 47,0 Кбайт (0%)
Заголовок : ENG SDH SRT
Язык : English
Default : Нет
Forced : Нет

Меню
00:00:00.000 : en:Main Title/Needed
00:08:40.228 : en:Crime Analysis
00:18:12.800 : en:Tooth Fairy at Large
00:23:11.848 : en:Dr. Lecktor
00:32:35.620 : en:Evidence Builds
00:37:53.729 : en:Killer Communication
00:49:03.649 : en:Bait
00:54:33.561 : en:The Red Dragon
01:00:26.998 : en:New Target
01:11:53.600 : en:Developing
01:18:23.115 : en:Connection
01:25:46.432 : en:The Power of God
01:32:44.725 : en:Will Sees
01:40:31.567 : en:Closing In
01:48:13.195 : en:Savior
01:55:19.203 : en:End Titles
Загрузка...Cкриншот1 Охотник на людей / Manhunter (1986) [Theatrical Cut] BDRip 1080p [HEVC] 10 bit от OldGamerЗагрузка...Cкриншот2 Охотник на людей / Manhunter (1986) [Theatrical Cut] BDRip 1080p [HEVC] 10 bit от OldGamerЗагрузка...Cкриншот3 Охотник на людей / Manhunter (1986) [Theatrical Cut] BDRip 1080p [HEVC] 10 bit от OldGamerЗагрузка...Cкриншот4 Охотник на людей / Manhunter (1986) [Theatrical Cut] BDRip 1080p [HEVC] 10 bit от OldGamer
3. Красный Дракон / Red Dragon (2002) [4k Remastered | Kino Lorber] BDRip 1080p [HEVC] 10 bit от OldGamer
Обложка Красный Дракон / Red Dragon (2002) [4k Remastered | Kino Lorber] BDRip 1080p [HEVC] 10 bit от OldGamer
HEVC
10 bit
✂︎Сэмпл
Год: 2002
Страна: США, Германия
Студия: Dino De Laurentiis Productions, Metro-Goldwyn-Mayer (MGM), Mikona Productions GmbH & Co. KG, Pan Productions, Scott Free Productions
Жанр: Триллер, Драма, Детектив
Длительность: 02:04:40

Режиссер: Бретт Рэтнер
В ролях: Энтони Хопкинс, Эдвард Нортон, Рэйф Файнс, Харви Кейтель, Эмили Уотсон, Мэри-Луиз Паркер, Филип Сеймур Хоффман, Энтони Хилд, Кен Люн, Фрэнки Фэйзон

Описание: Агент ФБР Уилл Грэм получает тяжёлые ранения при исполнении и покидает службу. Но через несколько лет его втягивают в новое расследование – в городе появился серийный убийца, которого пресса окрестила как Зубная фея. Чтобы поймать маньяка, Грэму приходится обратиться за помощью к Ганнибалу Лектеру.


Исходник: Blu-Ray Remux 1080p (rutracker)
Видео: 1920x804, ~10.8 Mbps
Аудио1: AC3, 6 ch, 640 Kbps - РусскийРусский, DUB (Пифагор / BD CEE)
Аудио2: AC3, 6 ch, 448 Kbps - РусскийРусский, MVO (FDV)
Аудио3: AC3, 2 ch, 192 Kbps - РусскийРусский, MVO (Премьер Видео Фильм)
Аудио4: AC3, 6 ch, 640 Kbps - РусскийРусский, DVO (Пётр Гланц и Инна Королева)
Аудио5: AC3, 6 ch, 640 Kbps - РусскийРусский, AVO (Андрей Гаврилов)
Аудио6: AC3, 6 ch, 640 Kbps - РусскийРусский, AVO (Юрий Живов)
Аудио7: AC3, 6 ch, 640 Kbps - РусскийРусский, VO (Дмитрий Есарев)
Аудио8: AC3, 2 ch, 192 Kbps - УкраинскийУкраинский, MVO (Cine+)
Аудио9: AC3, 2 ch, 192 Kbps - УкраинскийУкраинский, DVO (1+1 / ICTV)
Аудио10: AC3, 6 ch, 640 Kbps - АнглийскийАнглийский
Субтитры: русские, украинские (full, forced), английские (SDH)

Как за несколько секунд удалить ненужные аудиодорожки и субтитры (Внимание! После удаления вы не сможете поддержать раздачу)


Лог (x265 info)x265 [info]: frame I: 753, Avg QP:18.17 kb/s: 25289.31
x265 [info]: frame P: 25141, Avg QP:19.53 kb/s: 16515.08
x265 [info]: frame B: 153633, Avg QP:21.34 kb/s: 9751.38
x265 [info]: Weighted P-Frames: Y:6.7% UV:5.6%
x265 [info]: Weighted B-Frames: Y:5.7% UV:4.1%
x265 [info]: encoded 179527 frames in 130308.77s (1.38 fps), 10763.74 kb/s, Avg QP:21.08
МедиаинфоОбщее
Уникальный идентификатор : 244086429508019542639843639192365410162 (0xB7A1561BBDE503C7C9ADB964E7E5A772)
Полное имя : \\.\Hannibal\03.Красный Дракон.Red.Dragon.2002.4k.Remastered.Kino.Lorber.BDRip-HEVC.1080p.mkv
Формат : Matroska
Версия формата : Version 4
Размер файла : 13,6 Гбайт
Продолжительность : 2 ч. 4 мин.
Общий битрейт : 15,6 Мбит/сек
Частота кадров : 24,000 кадра/сек
Название фильма : Красный Дракон
Кодирование выполнил : OldGamer
Тип содержимого : Movie
Описание : Это было до "Молчания ягнят"
Дата выпуска : 2002-10-02
Дата записи : 2002-10-02
Дата кодирования : 2024-06-01 17:57:29 UTC
Программа кодирования : mkvmerge v83.0 ('Circle Of Friends') 64-bit
Библиотека кодирования : libebml v1.4.5 + libmatroska v1.7.1 / xvid4psp5
Обложка : Yes
Attachments : cover.jpg
ACTOR : Edward Norton, Энтони Хопкинс, Рейф Файнс, Эмили Уотсон, Харви Кейтель, Philip Seymour Hoffman, Anthony Heald, Mary-Louise Parker, Tyler Patrick Jones, Ken Leung, Frankie Faison, Lalo Schifrin, John Rubinstein, David Doty, Brenda Strong, Robert Curti...
ARTIST : Edward Norton, Энтони Хопкинс, Рейф Файнс, Эмили Уотсон, Харви Кейтель, Philip Seymour Hoffman, Anthony Heald, Mary-Louise Parker, Tyler Patrick Jones, Ken Leung, Frankie Faison, Lalo Schifrin, John Rubinstein, David Doty, Brenda Strong, Robert Curti...
DIRECTOR : Brett Ratner
GENRE : криминал, триллер, ужасы
LAW_RATING : R
PRODUCER : Martha De Laurentiis, Dino De Laurentiis
PRODUCTION_STUDIO : Dino De Laurentiis Cinematografica
RATING : R
SCREENPLAY_BY : Ted Tally
SUMMARY : Это было до "Молчания ягнят"
SYNOPSIS : Действие этой ленты разворачивается до событий, описанных в «Молчании ягнят» и до появления Клариссы Старлинг. Мы знакомимся с человеком, поймавшим Ганнибала Лектора, — специальным агентом ФБР Уиллом Грэмом. / После ареста Лектора, который едва не стоил Грэму жизни, Уилл уходит со службы в Бюро. Однако, появление нового жуткого серийного убийцы заставляет Грэма вернуться на службу. Этот безжалостный монстр, которого пресса уже окрестила «Зубной Феей», ночами вырезает целые семейства.
WRITTEN_BY : Ted Tally

Видео
Идентификатор : 1
Формат : HEVC
Формат/Информация : High Efficiency Video Coding
Профиль формата : Main 10@L4.1@High
Идентификатор кодека : V_MPEGH/ISO/HEVC
Продолжительность : 2 ч. 4 мин.
Битрейт : 10,8 Мбит/сек
Ширина : 1 920 пикселей
Высота : 804 пикселя
Соотношение сторон дисплея : 2,39:1
Режим частоты кадров : Постоянный
Частота кадров : 24,000 кадра/сек
Цветовое пространство : YUV
Цветовая субдискретизация : 4:2:0
Битовая глубина : 10 бит
Бит/(Пиксели*Кадры) : 0.291
Размер потока : 9,37 Гбайт (69%)
Заголовок : Red Dragon / Rip by OldGamer
Библиотека кодирования : x265 3.5+110-8ee01d45b:[Windows][GCC 13.2.0][64 bit] 10bit
Параметры библиотеки кодирования : cpuid=1111039 / frame-threads=3 / numa-pools=8 / wpp / no-pmode / no-pme / no-psnr / no-ssim / log-level=2 / input-csp=1 / input-res=1920x804 / interlace=0 / total-frames=179527 / level-idc=41 / high-tier=1 / uhd-bd=0 / ref=5 / no-allow-non-conformance / no-repeat-headers / annexb / no-aud / no-eob / no-eos / no-hrd / info / hash=0 / temporal-layers=0 / open-gop / min-keyint=23 / keyint=240 / gop-lookahead=0 / bframes=16 / b-adapt=2 / b-pyramid / bframe-bias=0 / rc-lookahead=60 / lookahead-slices=0 / scenecut=40 / no-hist-scenecut / radl=0 / no-splice / no-intra-refresh / ctu=32 / min-cu-size=8 / rect / amp / max-tu-size=32 / tu-inter-depth=4 / tu-intra-depth=4 / limit-tu=1 / rdoq-level=2 / dynamic-rd=0.00 / no-ssim-rd / signhide / no-tskip / nr-intra=0 / nr-inter=0 / no-constrained-intra / no-strong-intra-smoothing / max-merge=5 / limit-refs=3 / no-limit-modes / me=3 / subme=7 / merange=57 / temporal-mvp / no-frame-dup / no-hme / weightp / weightb / no-analyze-src-pics / deblock=-2:-2 / no-sao / no-sao-non-deblock / rd=6 / selective-sao=0 / no-early-skip / no-rskip / no-fast-intra / no-tskip-fast / no-cu-lossless / b-intra / no-splitrd-skip / rdpenalty=0 / psy-rd=1.00 / psy-rdoq=2.00 / no-rd-refine / no-lossless / cbqpoffs=0 / crqpoffs=0 / rc=crf / crf=19.7 / qcomp=0.60 / qpstep=4 / stats-write=0 / stats-read=0 / vbv-maxrate=50000 / vbv-bufsize=50000 / vbv-init=0.9 / min-vbv-fullness=50.0 / max-vbv-fullness=80.0 / crf-max=0.0 / crf-min=0.0 / ipratio=1.40 / pbratio=1.30 / aq-mode=1 / aq-strength=1.00 / no-cutree / zone-count=1 / zones: / start-frame=172823 / end-frame=179527 / qp=36 / no-strict-cbr / qg-size=32 / no-rc-grain / qpmax=69 / qpmin=0 / no-const-vbv / sar=1 / overscan=0 / videoformat=5 / range=0 / colorprim=2 / transfer=2 / colormatrix=2 / chromaloc=0 / display-window=0 / cll=0,0 / min-luma=0 / max-luma=1023 / log2-max-poc-lsb=8 / vui-timing-info / vui-hrd-info / slices=1 / no-opt-qp-pps / no-opt-ref-list-length-pps / no-multi-pass-opt-rps / scenecut-bias=0.00 / no-opt-cu-delta-qp / no-aq-motion / no-hdr10 / no-hdr10-opt / no-dhdr10-opt / no-idr-recovery-sei / analysis-reuse-level=0 / analysis-save-reuse-level=0 / analysis-load-reuse-level=0 / scale-factor=0 / refine-intra=0 / refine-inter=0 / refine-mv=1 / refine-ctu-distortion=0 / no-limit-sao / ctu-info=0 / no-lowpass-dct / refine-analysis-type=0 / copy-pic=1 / max-ausize-factor=1.0 / no-dynamic-refine / no-single-sei / no-hevc-aq / no-svt / no-field / qp-adaptation-range=1.00 / scenecut-aware-qp=0conformance-window-offsets / right=0 / bottom=0 / decoder-max-rate=0 / no-vbv-live-multi-pass / no-mcstf / no-sbrc
Язык : Английский
По умолчанию : Да
Принудительно : Нет

Аудио #1
Идентификатор : 2
Формат : AC-3
Формат/Информация : Audio Coding 3
Коммерческое название : Dolby Digital
Идентификатор кодека : A_AC3
Продолжительность : 2 ч. 4 мин.
Вид битрейта : Постоянный
Битрейт : 640 Кбит/сек
Канал(-ы) : 6 каналов
Расположение каналов : L R C LFE Ls Rs
Частота дискретизации : 48,0 КГц
Частота кадров : 31,250 кадров/сек (1536 SPF)
Метод сжатия : С потерями
Размер потока : 569 Мбайт (4%)
Заголовок : DUB (Пифагор / BD CEE)
Язык : Русский
Вид сервиса : Complete Main
По умолчанию : Да
Принудительно : Нет
Нормализация звука речи : -27 dB
compr : -0.28 dB
cmixlev : -3.0 dB
surmixlev : -3 dB
mixlevel : 285 dB
roomtyp : Small
dialnorm_Average : -27 dB
dialnorm_Minimum : -27 dB
dialnorm_Maximum : -27 dB

Аудио #2
Идентификатор : 3
Формат : AC-3
Формат/Информация : Audio Coding 3
Коммерческое название : Dolby Digital
Идентификатор кодека : A_AC3
Продолжительность : 2 ч. 4 мин.
Вид битрейта : Постоянный
Битрейт : 448 Кбит/сек
Канал(-ы) : 6 каналов
Расположение каналов : L R C LFE Ls Rs
Частота дискретизации : 48,0 КГц
Частота кадров : 31,250 кадров/сек (1536 SPF)
Метод сжатия : С потерями
Размер потока : 398 Мбайт (3%)
Заголовок : MVO (FDV)
Язык : Русский
Вид сервиса : Complete Main
По умолчанию : Нет
Принудительно : Нет
Нормализация звука речи : -31 dB
compr : -0.28 dB
cmixlev : -3.0 dB
surmixlev : -3 dB
dmixmod : Lo/Ro
ltrtcmixlev : -3.0 dB
ltrtsurmixlev : -3.0 dB
lorocmixlev : -3.0 dB
lorosurmixlev : -3.0 dB
dialnorm_Average : -31 dB
dialnorm_Minimum : -31 dB
dialnorm_Maximum : -31 dB

Аудио #3
Идентификатор : 4
Формат : AC-3
Формат/Информация : Audio Coding 3
Коммерческое название : Dolby Digital
Идентификатор кодека : A_AC3
Продолжительность : 2 ч. 4 мин.
Вид битрейта : Постоянный
Битрейт : 192 Кбит/сек
Канал(-ы) : 2 канала
Расположение каналов : L R
Частота дискретизации : 48,0 КГц
Частота кадров : 31,250 кадров/сек (1536 SPF)
Метод сжатия : С потерями
Размер потока : 171 Мбайт (1%)
Заголовок : MVO (Премьер Видео Фильм)
Язык : Русский
Вид сервиса : Complete Main
По умолчанию : Нет
Принудительно : Нет
Нормализация звука речи : -31 dB
compr : -0.28 dB
ltrtcmixlev : -3.0 dB
ltrtsurmixlev : -3.0 dB
lorocmixlev : -3.0 dB
lorosurmixlev : -3.0 dB
dialnorm_Average : -31 dB
dialnorm_Minimum : -31 dB
dialnorm_Maximum : -31 dB

Аудио #4
Идентификатор : 5
Формат : AC-3
Формат/Информация : Audio Coding 3
Коммерческое название : Dolby Digital
Идентификатор кодека : A_AC3
Продолжительность : 2 ч. 4 мин.
Вид битрейта : Постоянный
Битрейт : 640 Кбит/сек
Канал(-ы) : 6 каналов
Расположение каналов : L R C LFE Ls Rs
Частота дискретизации : 48,0 КГц
Частота кадров : 31,250 кадров/сек (1536 SPF)
Метод сжатия : С потерями
Размер потока : 571 Мбайт (4%)
Заголовок : DVO (Пётр Гланц и Инна Королёва)
Язык : Русский
Вид сервиса : Complete Main
По умолчанию : Нет
Принудительно : Нет
Нормализация звука речи : -27 dB
compr : -0.28 dB
cmixlev : -3.0 dB
surmixlev : -3 dB
mixlevel : 285 dB
roomtyp : Small
dialnorm_Average : -27 dB
dialnorm_Minimum : -27 dB
dialnorm_Maximum : -27 dB

Аудио #5
Идентификатор : 6
Формат : AC-3
Формат/Информация : Audio Coding 3
Коммерческое название : Dolby Digital
Идентификатор кодека : A_AC3
Продолжительность : 2 ч. 4 мин.
Вид битрейта : Постоянный
Битрейт : 640 Кбит/сек
Канал(-ы) : 6 каналов
Расположение каналов : L R C LFE Ls Rs
Частота дискретизации : 48,0 КГц
Частота кадров : 31,250 кадров/сек (1536 SPF)
Метод сжатия : С потерями
Размер потока : 571 Мбайт (4%)
Заголовок : AVO (Андрей Гаврилов)
Язык : Русский
Вид сервиса : Complete Main
По умолчанию : Нет
Принудительно : Нет
Нормализация звука речи : -27 dB
compr : -0.28 dB
cmixlev : -3.0 dB
surmixlev : -3 dB
mixlevel : 285 dB
roomtyp : Small
dialnorm_Average : -27 dB
dialnorm_Minimum : -27 dB
dialnorm_Maximum : -27 dB

Аудио #6
Идентификатор : 7
Формат : AC-3
Формат/Информация : Audio Coding 3
Коммерческое название : Dolby Digital
Идентификатор кодека : A_AC3
Продолжительность : 2 ч. 4 мин.
Вид битрейта : Постоянный
Битрейт : 640 Кбит/сек
Канал(-ы) : 6 каналов
Расположение каналов : L R C LFE Ls Rs
Частота дискретизации : 48,0 КГц
Частота кадров : 31,250 кадров/сек (1536 SPF)
Метод сжатия : С потерями
Размер потока : 571 Мбайт (4%)
Заголовок : AVO (Юрий Живов)
Язык : Русский
Вид сервиса : Complete Main
По умолчанию : Нет
Принудительно : Нет
Нормализация звука речи : -27 dB
compr : -0.28 dB
cmixlev : -3.0 dB
surmixlev : -3 dB
mixlevel : 285 dB
roomtyp : Small
dialnorm_Average : -27 dB
dialnorm_Minimum : -27 dB
dialnorm_Maximum : -27 dB

Аудио #7
Идентификатор : 8
Формат : AC-3
Формат/Информация : Audio Coding 3
Коммерческое название : Dolby Digital
Идентификатор кодека : A_AC3
Продолжительность : 2 ч. 4 мин.
Вид битрейта : Постоянный
Битрейт : 640 Кбит/сек
Канал(-ы) : 6 каналов
Расположение каналов : L R C LFE Ls Rs
Частота дискретизации : 48,0 КГц
Частота кадров : 31,250 кадров/сек (1536 SPF)
Метод сжатия : С потерями
Размер потока : 571 Мбайт (4%)
Заголовок : VO (Дмитрий Есарев)
Язык : Русский
Вид сервиса : Complete Main
По умолчанию : Нет
Принудительно : Нет
Нормализация звука речи : -27 dB
compr : -0.28 dB
cmixlev : -3.0 dB
surmixlev : -3 dB
mixlevel : 285 dB
roomtyp : Small
dialnorm_Average : -27 dB
dialnorm_Minimum : -27 dB
dialnorm_Maximum : -27 dB

Аудио #8
Идентификатор : 9
Формат : AC-3
Формат/Информация : Audio Coding 3
Коммерческое название : Dolby Digital
Идентификатор кодека : A_AC3
Продолжительность : 2 ч. 4 мин.
Вид битрейта : Постоянный
Битрейт : 192 Кбит/сек
Канал(-ы) : 2 канала
Расположение каналов : L R
Частота дискретизации : 48,0 КГц
Частота кадров : 31,250 кадров/сек (1536 SPF)
Метод сжатия : С потерями
Размер потока : 171 Мбайт (1%)
Заголовок : MVO (Cine+)
Язык : Украинский
Вид сервиса : Complete Main
По умолчанию : Нет
Принудительно : Нет
Нормализация звука речи : -31 dB
compr : -0.28 dB
ltrtcmixlev : -3.0 dB
ltrtsurmixlev : -3.0 dB
lorocmixlev : -3.0 dB
lorosurmixlev : -3.0 dB
dialnorm_Average : -31 dB
dialnorm_Minimum : -31 dB
dialnorm_Maximum : -31 dB

Аудио #9
Идентификатор : 10
Формат : AC-3
Формат/Информация : Audio Coding 3
Коммерческое название : Dolby Digital
Идентификатор кодека : A_AC3
Продолжительность : 2 ч. 4 мин.
Вид битрейта : Постоянный
Битрейт : 192 Кбит/сек
Канал(-ы) : 2 канала
Расположение каналов : L R
Частота дискретизации : 48,0 КГц
Частота кадров : 31,250 кадров/сек (1536 SPF)
Метод сжатия : С потерями
Размер потока : 171 Мбайт (1%)
Заголовок : DVO (1+1 / ICTV)
Язык : Украинский
Вид сервиса : Complete Main
По умолчанию : Нет
Принудительно : Нет
Нормализация звука речи : -31 dB
compr : -0.28 dB
ltrtcmixlev : -3.0 dB
ltrtsurmixlev : -3.0 dB
lorocmixlev : -3.0 dB
lorosurmixlev : -3.0 dB
dialnorm_Average : -31 dB
dialnorm_Minimum : -31 dB
dialnorm_Maximum : -31 dB

Аудио #10
Идентификатор : 11
Формат : AC-3
Формат/Информация : Audio Coding 3
Коммерческое название : Dolby Digital
Идентификатор кодека : A_AC3
Продолжительность : 2 ч. 4 мин.
Вид битрейта : Постоянный
Битрейт : 640 Кбит/сек
Канал(-ы) : 6 каналов
Расположение каналов : L R C LFE Ls Rs
Частота дискретизации : 48,0 КГц
Частота кадров : 31,250 кадров/сек (1536 SPF)
Метод сжатия : С потерями
Размер потока : 571 Мбайт (4%)
Язык : Английский
Вид сервиса : Complete Main
По умолчанию : Нет
Принудительно : Нет
Нормализация звука речи : -27 dB
compr : -0.28 dB
dynrng : 16.42 dB
cmixlev : -3.0 dB
surmixlev : -3 dB
mixlevel : 285 dB
roomtyp : Small
dialnorm_Average : -27 dB
dialnorm_Minimum : -27 dB
dialnorm_Maximum : -27 dB

Текст #1
Идентификатор : 12
Формат : UTF-8
Идентификатор кодека : S_TEXT/UTF8
Идентификатор кодека/Информация : UTF-8 Plain Text
Продолжительность : 1 ч. 59 мин.
Битрейт : 96 бит/сек
Частота кадров : 0,213 кадр/сек
Число элементов : 1522
Размер потока : 83,9 КиБ (0%)
Заголовок : Full [R5]
Язык : Русский
По умолчанию : Нет
Принудительно : Нет

Текст #2
Идентификатор : 13
Формат : UTF-8
Идентификатор кодека : S_TEXT/UTF8
Идентификатор кодека/Информация : UTF-8 Plain Text
Продолжительность : 1 ч. 40 мин.
Битрейт : 3 бит/сек
Частота кадров : 0,009 кадр/сек
Число элементов : 56
Размер потока : 2,83 КиБ (0%)
Заголовок : Forced
Язык : Украинский
По умолчанию : Нет
Принудительно : Нет

Текст #3
Идентификатор : 14
Формат : UTF-8
Идентификатор кодека : S_TEXT/UTF8
Идентификатор кодека/Информация : UTF-8 Plain Text
Продолжительность : 2 ч. 3 мин.
Битрейт : 94 бит/сек
Частота кадров : 0,209 кадр/сек
Число элементов : 1544
Размер потока : 85,2 КиБ (0%)
Заголовок : Full [Netflix]
Язык : Украинский
По умолчанию : Нет
Принудительно : Нет

Текст #4
Идентификатор : 15
Формат : UTF-8
Идентификатор кодека : S_TEXT/UTF8
Идентификатор кодека/Информация : UTF-8 Plain Text
Продолжительность : 1 ч. 57 мин.
Битрейт : 60 бит/сек
Частота кадров : 0,263 кадр/сек
Число элементов : 1863
Размер потока : 52,2 КиБ (0%)
Заголовок : Full
Язык : Английский
По умолчанию : Нет
Принудительно : Нет

Текст #5
Идентификатор : 16
Формат : UTF-8
Идентификатор кодека : S_TEXT/UTF8
Идентификатор кодека/Информация : UTF-8 Plain Text
Продолжительность : 2 ч. 4 мин.
Битрейт : 66 бит/сек
Частота кадров : 0,286 кадр/сек
Число элементов : 2126
Размер потока : 60,2 КиБ (0%)
Заголовок : SDH
Язык : Английский
По умолчанию : Нет
Принудительно : Нет

Меню
00:00:00.000 : en:Profile of a Killer
00:08:46.940 : en:Main Titles
00:11:12.690 : en:Crawford's Request
00:16:06.315 : en:Profiler
00:26:43.064 : en:The Lecter Option
00:29:02.064 : en:Just Like Old Times
00:36:57.230 : en:Living Proof
00:39:05.814 : en:Behold a Red Dragon
00:50:43.854 : en:Reba Mcclane
00:58:01.479 : en:The Notes
01:04:51.520 : en:Lecter's Message
01:08:24.395 : en:Rattling the Cage
01:11:23.395 : en:I Am the Dragon!
01:24:30.477 : en:Reba's Man
01:32:39.685 : en:The Dragon Defied
01:37:07.768 : en:The Blake Painting
01:40:41.393 : en:The Common Factor
01:44:35.643 : en:He Wants You...
01:52:48.642 : en:Facing the Dragon
02:00:00.934 : en:End Titles
Загрузка...Cкриншот1 Красный Дракон / Red Dragon (2002) [4k Remastered | Kino Lorber] BDRip 1080p [HEVC] 10 bit от OldGamerЗагрузка...Cкриншот2 Красный Дракон / Red Dragon (2002) [4k Remastered | Kino Lorber] BDRip 1080p [HEVC] 10 bit от OldGamerЗагрузка...Cкриншот3 Красный Дракон / Red Dragon (2002) [4k Remastered | Kino Lorber] BDRip 1080p [HEVC] 10 bit от OldGamerЗагрузка...Cкриншот4 Красный Дракон / Red Dragon (2002) [4k Remastered | Kino Lorber] BDRip 1080p [HEVC] 10 bit от OldGamer
4. Молчание ягнят / The Silence of the Lambs (1990) [4k Remastered | The Criterion Collection] BDRip 1080p [HEVC] 10 bit от OldGamer
Обложка Молчание ягнят / The Silence of the Lambs (1990) [4k Remastered | The Criterion Collection] BDRip 1080p [HEVC] 10 bit от OldGamer
HEVC
10 bit
✂︎Сэмпл
Год: 1990
Страна: США
Студия: Orion Pictures Corporation, Strong Heart/Demme Production
Жанр: Триллер, Детектив, Криминал, Драма
Длительность: 01:58:48

Режиссер: Джонатан Демме
В ролях: Джоди Фостер, Энтони Хопкинс, Брук Смит, Скотт Гленн, Тед Левин, Энтони Хилд, Кейси Леммонс, Дайан Бэйкер, Чарльз Нэпьер, Роджер Корман

Описание: Психопат похищает и убивает молодых женщин по всему Среднему Западу. ФБР, уверенное, что все преступления совершены одним и тем же человеком, поручает агенту Клариссе Старлинг встретиться с заключённым-маньяком Ганнибалом Лектером, который мог бы помочь составить психологический портрет убийцы. Сам Лектер отбывает наказание за убийства и каннибализм. Он согласен помочь Клариссе лишь в том случае, если она попотчует его больное воображение подробностями своей личной жизни.


Исходник: Blu-Ray Remux 1080p (rutracker)
Видео: 1920x1040, ~12.0 Mbps
Аудио1: AC3, 6 ch, 640 Kbps - РусскийРусский, DUB (Zone Vision / BD CEE)
Аудио2: AC3, 6 ch, 640 Kbps - РусскийРусский, MVO (Киномания)
Аудио3: AC3, 6 ch, 640 Kbps - РусскийРусский, MVO (Видеосервис)
Аудио4: AC3, 6 ch, 448 Kbps - РусскийРусский, MVO (Jaskier)
Аудио5: AC3, 2 ch, 192 Kbps - РусскийРусский, MVO (ОРТ)
Аудио6: AC3, 2 ch, 192 Kbps - РусскийРусский, MVO (НТВ+)
Аудио7: AC3, 6 ch, 640 Kbps - РусскийРусский, DVO (Позитив / Superbit / Tycoon)
Аудио8: AC3, 2 ch, 192 Kbps - РусскийРусский, DVO (НТВ+)
Аудио9: AC3, 2 ch, 192 Kbps - РусскийРусский, DVO (НТВ)
Аудио10: AC3, 2 ch, 192 Kbps - РусскийРусский, DVO (Лазер-видео)
Аудио11: AC3, 2 ch, 192 Kbps - РусскийРусский, DVO (Союз-видео)
Аудио12: AC3, 6 ch, 640 Kbps - РусскийРусский, AVO (Юрий Живов)
Аудио13: AC3, 6 ch, 640 Kbps - РусскийРусский, AVO (Алексей Михалёв)
Аудио14: AC3, 6 ch, 640 Kbps - РусскийРусский, AVO (Юрий Сербин)
Аудио15: AC3, 6 ch, 640 Kbps - РусскийРусский, AVO (Григорий Либергал)
Аудио16: AC3, 6 ch, 448 Kbps - РусскийРусский, AVO (Андрей Гаврилов)
Аудио17: AC3, 6 ch, 640 Kbps - РусскийРусский, VO (Дмитрий Есарев)
Аудио18: AC3, 6 ch, 384 Kbps - РусскийРусский, VO (Евгений Гаевский)
Аудио19: AC3, 2 ch, 192 Kbps - УкраинскийУкраинский, DUB (NLO)
Аудио20: AC3, 2 ch, 192 Kbps - УкраинскийУкраинский, MVO (AMC)
Аудио21: AC3, 2 ch, 192 Kbps - УкраинскийУкраинский, DVO (1+1)
Аудио22: AC3, 6 ch, 640 Kbps - АнглийскийАнглийский (Original 5.1 Upmix)
Аудио23: AC3, 2 ch, 640 Kbps - АнглийскийАнглийский (Original Stereo Mix)
Субтитры: русские (full, forced), украинские, английские (SDH)

Как за несколько секунд удалить ненужные аудиодорожки и субтитры (Внимание! После удаления вы не сможете поддержать раздачу)


Лог (x265 info)x265 [info]: frame I: 730, Avg QP:18.26 kb/s: 31312.80
x265 [info]: frame P: 30652, Avg QP:19.58 kb/s: 24548.25
x265 [info]: frame B: 139511, Avg QP:21.60 kb/s: 9178.32
x265 [info]: Weighted P-Frames: Y:8.1% UV:6.9%
x265 [info]: Weighted B-Frames: Y:6.0% UV:5.0%
x265 [info]: encoded 170893 frames in 163726.70s (1.04 fps), 12029.68 kb/s, Avg QP:21.22
МедиаинфоОбщее
Уникальный идентификатор : 52595972978735082569385642665008413963 (0x27919DADAE0493C5526C567ED593BD0B)
Полное имя : \\.\Hannibal\04.Молчание.ягнят.The.Silence.of.the.Lambs.1991.4k.Remastered.The.Criterion.Collection.BDRip-HEVC.1080p.mkv
Формат : Matroska
Версия формата : Version 4
Размер файла : 18,3 Гбайт
Продолжительность : 1 ч. 58 мин.
Общий битрейт : 22,1 Мбит/сек
Частота кадров : 23,976 кадра/сек
Название фильма : Молчание ягнят / Молчание ягнят
Кодирование выполнил : OldGamer
Тип содержимого : Movie
Описание : «От ужасающего бестселлера»
Дата выпуска : 1991-02-14
Дата записи : 1991-02-14
Программа кодирования : mkvmerge v83.0 ('Circle Of Friends') 64-bit
Библиотека кодирования : libebml v1.4.5 + libmatroska v1.7.1 / xvid4psp5
Обложка : Yes
Attachments : cover.jpg
ACTOR : Джоди Фостер, Энтони Хопкинс, Scott Glenn, Ted Levine, Anthony Heald, Brooke Smith, Diane Baker, Kasi Lemmons, Frankie Faison, Tracey Walter, Charles Napier, Danny Darst, Alex Coleman, Dan Butler, Paul Lazar, Ron Vawter, Roger Corman, Lawrence A. Bon...
ARTIST : Джоди Фостер, Энтони Хопкинс, Scott Glenn, Ted Levine, Anthony Heald, Brooke Smith, Diane Baker, Kasi Lemmons, Frankie Faison, Tracey Walter, Charles Napier, Danny Darst, Alex Coleman, Dan Butler, Paul Lazar, Ron Vawter, Roger Corman, Lawrence A. Bon...
DIRECTOR : Jonathan Demme
GENRE : криминал, драма, триллер
LAW_RATING : R
PRODUCER : Edward Saxon, Kenneth Utt, Ronald M. Bozman
PRODUCTION_STUDIO : Strong Heart
RATING : R
SCREENPLAY_BY : Ted Tally
SUMMARY : «От ужасающего бестселлера»
SYNOPSIS : Психопат похищает и убивает молодых женщин по всему Среднему Западу. ФБР, уверенное, что все преступления совершены одним и тем же человеком, поручает агенту Клариссе Старлинг встретиться с заключенным-маньяком Ганнибалом Лектером, который мог бы помочь составить психологический портрет убийцы. Сам Лектер отбывает наказание за убийства и каннибализм. Он согласен помочь Клариссе лишь в том случае, если она попотчует его больное воображение подробностями своей личной жизни.
WRITTEN_BY : Ted Tally

Видео
Идентификатор : 1
Формат : HEVC
Формат/Информация : High Efficiency Video Coding
Профиль формата : Main 10@L4.1@High
Идентификатор кодека : V_MPEGH/ISO/HEVC
Продолжительность : 1 ч. 58 мин.
Битрейт : 12,0 Мбит/сек
Ширина : 1 920 пикселей
Высота : 1 040 пикселей
Соотношение сторон дисплея : 1,85:1
Режим частоты кадров : Постоянный
Частота кадров : 23,976 (24000/1001) кадра/сек
Цветовое пространство : YUV
Цветовая субдискретизация : 4:2:0
Битовая глубина : 10 бит
Бит/(Пиксели*Кадры) : 0.251
Размер потока : 9,98 Гбайт (54%)
Заголовок : The Silence of the Lambs / Rip by OldGamer
Библиотека кодирования : x265 3.5+110-8ee01d45b:[Windows][GCC 13.2.0][64 bit] 10bit
Параметры библиотеки кодирования : cpuid=1111039 / frame-threads=3 / numa-pools=8 / wpp / no-pmode / no-pme / no-psnr / no-ssim / log-level=2 / input-csp=1 / input-res=1920x1040 / interlace=0 / total-frames=170893 / level-idc=41 / high-tier=1 / uhd-bd=0 / ref=5 / no-allow-non-conformance / no-repeat-headers / annexb / no-aud / no-eob / no-eos / no-hrd / info / hash=0 / temporal-layers=0 / open-gop / min-keyint=23 / keyint=240 / gop-lookahead=0 / bframes=16 / b-adapt=2 / b-pyramid / bframe-bias=0 / rc-lookahead=60 / lookahead-slices=0 / scenecut=40 / no-hist-scenecut / radl=0 / no-splice / no-intra-refresh / ctu=32 / min-cu-size=8 / rect / amp / max-tu-size=32 / tu-inter-depth=4 / tu-intra-depth=4 / limit-tu=1 / rdoq-level=2 / dynamic-rd=0.00 / no-ssim-rd / signhide / no-tskip / nr-intra=0 / nr-inter=0 / no-constrained-intra / no-strong-intra-smoothing / max-merge=5 / limit-refs=3 / no-limit-modes / me=3 / subme=7 / merange=57 / temporal-mvp / no-frame-dup / no-hme / weightp / weightb / no-analyze-src-pics / deblock=-2:-2 / no-sao / no-sao-non-deblock / rd=6 / selective-sao=0 / no-early-skip / no-rskip / no-fast-intra / no-tskip-fast / no-cu-lossless / b-intra / no-splitrd-skip / rdpenalty=0 / psy-rd=1.00 / psy-rdoq=2.00 / no-rd-refine / no-lossless / cbqpoffs=0 / crqpoffs=0 / rc=crf / crf=20.4 / qcomp=0.60 / qpstep=4 / stats-write=0 / stats-read=0 / vbv-maxrate=50000 / vbv-bufsize=50000 / vbv-init=0.9 / min-vbv-fullness=50.0 / max-vbv-fullness=80.0 / crf-max=0.0 / crf-min=0.0 / ipratio=1.40 / pbratio=1.30 / aq-mode=1 / aq-strength=1.00 / no-cutree / zone-count=1 / zones: / start-frame=170716 / end-frame=170893 / qp=36 / no-strict-cbr / qg-size=32 / no-rc-grain / qpmax=69 / qpmin=0 / no-const-vbv / sar=1 / overscan=0 / videoformat=5 / range=0 / colorprim=2 / transfer=2 / colormatrix=2 / chromaloc=0 / display-window=0 / cll=0,0 / min-luma=0 / max-luma=1023 / log2-max-poc-lsb=8 / vui-timing-info / vui-hrd-info / slices=1 / no-opt-qp-pps / no-opt-ref-list-length-pps / no-multi-pass-opt-rps / scenecut-bias=0.00 / no-opt-cu-delta-qp / no-aq-motion / no-hdr10 / no-hdr10-opt / no-dhdr10-opt / no-idr-recovery-sei / analysis-reuse-level=0 / analysis-save-reuse-level=0 / analysis-load-reuse-level=0 / scale-factor=0 / refine-intra=0 / refine-inter=0 / refine-mv=1 / refine-ctu-distortion=0 / no-limit-sao / ctu-info=0 / no-lowpass-dct / refine-analysis-type=0 / copy-pic=1 / max-ausize-factor=1.0 / no-dynamic-refine / no-single-sei / no-hevc-aq / no-svt / no-field / qp-adaptation-range=1.00 / scenecut-aware-qp=0conformance-window-offsets / right=0 / bottom=0 / decoder-max-rate=0 / no-vbv-live-multi-pass / no-mcstf / no-sbrc
Язык : Английский
По умолчанию : Да
Принудительно : Нет

Аудио #1
Идентификатор : 2
Формат : AC-3
Формат/Информация : Audio Coding 3
Коммерческое название : Dolby Digital
Идентификатор кодека : A_AC3
Продолжительность : 1 ч. 58 мин.
Вид битрейта : Постоянный
Битрейт : 640 Кбит/сек
Канал(-ы) : 6 каналов
Расположение каналов : L R C LFE Ls Rs
Частота дискретизации : 48,0 КГц
Частота кадров : 31,250 кадров/сек (1536 SPF)
Метод сжатия : С потерями
Размер потока : 544 Мбайт (3%)
Заголовок : DUB (Zone Vision / BD CEE)
Язык : Русский
Вид сервиса : Complete Main
По умолчанию : Да
Принудительно : Нет
Нормализация звука речи : -27 dB
compr : -0.28 dB
cmixlev : -3.0 dB
surmixlev : -3 dB
mixlevel : 285 dB
roomtyp : Small
dialnorm_Average : -27 dB
dialnorm_Minimum : -27 dB
dialnorm_Maximum : -27 dB

Аудио #2
Идентификатор : 3
Формат : AC-3
Формат/Информация : Audio Coding 3
Коммерческое название : Dolby Digital
Идентификатор кодека : A_AC3
Продолжительность : 1 ч. 58 мин.
Вид битрейта : Постоянный
Битрейт : 640 Кбит/сек
Канал(-ы) : 6 каналов
Расположение каналов : L R C LFE Ls Rs
Частота дискретизации : 48,0 КГц
Частота кадров : 31,250 кадров/сек (1536 SPF)
Метод сжатия : С потерями
Размер потока : 544 Мбайт (3%)
Заголовок : MVO (Киномания)
Язык : Русский
Вид сервиса : Complete Main
По умолчанию : Нет
Принудительно : Нет
Нормализация звука речи : -27 dB
compr : -0.28 dB
cmixlev : -3.0 dB
surmixlev : -3 dB
mixlevel : 285 dB
roomtyp : Small
dialnorm_Average : -27 dB
dialnorm_Minimum : -27 dB
dialnorm_Maximum : -27 dB

Аудио #3
Идентификатор : 4
Формат : AC-3
Формат/Информация : Audio Coding 3
Коммерческое название : Dolby Digital
Идентификатор кодека : A_AC3
Продолжительность : 1 ч. 58 мин.
Вид битрейта : Постоянный
Битрейт : 640 Кбит/сек
Канал(-ы) : 6 каналов
Расположение каналов : L R C LFE Ls Rs
Частота дискретизации : 48,0 КГц
Частота кадров : 31,250 кадров/сек (1536 SPF)
Метод сжатия : С потерями
Размер потока : 544 Мбайт (3%)
Заголовок : MVO (Видеосервис)
Язык : Русский
Вид сервиса : Complete Main
По умолчанию : Нет
Принудительно : Нет
Нормализация звука речи : -27 dB
compr : -0.28 dB
cmixlev : -3.0 dB
surmixlev : -3 dB
mixlevel : 285 dB
roomtyp : Small
dialnorm_Average : -27 dB
dialnorm_Minimum : -27 dB
dialnorm_Maximum : -27 dB

Аудио #4
Идентификатор : 5
Формат : AC-3
Формат/Информация : Audio Coding 3
Коммерческое название : Dolby Digital
Идентификатор кодека : A_AC3
Продолжительность : 1 ч. 58 мин.
Вид битрейта : Постоянный
Битрейт : 448 Кбит/сек
Канал(-ы) : 6 каналов
Расположение каналов : L R C LFE Ls Rs
Частота дискретизации : 48,0 КГц
Частота кадров : 31,250 кадров/сек (1536 SPF)
Метод сжатия : С потерями
Размер потока : 381 Мбайт (2%)
Заголовок : MVO (Jaskier)
Язык : Русский
Вид сервиса : Complete Main
По умолчанию : Нет
Принудительно : Нет
Нормализация звука речи : -31 dB
cmixlev : -4.5 dB
surmixlev : -6 dB
dialnorm_Average : -31 dB
dialnorm_Minimum : -31 dB
dialnorm_Maximum : -31 dB

Аудио #5
Идентификатор : 6
Формат : AC-3
Формат/Информация : Audio Coding 3
Коммерческое название : Dolby Digital
Идентификатор кодека : A_AC3
Продолжительность : 1 ч. 58 мин.
Вид битрейта : Постоянный
Битрейт : 192 Кбит/сек
Канал(-ы) : 2 канала
Расположение каналов : L R
Частота дискретизации : 48,0 КГц
Частота кадров : 31,250 кадров/сек (1536 SPF)
Метод сжатия : С потерями
Размер потока : 163 Мбайт (1%)
Заголовок : MVO (ОРТ)
Язык : Русский
Вид сервиса : Complete Main
По умолчанию : Нет
Принудительно : Нет
Нормализация звука речи : -31 dB
dialnorm_Average : -29 dB
dialnorm_Minimum : -31 dB
dialnorm_Maximum : -27 dB

Аудио #6
Идентификатор : 7
Формат : AC-3
Формат/Информация : Audio Coding 3
Коммерческое название : Dolby Digital
Идентификатор кодека : A_AC3
Продолжительность : 1 ч. 58 мин.
Вид битрейта : Постоянный
Битрейт : 192 Кбит/сек
Канал(-ы) : 2 канала
Расположение каналов : L R
Частота дискретизации : 48,0 КГц
Частота кадров : 31,250 кадров/сек (1536 SPF)
Метод сжатия : С потерями
Размер потока : 163 Мбайт (1%)
Заголовок : MVO (НТВ+)
Язык : Русский
Вид сервиса : Complete Main
По умолчанию : Нет
Принудительно : Нет
Нормализация звука речи : -31 dB
dialnorm_Average : -31 dB
dialnorm_Minimum : -31 dB
dialnorm_Maximum : -31 dB

Аудио #7
Идентификатор : 8
Формат : AC-3
Формат/Информация : Audio Coding 3
Коммерческое название : Dolby Digital
Идентификатор кодека : A_AC3
Продолжительность : 1 ч. 58 мин.
Вид битрейта : Постоянный
Битрейт : 640 Кбит/сек
Канал(-ы) : 6 каналов
Расположение каналов : L R C LFE Ls Rs
Частота дискретизации : 48,0 КГц
Частота кадров : 31,250 кадров/сек (1536 SPF)
Метод сжатия : С потерями
Размер потока : 544 Мбайт (3%)
Заголовок : DVO (Позитив / Superbit / Tycoon)
Язык : Русский
Вид сервиса : Complete Main
По умолчанию : Нет
Принудительно : Нет
Нормализация звука речи : -27 dB
compr : -0.28 dB
cmixlev : -3.0 dB
surmixlev : -3 dB
mixlevel : 285 dB
roomtyp : Small
dialnorm_Average : -27 dB
dialnorm_Minimum : -27 dB
dialnorm_Maximum : -27 dB

Аудио #8
Идентификатор : 9
Формат : AC-3
Формат/Информация : Audio Coding 3
Коммерческое название : Dolby Digital
Идентификатор кодека : A_AC3
Продолжительность : 1 ч. 58 мин.
Вид битрейта : Постоянный
Битрейт : 192 Кбит/сек
Канал(-ы) : 2 канала
Расположение каналов : L R
Частота дискретизации : 48,0 КГц
Частота кадров : 31,250 кадров/сек (1536 SPF)
Метод сжатия : С потерями
Размер потока : 163 Мбайт (1%)
Заголовок : DVO (НТВ+)
Язык : Русский
Вид сервиса : Complete Main
По умолчанию : Нет
Принудительно : Нет
Нормализация звука речи : -31 dB
dialnorm_Average : -31 dB
dialnorm_Minimum : -31 dB
dialnorm_Maximum : -31 dB

Аудио #9
Идентификатор : 10
Формат : AC-3
Формат/Информация : Audio Coding 3
Коммерческое название : Dolby Digital
Идентификатор кодека : A_AC3
Продолжительность : 1 ч. 58 мин.
Вид битрейта : Постоянный
Битрейт : 192 Кбит/сек
Канал(-ы) : 2 канала
Расположение каналов : L R
Частота дискретизации : 48,0 КГц
Частота кадров : 31,250 кадров/сек (1536 SPF)
Метод сжатия : С потерями
Размер потока : 163 Мбайт (1%)
Заголовок : DVO (НТВ)
Язык : Русский
Вид сервиса : Complete Main
По умолчанию : Нет
Принудительно : Нет
Нормализация звука речи : -31 dB
dialnorm_Average : -31 dB
dialnorm_Minimum : -31 dB
dialnorm_Maximum : -31 dB

Аудио #10
Идентификатор : 11
Формат : AC-3
Формат/Информация : Audio Coding 3
Коммерческое название : Dolby Digital
Идентификатор кодека : A_AC3
Продолжительность : 1 ч. 58 мин.
Вид битрейта : Постоянный
Битрейт : 192 Кбит/сек
Канал(-ы) : 2 канала
Расположение каналов : L R
Частота дискретизации : 48,0 КГц
Частота кадров : 31,250 кадров/сек (1536 SPF)
Метод сжатия : С потерями
Размер потока : 163 Мбайт (1%)
Заголовок : DVO (Лазер-видео)
Язык : Русский
Вид сервиса : Complete Main
По умолчанию : Нет
Принудительно : Нет
Нормализация звука речи : -31 dB
dialnorm_Average : -31 dB
dialnorm_Minimum : -31 dB
dialnorm_Maximum : -31 dB

Аудио #11
Идентификатор : 12
Формат : AC-3
Формат/Информация : Audio Coding 3
Коммерческое название : Dolby Digital
Идентификатор кодека : A_AC3
Продолжительность : 1 ч. 58 мин.
Вид битрейта : Постоянный
Битрейт : 192 Кбит/сек
Канал(-ы) : 2 канала
Расположение каналов : L R
Частота дискретизации : 48,0 КГц
Частота кадров : 31,250 кадров/сек (1536 SPF)
Метод сжатия : С потерями
Размер потока : 163 Мбайт (1%)
Заголовок : DVO (Союз-видео)
Язык : Русский
Вид сервиса : Complete Main
По умолчанию : Нет
Принудительно : Нет
Нормализация звука речи : -31 dB
dialnorm_Average : -31 dB
dialnorm_Minimum : -31 dB
dialnorm_Maximum : -31 dB

Аудио #12
Идентификатор : 13
Формат : AC-3
Формат/Информация : Audio Coding 3
Коммерческое название : Dolby Digital
Идентификатор кодека : A_AC3
Продолжительность : 1 ч. 58 мин.
Вид битрейта : Постоянный
Битрейт : 640 Кбит/сек
Канал(-ы) : 6 каналов
Расположение каналов : L R C LFE Ls Rs
Частота дискретизации : 48,0 КГц
Частота кадров : 31,250 кадров/сек (1536 SPF)
Метод сжатия : С потерями
Размер потока : 544 Мбайт (3%)
Заголовок : AVO (Юрий Живов)
Язык : Русский
Вид сервиса : Complete Main
По умолчанию : Нет
Принудительно : Нет
Нормализация звука речи : -27 dB
compr : -0.28 dB
cmixlev : -3.0 dB
surmixlev : -3 dB
mixlevel : 285 dB
roomtyp : Small
dialnorm_Average : -27 dB
dialnorm_Minimum : -27 dB
dialnorm_Maximum : -27 dB

Аудио #13
Идентификатор : 14
Формат : AC-3
Формат/Информация : Audio Coding 3
Коммерческое название : Dolby Digital
Идентификатор кодека : A_AC3
Продолжительность : 1 ч. 58 мин.
Вид битрейта : Постоянный
Битрейт : 640 Кбит/сек
Канал(-ы) : 6 каналов
Расположение каналов : L R C LFE Ls Rs
Частота дискретизации : 48,0 КГц
Частота кадров : 31,250 кадров/сек (1536 SPF)
Метод сжатия : С потерями
Размер потока : 544 Мбайт (3%)
Заголовок : AVO (Алексей Михалёв)
Язык : Русский
Вид сервиса : Complete Main
По умолчанию : Нет
Принудительно : Нет
Нормализация звука речи : -27 dB
compr : -0.28 dB
cmixlev : -3.0 dB
surmixlev : -3 dB
mixlevel : 285 dB
roomtyp : Small
dialnorm_Average : -27 dB
dialnorm_Minimum : -27 dB
dialnorm_Maximum : -27 dB

Аудио #14
Идентификатор : 15
Формат : AC-3
Формат/Информация : Audio Coding 3
Коммерческое название : Dolby Digital
Идентификатор кодека : A_AC3
Продолжительность : 1 ч. 58 мин.
Вид битрейта : Постоянный
Битрейт : 640 Кбит/сек
Канал(-ы) : 6 каналов
Расположение каналов : L R C LFE Ls Rs
Частота дискретизации : 48,0 КГц
Частота кадров : 31,250 кадров/сек (1536 SPF)
Метод сжатия : С потерями
Размер потока : 544 Мбайт (3%)
Заголовок : AVO (Юрий Сербин)
Язык : Русский
Вид сервиса : Complete Main
По умолчанию : Нет
Принудительно : Нет
Нормализация звука речи : -27 dB
compr : -0.28 dB
cmixlev : -3.0 dB
surmixlev : -3 dB
mixlevel : 285 dB
roomtyp : Small
dialnorm_Average : -27 dB
dialnorm_Minimum : -27 dB
dialnorm_Maximum : -27 dB

Аудио #15
Идентификатор : 16
Формат : AC-3
Формат/Информация : Audio Coding 3
Коммерческое название : Dolby Digital
Идентификатор кодека : A_AC3
Продолжительность : 1 ч. 58 мин.
Вид битрейта : Постоянный
Битрейт : 640 Кбит/сек
Канал(-ы) : 6 каналов
Расположение каналов : L R C LFE Ls Rs
Частота дискретизации : 48,0 КГц
Частота кадров : 31,250 кадров/сек (1536 SPF)
Метод сжатия : С потерями
Размер потока : 544 Мбайт (3%)
Заголовок : AVO (Григорий Либергал)
Язык : Русский
Вид сервиса : Complete Main
По умолчанию : Нет
Принудительно : Нет
Нормализация звука речи : -27 dB
compr : -0.28 dB
cmixlev : -3.0 dB
surmixlev : -3 dB
mixlevel : 285 dB
roomtyp : Small
dialnorm_Average : -27 dB
dialnorm_Minimum : -27 dB
dialnorm_Maximum : -27 dB

Аудио #16
Идентификатор : 17
Формат : AC-3
Формат/Информация : Audio Coding 3
Коммерческое название : Dolby Digital
Идентификатор кодека : A_AC3
Продолжительность : 1 ч. 58 мин.
Вид битрейта : Постоянный
Битрейт : 448 Кбит/сек
Канал(-ы) : 6 каналов
Расположение каналов : L R C LFE Ls Rs
Частота дискретизации : 48,0 КГц
Частота кадров : 31,250 кадров/сек (1536 SPF)
Метод сжатия : С потерями
Размер потока : 381 Мбайт (2%)
Заголовок : AVO (Андрей Гаврилов)
Язык : Русский
Вид сервиса : Complete Main
По умолчанию : Нет
Принудительно : Нет
Нормализация звука речи : -31 dB
cmixlev : -3.0 dB
surmixlev : -3 dB
dialnorm_Average : -31 dB
dialnorm_Minimum : -31 dB
dialnorm_Maximum : -31 dB

Аудио #17
Идентификатор : 18
Формат : AC-3
Формат/Информация : Audio Coding 3
Коммерческое название : Dolby Digital
Идентификатор кодека : A_AC3
Продолжительность : 1 ч. 58 мин.
Вид битрейта : Постоянный
Битрейт : 640 Кбит/сек
Канал(-ы) : 6 каналов
Расположение каналов : L R C LFE Ls Rs
Частота дискретизации : 48,0 КГц
Частота кадров : 31,250 кадров/сек (1536 SPF)
Метод сжатия : С потерями
Размер потока : 544 Мбайт (3%)
Заголовок : VO (Дмитрий Есарев)
Язык : Русский
Вид сервиса : Complete Main
По умолчанию : Нет
Принудительно : Нет
Нормализация звука речи : -27 dB
compr : -0.28 dB
cmixlev : -3.0 dB
surmixlev : -3 dB
mixlevel : 285 dB
roomtyp : Small
dialnorm_Average : -27 dB
dialnorm_Minimum : -27 dB
dialnorm_Maximum : -27 dB

Аудио #18
Идентификатор : 19
Формат : AC-3
Формат/Информация : Audio Coding 3
Коммерческое название : Dolby Digital
Идентификатор кодека : A_AC3
Продолжительность : 1 ч. 58 мин.
Вид битрейта : Постоянный
Битрейт : 384 Кбит/сек
Канал(-ы) : 6 каналов
Расположение каналов : L R C LFE Ls Rs
Частота дискретизации : 48,0 КГц
Частота кадров : 31,250 кадров/сек (1536 SPF)
Метод сжатия : С потерями
Размер потока : 326 Мбайт (2%)
Заголовок : VO (Евгений Гаевский)
Язык : Русский
Вид сервиса : Complete Main
По умолчанию : Нет
Принудительно : Нет
Нормализация звука речи : -31 dB
cmixlev : -4.5 dB
surmixlev : -6 dB
dialnorm_Average : -31 dB
dialnorm_Minimum : -31 dB
dialnorm_Maximum : -31 dB

Аудио #19
Идентификатор : 20
Формат : AC-3
Формат/Информация : Audio Coding 3
Коммерческое название : Dolby Digital
Идентификатор кодека : A_AC3
Продолжительность : 1 ч. 58 мин.
Вид битрейта : Постоянный
Битрейт : 192 Кбит/сек
Канал(-ы) : 2 канала
Расположение каналов : L R
Частота дискретизации : 48,0 КГц
Частота кадров : 31,250 кадров/сек (1536 SPF)
Метод сжатия : С потерями
Размер потока : 163 Мбайт (1%)
Заголовок : DUB (НЛО)
Язык : Украинский
Вид сервиса : Complete Main
По умолчанию : Нет
Принудительно : Нет
Нормализация звука речи : -31 dB
dialnorm_Average : -29 dB
dialnorm_Minimum : -31 dB
dialnorm_Maximum : -27 dB

Аудио #20
Идентификатор : 21
Формат : AC-3
Формат/Информация : Audio Coding 3
Коммерческое название : Dolby Digital
Идентификатор кодека : A_AC3
Продолжительность : 1 ч. 58 мин.
Вид битрейта : Постоянный
Битрейт : 192 Кбит/сек
Канал(-ы) : 2 канала
Расположение каналов : L R
Частота дискретизации : 48,0 КГц
Частота кадров : 31,250 кадров/сек (1536 SPF)
Метод сжатия : С потерями
Размер потока : 163 Мбайт (1%)
Заголовок : MVO (AMC)
Язык : Украинский
Вид сервиса : Complete Main
По умолчанию : Нет
Принудительно : Нет
Нормализация звука речи : -31 dB
dialnorm_Average : -29 dB
dialnorm_Minimum : -31 dB
dialnorm_Maximum : -27 dB

Аудио #21
Идентификатор : 22
Формат : AC-3
Формат/Информация : Audio Coding 3
Коммерческое название : Dolby Digital
Идентификатор кодека : A_AC3
Продолжительность : 1 ч. 58 мин.
Вид битрейта : Постоянный
Битрейт : 192 Кбит/сек
Канал(-ы) : 2 канала
Расположение каналов : L R
Частота дискретизации : 48,0 КГц
Частота кадров : 31,250 кадров/сек (1536 SPF)
Метод сжатия : С потерями
Размер потока : 163 Мбайт (1%)
Заголовок : DVO (1+1)
Язык : Украинский
Вид сервиса : Complete Main
По умолчанию : Нет
Принудительно : Нет
Нормализация звука речи : -27 dB
dialnorm_Average : -27 dB
dialnorm_Minimum : -27 dB
dialnorm_Maximum : -27 dB

Аудио #22
Идентификатор : 23
Формат : AC-3
Формат/Информация : Audio Coding 3
Коммерческое название : Dolby Digital
Идентификатор кодека : A_AC3
Продолжительность : 1 ч. 58 мин.
Вид битрейта : Постоянный
Битрейт : 640 Кбит/сек
Канал(-ы) : 6 каналов
Расположение каналов : L R C LFE Ls Rs
Частота дискретизации : 48,0 КГц
Частота кадров : 31,250 кадров/сек (1536 SPF)
Метод сжатия : С потерями
Размер потока : 544 Мбайт (3%)
Заголовок : Original 5.1 Upmix
Язык : Английский
Вид сервиса : Complete Main
По умолчанию : Нет
Принудительно : Нет
Нормализация звука речи : -27 dB
compr : -0.28 dB
cmixlev : -3.0 dB
surmixlev : -3 dB
mixlevel : 285 dB
roomtyp : Small
dialnorm_Average : -27 dB
dialnorm_Minimum : -27 dB
dialnorm_Maximum : -27 dB

Аудио #23
Идентификатор : 24
Формат : AC-3
Формат/Информация : Audio Coding 3
Коммерческое название : Dolby Digital
Идентификатор кодека : A_AC3
Продолжительность : 1 ч. 58 мин.
Вид битрейта : Постоянный
Битрейт : 640 Кбит/сек
Канал(-ы) : 2 канала
Расположение каналов : L R
Частота дискретизации : 48,0 КГц
Частота кадров : 31,250 кадров/сек (1536 SPF)
Метод сжатия : С потерями
Размер потока : 544 Мбайт (3%)
Заголовок : Original Stereo Mix
Язык : Английский
Вид сервиса : Complete Main
По умолчанию : Нет
Принудительно : Нет
Нормализация звука речи : -27 dB
compr : -0.28 dB
dynrng : -8.70 dB
dsurmod : Not Dolby Surround encoded
mixlevel : 285 dB
roomtyp : Small
dialnorm_Average : -27 dB
dialnorm_Minimum : -27 dB
dialnorm_Maximum : -27 dB

Текст #1
Идентификатор : 25
Формат : UTF-8
Идентификатор кодека : S_TEXT/UTF8
Идентификатор кодека/Информация : UTF-8 Plain Text
Продолжительность : 1 ч. 49 мин.
Битрейт : 0 бит/сек
Частота кадров : 0,001 кадр/сек
Число элементов : 6
Размер потока : 371 байт (0%)
Заголовок : Forced
Язык : Русский
По умолчанию : Да
Принудительно : Нет

Текст #2
Идентификатор : 26
Формат : UTF-8
Идентификатор кодека : S_TEXT/UTF8
Идентификатор кодека/Информация : UTF-8 Plain Text
Продолжительность : 1 ч. 52 мин.
Битрейт : 89 бит/сек
Частота кадров : 0,192 кадр/сек
Число элементов : 1293
Размер потока : 73,8 КиБ (0%)
Заголовок : Full [BD]
Язык : Русский
По умолчанию : Нет
Принудительно : Нет

Текст #3
Идентификатор : 27
Формат : UTF-8
Идентификатор кодека : S_TEXT/UTF8
Идентификатор кодека/Информация : UTF-8 Plain Text
Продолжительность : 1 ч. 52 мин.
Битрейт : 81 бит/сек
Частота кадров : 0,164 кадр/сек
Число элементов : 1114
Размер потока : 67,4 КиБ (0%)
Заголовок : Full [R5]
Язык : Русский
По умолчанию : Нет
Принудительно : Нет

Текст #4
Идентификатор : 28
Формат : UTF-8
Идентификатор кодека : S_TEXT/UTF8
Идентификатор кодека/Информация : UTF-8 Plain Text
Продолжительность : 1 ч. 50 мин.
Битрейт : 86 бит/сек
Частота кадров : 0,144 кадр/сек
Число элементов : 952
Размер потока : 69,5 КиБ (0%)
Заголовок : Full [Киномания]
Язык : Русский
По умолчанию : Нет
Принудительно : Нет

Текст #5
Идентификатор : 29
Формат : UTF-8
Идентификатор кодека : S_TEXT/UTF8
Идентификатор кодека/Информация : UTF-8 Plain Text
Продолжительность : 1 ч. 50 мин.
Битрейт : 73 бит/сек
Частота кадров : 0,166 кадр/сек
Число элементов : 1097
Размер потока : 59,2 КиБ (0%)
Заголовок : Full [Tycoon]
Язык : Русский
По умолчанию : Нет
Принудительно : Нет

Текст #6
Идентификатор : 30
Формат : UTF-8
Идентификатор кодека : S_TEXT/UTF8
Идентификатор кодека/Информация : UTF-8 Plain Text
Продолжительность : 1 ч. 52 мин.
Битрейт : 88 бит/сек
Частота кадров : 0,205 кадр/сек
Число элементов : 1383
Размер потока : 72,6 КиБ (0%)
Заголовок : Full [Jaskier]
Язык : Русский
По умолчанию : Нет
Принудительно : Нет

Текст #7
Идентификатор : 31
Формат : UTF-8
Идентификатор кодека : S_TEXT/UTF8
Идентификатор кодека/Информация : UTF-8 Plain Text
Продолжительность : 1 ч. 52 мин.
Битрейт : 81 бит/сек
Частота кадров : 0,165 кадр/сек
Число элементов : 1115
Размер потока : 67,5 КиБ (0%)
Заголовок : Full
Язык : Украинский
По умолчанию : Нет
Принудительно : Нет

Текст #8
Идентификатор : 32
Формат : UTF-8
Идентификатор кодека : S_TEXT/UTF8
Идентификатор кодека/Информация : UTF-8 Plain Text
Продолжительность : 1 ч. 50 мин.
Битрейт : 54 бит/сек
Частота кадров : 0,191 кадр/сек
Число элементов : 1264
Размер потока : 44,1 КиБ (0%)
Заголовок : Full
Язык : Английский
По умолчанию : Нет
Принудительно : Нет

Текст #9
Идентификатор : 33
Формат : UTF-8
Идентификатор кодека : S_TEXT/UTF8
Идентификатор кодека/Информация : UTF-8 Plain Text
Продолжительность : 1 ч. 52 мин.
Битрейт : 62 бит/сек
Частота кадров : 0,219 кадр/сек
Число элементов : 1475
Размер потока : 51,1 КиБ (0%)
Заголовок : SDH
Язык : Английский
По умолчанию : Нет
Принудительно : Нет

Меню
00:00:00.000 : en:Logo/Main Title/Intro
00:05:32.274 : en:An Interesting Errand
00:08:30.411 : en:Don't Touch The Glass
00:12:02.583 : en:"Closer!"
00:21:55.340 : en:Your Self
00:27:14.826 : en:Hannibal's Helping Head
00:31:54.480 : en:Help From A Size 14
00:35:15.848 : en:Girl From The River
00:38:55.317 : en:A Little Privacy
00:41:30.389 : en:Signs Of Bill
00:46:56.965 : en:Moth Men
00:49:59.981 : en:A Senator's Plea
00:51:51.718 : en:Quid Pro Quo
00:58:01.337 : en:Lotion In The Basket
00:59:46.233 : en:A Deal For Dr. Chilton
01:01:25.875 : en:Muzzled For The Senator
01:06:13.120 : en:The Screaming Lambs
01:14:30.200 : en:His Second Meal
01:18:40.158 : en:"Lecter's Missing!"
01:21:27.617 : en:Pembry's Ambulance
01:25:24.437 : en:What Do We Covet?
01:27:32.022 : en:The Tailor You Know
01:33:32.674 : en:A Treat For Precious
01:36:57.045 : en:"Sewing Was Her Life"
01:37:50.724 : en:A Raid In Illinois
01:40:13.116 : en:Mrs. Lippman's House
01:43:33.483 : en:Sniper In The Dark
01:51:18.364 : en:Dinner Date/Credits
Загрузка...Cкриншот1 Молчание ягнят / The Silence of the Lambs (1990) [4k Remastered | The Criterion Collection] BDRip 1080p [HEVC] 10 bit от OldGamerЗагрузка...Cкриншот2 Молчание ягнят / The Silence of the Lambs (1990) [4k Remastered | The Criterion Collection] BDRip 1080p [HEVC] 10 bit от OldGamerЗагрузка...Cкриншот3 Молчание ягнят / The Silence of the Lambs (1990) [4k Remastered | The Criterion Collection] BDRip 1080p [HEVC] 10 bit от OldGamerЗагрузка...Cкриншот4 Молчание ягнят / The Silence of the Lambs (1990) [4k Remastered | The Criterion Collection] BDRip 1080p [HEVC] 10 bit от OldGamer
5. Ганнибал / Hannibal (2001) [4k Remastered | Kino Lorber] BDRip 1080p [HEVC] 10 bit от OldGamer
Обложка Ганнибал / Hannibal (2001) [4k Remastered | Kino Lorber] BDRip 1080p [HEVC] 10 bit от OldGamer
HEVC
10 bit
✂︎Сэмпл
Год: 2001
Страна: США, Великобритания, Италия
Студия: Dino De Laurentiis Productions, Metro-Goldwyn-Mayer (MGM), Scott Free Productions, Universal Pictures
Жанр: Триллер, Драма, Криминал, Детектив
Длительность: 02:11:34

Режиссер: Ридли Скотт
В ролях: Энтони Хопкинс, Джулианна Мур, Гари Олдман, Рэй Лиотта, Джанкарло Джаннини, Фрэнки Фэйзон, Франческа Нери, Желько Иванек, Хазелль Гудман, Дэвид Эндрюс

Описание: После десяти лет молчания Ганнибал Лектер пишет письмо агенту ФБР Клариссе Старлинг, предлагая ей возобновить их прервавшуюся интеллектуальную дуэль. С помощью миллионера Мейсона Верджера, ставшего очередной жертвой безумного доктора и мечтающего теперь скормить Лектера стае прожорливых кабанов, Кларисса выходит на след неуловимого маньяка и вскоре узнаёт, что за ним уже охотится инспектор флорентийской полиции Ринальдо Пацци.


Исходник: Blu-Ray Remux 1080p (rutracker)
Видео: 1920x1040, ~9730 Kbps
Аудио1: AC3, 6 ch, 448 Kbps - РусскийРусский, DUB (Мосфильм, специальное издание от Pyramid HV 2хDVD9)
Аудио2: E-AC3, 6 ch, 640 Kbps - РусскийРусский, DUB (Netflix / ТВ3)
Аудио3: AC3, 6 ch, 640 Kbps - РусскийРусский, DVO (CDV)
Аудио4: AC3, 6 ch, 640 Kbps - РусскийРусский, DVO (Пётр Гланц и Инна Королёва)
Аудио5: AC3, 2 ch, 192 Kbps - РусскийРусский, DVO (РЕН-ТВ)
Аудио6: AC3, 2 ch, 192 Kbps - РусскийРусский, DVO (ТВЦ)
Аудио7: AC3, 2 ch, 192 Kbps - РусскийРусский, DVO (SDI Media Latvia)
Аудио8: AC3, 6 ch, 640 Kbps - РусскийРусский, AVO (Андрей Гаврилов)
Аудио9: AC3, 6 ch, 640 Kbps - РусскийРусский, AVO (Сергей Визгунов)
Аудио10: AC3, 6 ch, 640 Kbps - РусскийРусский, VO (Дмитрий Есарев)
Аудио11: AC3, 2 ch, 192 Kbps - УкраинскийУкраинский, MVO (НЛО / ТРК Україна)
Аудио12: AC3, 2 ch, 192 Kbps - УкраинскийУкраинский, MVO (Iнтер)
Аудио13: AC3, 2 ch, 192 Kbps - УкраинскийУкраинский, MVO [ICTV / НТН]
Аудио14: AC3, 6 ch, 640 Kbps - АнглийскийАнглийский (BD Universal Home Entertainment)
Субтитры: русские, украинские (full, forced), английские (SDH)

Как за несколько секунд удалить ненужные аудиодорожки и субтитры (Внимание! После удаления вы не сможете поддержать раздачу)


Лог (x265 info)x265 [info]: frame I: 799, Avg QP:18.31 kb/s: 22981.21
x265 [info]: frame P: 35688, Avg QP:19.67 kb/s: 15954.19
x265 [info]: frame B: 152783, Avg QP:21.32 kb/s: 8206.20
x265 [info]: Weighted P-Frames: Y:6.6% UV:5.8%
x265 [info]: Weighted B-Frames: Y:6.2% UV:5.1%
x265 [info]: encoded 189270 frames in 165946.72s (1.14 fps), 9729.51 kb/s, Avg QP:20.99
МедиаинфоОбщее
Уникальный идентификатор : 111493792904247566623189922969684609702 (0x53E0EC6659FBE9A0E51877DF6FD90AA6)
Полное имя : \\.\Hannibal\05.Ганнибал.Hannibal.2001.4k.Remastered.Kino.Lorber.BDRip-HEVC.1080p.mkv
Формат : Matroska
Версия формата : Version 4
Размер файла : 14,5 Гбайт
Продолжительность : 2 ч. 11 мин.
Общий битрейт : 15,8 Мбит/сек
Частота кадров : 23,976 кадра/сек
Название фильма : Ганнибал / Ганнибал
Кодирование выполнил : OldGamer
Тип содержимого : Movie
Описание : «May the silence be broken!»
Дата выпуска : 2001-02-08
Дата записи : 2001-02-08
Программа кодирования : mkvmerge v83.0 ('Circle Of Friends') 64-bit
Библиотека кодирования : libebml v1.4.5 + libmatroska v1.7.1 / xvid4psp5
Обложка : Yes
Attachments : cover.jpg
ACTOR : Энтони Хопкинс, Джулианна Мур, Гэри Олдман, Ray Liotta, Джанкарло Джаннини, Zeljko Ivanek, Frankie Faison, Francesca Neri, Hazelle Goodman, Дэвид Эндрюс, Francis Guinan, James Opher, Enrico Lo Verso, Ivano Marescotti, Fabrizio Gifuni, Alex Corrado, M...
ARTIST : Энтони Хопкинс, Джулианна Мур, Гэри Олдман, Ray Liotta, Джанкарло Джаннини, Zeljko Ivanek, Frankie Faison, Francesca Neri, Hazelle Goodman, Дэвид Эндрюс, Francis Guinan, James Opher, Enrico Lo Verso, Ivano Marescotti, Fabrizio Gifuni, Alex Corrado, M...
DIRECTOR : Ридли Скотт
GENRE : криминал, драма, триллер
LAW_RATING : R
PRODUCER : Martha De Laurentiis, Ридли Скотт, Dino De Laurentiis
PRODUCTION_STUDIO : Metro-Goldwyn-Mayer
RATING : R
SCREENPLAY_BY : David Mamet, Стивен Заиллян
SUMMARY : «May the silence be broken!»
SYNOPSIS : По прошествии десяти лет тревожного молчания гениальный Ганнибал Лектер пишет письмо агенту ФБР Кларисе Старлинг, предлагая ей возобновить их прервавшуюся интеллектуальную дуэль.С помощью миллионера Мейсона Верджера, ставшего очередной жертвой безумного доктора и мечтающего теперь скормить Лектера стае прожорливых кабанов, Клариса выходит на след неуловимого маньяка и вскоре узнает о том, что за ним уже охотится инспектор венецианской полиции Риналдо Пацци, рассчитывающий получить за его поимку щедрое вознаграждение.
WRITTEN_BY : David Mamet, Стивен Заиллян

Видео
Идентификатор : 1
Формат : HEVC
Формат/Информация : High Efficiency Video Coding
Профиль формата : Main 10@L4.1@High
Идентификатор кодека : V_MPEGH/ISO/HEVC
Продолжительность : 2 ч. 11 мин.
Битрейт : 9 730 Кбит/сек
Ширина : 1 920 пикселей
Высота : 1 040 пикселей
Соотношение сторон дисплея : 1,85:1
Режим частоты кадров : Постоянный
Частота кадров : 23,976 (24000/1001) кадра/сек
Цветовое пространство : YUV
Цветовая субдискретизация : 4:2:0
Битовая глубина : 10 бит
Бит/(Пиксели*Кадры) : 0.203
Размер потока : 8,94 Гбайт (62%)
Заголовок : Hannibal / Rip by OldGamer
Библиотека кодирования : x265 3.5+110-8ee01d45b:[Windows][GCC 13.2.0][64 bit] 10bit
Параметры библиотеки кодирования : cpuid=1111039 / frame-threads=3 / numa-pools=8 / wpp / no-pmode / no-pme / no-psnr / no-ssim / log-level=2 / input-csp=1 / input-res=1920x1040 / interlace=0 / total-frames=189270 / level-idc=41 / high-tier=1 / uhd-bd=0 / ref=5 / no-allow-non-conformance / no-repeat-headers / annexb / no-aud / no-eob / no-eos / no-hrd / info / hash=0 / temporal-layers=0 / open-gop / min-keyint=23 / keyint=240 / gop-lookahead=0 / bframes=16 / b-adapt=2 / b-pyramid / bframe-bias=0 / rc-lookahead=60 / lookahead-slices=0 / scenecut=40 / no-hist-scenecut / radl=0 / no-splice / no-intra-refresh / ctu=32 / min-cu-size=8 / rect / amp / max-tu-size=32 / tu-inter-depth=4 / tu-intra-depth=4 / limit-tu=1 / rdoq-level=2 / dynamic-rd=0.00 / no-ssim-rd / signhide / no-tskip / nr-intra=0 / nr-inter=0 / no-constrained-intra / no-strong-intra-smoothing / max-merge=5 / limit-refs=3 / no-limit-modes / me=3 / subme=7 / merange=57 / temporal-mvp / no-frame-dup / no-hme / weightp / weightb / no-analyze-src-pics / deblock=-2:-2 / no-sao / no-sao-non-deblock / rd=6 / selective-sao=0 / no-early-skip / no-rskip / no-fast-intra / no-tskip-fast / no-cu-lossless / b-intra / no-splitrd-skip / rdpenalty=0 / psy-rd=2.00 / psy-rdoq=1.00 / no-rd-refine / no-lossless / cbqpoffs=0 / crqpoffs=0 / rc=crf / crf=20.4 / qcomp=0.60 / qpstep=4 / stats-write=0 / stats-read=0 / vbv-maxrate=50000 / vbv-bufsize=50000 / vbv-init=0.9 / min-vbv-fullness=50.0 / max-vbv-fullness=80.0 / crf-max=0.0 / crf-min=0.0 / ipratio=1.40 / pbratio=1.30 / aq-mode=1 / aq-strength=1.00 / no-cutree / zone-count=1 / zones: / start-frame=182857 / end-frame=189270 / qp=36 / no-strict-cbr / qg-size=32 / no-rc-grain / qpmax=69 / qpmin=0 / no-const-vbv / sar=1 / overscan=0 / videoformat=5 / range=0 / colorprim=2 / transfer=2 / colormatrix=2 / chromaloc=0 / display-window=0 / cll=0,0 / min-luma=0 / max-luma=1023 / log2-max-poc-lsb=8 / vui-timing-info / vui-hrd-info / slices=1 / no-opt-qp-pps / no-opt-ref-list-length-pps / no-multi-pass-opt-rps / scenecut-bias=0.00 / no-opt-cu-delta-qp / no-aq-motion / no-hdr10 / no-hdr10-opt / no-dhdr10-opt / no-idr-recovery-sei / analysis-reuse-level=0 / analysis-save-reuse-level=0 / analysis-load-reuse-level=0 / scale-factor=0 / refine-intra=0 / refine-inter=0 / refine-mv=1 / refine-ctu-distortion=0 / no-limit-sao / ctu-info=0 / no-lowpass-dct / refine-analysis-type=0 / copy-pic=1 / max-ausize-factor=1.0 / no-dynamic-refine / no-single-sei / no-hevc-aq / no-svt / no-field / qp-adaptation-range=1.00 / scenecut-aware-qp=0conformance-window-offsets / right=0 / bottom=0 / decoder-max-rate=0 / no-vbv-live-multi-pass / no-mcstf / no-sbrc
Язык : Английский
По умолчанию : Да
Принудительно : Нет

Аудио #1
Идентификатор : 2
Формат : AC-3
Формат/Информация : Audio Coding 3
Коммерческое название : Dolby Digital
Идентификатор кодека : A_AC3
Продолжительность : 2 ч. 11 мин.
Вид битрейта : Постоянный
Битрейт : 448 Кбит/сек
Канал(-ы) : 6 каналов
Расположение каналов : L R C LFE Ls Rs
Частота дискретизации : 48,0 КГц
Частота кадров : 31,250 кадров/сек (1536 SPF)
Метод сжатия : С потерями
Размер потока : 421 Мбайт (3%)
Заголовок : DUB (Мосфильм / DVD R5)
Язык : Русский
Вид сервиса : Complete Main
По умолчанию : Да
Принудительно : Нет
Нормализация звука речи : -31 dB
compr : -0.28 dB
cmixlev : -3.0 dB
surmixlev : -3 dB
dmixmod : Lo/Ro
ltrtcmixlev : -3.0 dB
ltrtsurmixlev : -3.0 dB
lorocmixlev : -3.0 dB
lorosurmixlev : -3.0 dB
dialnorm_Average : -31 dB
dialnorm_Minimum : -31 dB
dialnorm_Maximum : -31 dB

Аудио #2
Идентификатор : 3
Формат : E-AC-3
Формат/Информация : Enhanced AC-3
Коммерческое название : Dolby Digital Plus
Идентификатор кодека : A_EAC3
Продолжительность : 2 ч. 11 мин.
Вид битрейта : Постоянный
Битрейт : 640 Кбит/сек
Канал(-ы) : 6 каналов
Расположение каналов : L R C LFE Ls Rs
Частота дискретизации : 48,0 КГц
Частота кадров : 31,250 кадров/сек (1536 SPF)
Метод сжатия : С потерями
Размер потока : 602 Мбайт (4%)
Заголовок : DUB (Netflix / ТВ3)
Язык : Русский
Вид сервиса : Complete Main
По умолчанию : Нет
Принудительно : Нет
Нормализация звука речи : -31 dB
compr : -0.28 dB
dialnorm_Average : -31 dB
dialnorm_Minimum : -31 dB
dialnorm_Maximum : -31 dB

Аудио #3
Идентификатор : 4
Формат : AC-3
Формат/Информация : Audio Coding 3
Коммерческое название : Dolby Digital
Идентификатор кодека : A_AC3
Продолжительность : 2 ч. 11 мин.
Вид битрейта : Постоянный
Битрейт : 640 Кбит/сек
Канал(-ы) : 6 каналов
Расположение каналов : L R C LFE Ls Rs
Частота дискретизации : 48,0 КГц
Частота кадров : 31,250 кадров/сек (1536 SPF)
Метод сжатия : С потерями
Размер потока : 601 Мбайт (4%)
Заголовок : DVO (CDV)
Язык : Русский
Вид сервиса : Complete Main
По умолчанию : Нет
Принудительно : Нет
Нормализация звука речи : -27 dB
compr : -0.28 dB
cmixlev : -3.0 dB
surmixlev : -3 dB
mixlevel : 285 dB
roomtyp : Small
dialnorm_Average : -27 dB
dialnorm_Minimum : -27 dB
dialnorm_Maximum : -27 dB

Аудио #4
Идентификатор : 5
Формат : AC-3
Формат/Информация : Audio Coding 3
Коммерческое название : Dolby Digital
Идентификатор кодека : A_AC3
Продолжительность : 2 ч. 11 мин.
Вид битрейта : Постоянный
Битрейт : 640 Кбит/сек
Канал(-ы) : 6 каналов
Расположение каналов : L R C LFE Ls Rs
Частота дискретизации : 48,0 КГц
Частота кадров : 31,250 кадров/сек (1536 SPF)
Метод сжатия : С потерями
Размер потока : 601 Мбайт (4%)
Заголовок : DVO (Пётр Гланц и Инна Королёва)
Язык : Русский
Вид сервиса : Complete Main
По умолчанию : Нет
Принудительно : Нет
Нормализация звука речи : -27 dB
compr : -0.28 dB
cmixlev : -3.0 dB
surmixlev : -3 dB
mixlevel : 285 dB
roomtyp : Small
dialnorm_Average : -27 dB
dialnorm_Minimum : -27 dB
dialnorm_Maximum : -27 dB

Аудио #5
Идентификатор : 6
Формат : AC-3
Формат/Информация : Audio Coding 3
Коммерческое название : Dolby Digital
Идентификатор кодека : A_AC3
Продолжительность : 2 ч. 11 мин.
Вид битрейта : Постоянный
Битрейт : 192 Кбит/сек
Канал(-ы) : 2 канала
Расположение каналов : L R
Частота дискретизации : 48,0 КГц
Частота кадров : 31,250 кадров/сек (1536 SPF)
Метод сжатия : С потерями
Размер потока : 180 Мбайт (1%)
Заголовок : DVO (РЕН-ТВ)
Язык : Русский
Вид сервиса : Complete Main
По умолчанию : Нет
Принудительно : Нет
Нормализация звука речи : -27 dB
compr : 2.36 dB
dynrng : 1.02 dB
dialnorm_Average : -27 dB
dialnorm_Minimum : -27 dB
dialnorm_Maximum : -27 dB

Аудио #6
Идентификатор : 7
Формат : AC-3
Формат/Информация : Audio Coding 3
Коммерческое название : Dolby Digital
Идентификатор кодека : A_AC3
Продолжительность : 2 ч. 11 мин.
Вид битрейта : Постоянный
Битрейт : 192 Кбит/сек
Канал(-ы) : 2 канала
Расположение каналов : L R
Частота дискретизации : 48,0 КГц
Частота кадров : 31,250 кадров/сек (1536 SPF)
Метод сжатия : С потерями
Размер потока : 180 Мбайт (1%)
Заголовок : DVO (ТВЦ)
Язык : Русский
Вид сервиса : Complete Main
По умолчанию : Нет
Принудительно : Нет
Нормализация звука речи : -31 dB
compr : -0.28 dB
ltrtcmixlev : -3.0 dB
ltrtsurmixlev : -3.0 dB
lorocmixlev : -3.0 dB
lorosurmixlev : -3.0 dB
dialnorm_Average : -31 dB
dialnorm_Minimum : -31 dB
dialnorm_Maximum : -31 dB

Аудио #7
Идентификатор : 8
Формат : AC-3
Формат/Информация : Audio Coding 3
Коммерческое название : Dolby Digital
Идентификатор кодека : A_AC3
Продолжительность : 2 ч. 11 мин.
Вид битрейта : Постоянный
Битрейт : 192 Кбит/сек
Канал(-ы) : 2 канала
Расположение каналов : L R
Частота дискретизации : 48,0 КГц
Частота кадров : 31,250 кадров/сек (1536 SPF)
Метод сжатия : С потерями
Размер потока : 180 Мбайт (1%)
Заголовок : DVO (SDI Media Latvia)
Язык : Русский
Вид сервиса : Complete Main
По умолчанию : Нет
Принудительно : Нет
Нормализация звука речи : -31 dB
compr : -0.28 dB
ltrtcmixlev : -3.0 dB
ltrtsurmixlev : -3.0 dB
lorocmixlev : -3.0 dB
lorosurmixlev : -3.0 dB
dialnorm_Average : -31 dB
dialnorm_Minimum : -31 dB
dialnorm_Maximum : -31 dB

Аудио #8
Идентификатор : 9
Формат : AC-3
Формат/Информация : Audio Coding 3
Коммерческое название : Dolby Digital
Идентификатор кодека : A_AC3
Продолжительность : 2 ч. 11 мин.
Вид битрейта : Постоянный
Битрейт : 640 Кбит/сек
Канал(-ы) : 6 каналов
Расположение каналов : L R C LFE Ls Rs
Частота дискретизации : 48,0 КГц
Частота кадров : 31,250 кадров/сек (1536 SPF)
Метод сжатия : С потерями
Размер потока : 601 Мбайт (4%)
Заголовок : AVO (Андрей Гаврилов)
Язык : Русский
Вид сервиса : Complete Main
По умолчанию : Нет
Принудительно : Нет
Нормализация звука речи : -27 dB
compr : -0.28 dB
cmixlev : -3.0 dB
surmixlev : -3 dB
mixlevel : 285 dB
roomtyp : Small
dialnorm_Average : -27 dB
dialnorm_Minimum : -27 dB
dialnorm_Maximum : -27 dB

Аудио #9
Идентификатор : 10
Формат : AC-3
Формат/Информация : Audio Coding 3
Коммерческое название : Dolby Digital
Идентификатор кодека : A_AC3
Продолжительность : 2 ч. 11 мин.
Вид битрейта : Постоянный
Битрейт : 640 Кбит/сек
Канал(-ы) : 6 каналов
Расположение каналов : L R C LFE Ls Rs
Частота дискретизации : 48,0 КГц
Частота кадров : 31,250 кадров/сек (1536 SPF)
Метод сжатия : С потерями
Размер потока : 601 Мбайт (4%)
Заголовок : AVO (Сергей Визгунов)
Язык : Русский
Вид сервиса : Complete Main
По умолчанию : Нет
Принудительно : Нет
Нормализация звука речи : -27 dB
compr : -0.28 dB
cmixlev : -3.0 dB
surmixlev : -3 dB
mixlevel : 285 dB
roomtyp : Small
dialnorm_Average : -27 dB
dialnorm_Minimum : -27 dB
dialnorm_Maximum : -27 dB

Аудио #10
Идентификатор : 11
Формат : AC-3
Формат/Информация : Audio Coding 3
Коммерческое название : Dolby Digital
Идентификатор кодека : A_AC3
Продолжительность : 2 ч. 11 мин.
Вид битрейта : Постоянный
Битрейт : 640 Кбит/сек
Канал(-ы) : 6 каналов
Расположение каналов : L R C LFE Ls Rs
Частота дискретизации : 48,0 КГц
Частота кадров : 31,250 кадров/сек (1536 SPF)
Метод сжатия : С потерями
Размер потока : 601 Мбайт (4%)
Заголовок : VO (Дмитрий Есарев)
Язык : Русский
Вид сервиса : Complete Main
По умолчанию : Нет
Принудительно : Нет
Нормализация звука речи : -27 dB
compr : -0.28 dB
cmixlev : -3.0 dB
surmixlev : -3 dB
mixlevel : 285 dB
roomtyp : Small
dialnorm_Average : -27 dB
dialnorm_Minimum : -27 dB
dialnorm_Maximum : -27 dB

Аудио #11
Идентификатор : 12
Формат : AC-3
Формат/Информация : Audio Coding 3
Коммерческое название : Dolby Digital
Идентификатор кодека : A_AC3
Продолжительность : 2 ч. 11 мин.
Вид битрейта : Постоянный
Битрейт : 192 Кбит/сек
Канал(-ы) : 2 канала
Расположение каналов : L R
Частота дискретизации : 48,0 КГц
Частота кадров : 31,250 кадров/сек (1536 SPF)
Метод сжатия : С потерями
Размер потока : 180 Мбайт (1%)
Заголовок : MVO (НЛО / ТРК Україна)
Язык : Украинский
Вид сервиса : Complete Main
По умолчанию : Нет
Принудительно : Нет
Нормализация звука речи : -31 dB
compr : -0.28 dB
ltrtcmixlev : -3.0 dB
ltrtsurmixlev : -3.0 dB
lorocmixlev : -3.0 dB
lorosurmixlev : -3.0 dB
dialnorm_Average : -31 dB
dialnorm_Minimum : -31 dB
dialnorm_Maximum : -31 dB

Аудио #12
Идентификатор : 13
Формат : AC-3
Формат/Информация : Audio Coding 3
Коммерческое название : Dolby Digital
Идентификатор кодека : A_AC3
Продолжительность : 2 ч. 11 мин.
Вид битрейта : Постоянный
Битрейт : 192 Кбит/сек
Канал(-ы) : 2 канала
Расположение каналов : L R
Частота дискретизации : 48,0 КГц
Частота кадров : 31,250 кадров/сек (1536 SPF)
Метод сжатия : С потерями
Размер потока : 180 Мбайт (1%)
Заголовок : MVO (Iнтер)
Язык : Украинский
Вид сервиса : Complete Main
По умолчанию : Нет
Принудительно : Нет
Нормализация звука речи : -31 dB
compr : -0.28 dB
ltrtcmixlev : -3.0 dB
ltrtsurmixlev : -3.0 dB
lorocmixlev : -3.0 dB
lorosurmixlev : -3.0 dB
dialnorm_Average : -31 dB
dialnorm_Minimum : -31 dB
dialnorm_Maximum : -31 dB

Аудио #13
Идентификатор : 14
Формат : AC-3
Формат/Информация : Audio Coding 3
Коммерческое название : Dolby Digital
Идентификатор кодека : A_AC3
Продолжительность : 2 ч. 11 мин.
Вид битрейта : Постоянный
Битрейт : 192 Кбит/сек
Канал(-ы) : 2 канала
Расположение каналов : L R
Частота дискретизации : 48,0 КГц
Частота кадров : 31,250 кадров/сек (1536 SPF)
Метод сжатия : С потерями
Размер потока : 180 Мбайт (1%)
Заголовок : MVO [ICTV / НТН]
Язык : Украинский
Вид сервиса : Complete Main
По умолчанию : Нет
Принудительно : Нет
Нормализация звука речи : -31 dB
compr : -0.28 dB
ltrtcmixlev : -3.0 dB
ltrtsurmixlev : -3.0 dB
lorocmixlev : -3.0 dB
lorosurmixlev : -3.0 dB
dialnorm_Average : -31 dB
dialnorm_Minimum : -31 dB
dialnorm_Maximum : -31 dB

Аудио #14
Идентификатор : 15
Формат : AC-3
Формат/Информация : Audio Coding 3
Коммерческое название : Dolby Digital
Идентификатор кодека : A_AC3
Продолжительность : 2 ч. 11 мин.
Вид битрейта : Постоянный
Битрейт : 640 Кбит/сек
Канал(-ы) : 6 каналов
Расположение каналов : L R C LFE Ls Rs
Частота дискретизации : 48,0 КГц
Частота кадров : 31,250 кадров/сек (1536 SPF)
Метод сжатия : С потерями
Размер потока : 601 Мбайт (4%)
Заголовок : Original (BD Universal Home Entertainment)
Язык : Английский
Вид сервиса : Complete Main
По умолчанию : Нет
Принудительно : Нет
Нормализация звука речи : -27 dB
compr : -0.28 dB
cmixlev : -3.0 dB
surmixlev : -3 dB
mixlevel : 285 dB
roomtyp : Small
dialnorm_Average : -27 dB
dialnorm_Minimum : -27 dB
dialnorm_Maximum : -27 dB

Текст #1
Идентификатор : 16
Формат : UTF-8
Идентификатор кодека : S_TEXT/UTF8
Идентификатор кодека/Информация : UTF-8 Plain Text
Продолжительность : 2 ч. 10 мин.
Битрейт : 94 бит/сек
Частота кадров : 0,189 кадр/сек
Число элементов : 1480
Размер потока : 90,5 КиБ (0%)
Заголовок : Full (R5)
Язык : Русский
По умолчанию : Нет
Принудительно : Нет

Текст #2
Идентификатор : 17
Формат : UTF-8
Идентификатор кодека : S_TEXT/UTF8
Идентификатор кодека/Информация : UTF-8 Plain Text
Продолжительность : 2 ч. 1 мин.
Битрейт : 2 бит/сек
Частота кадров : 0,007 кадр/сек
Число элементов : 54
Размер потока : 2,52 КиБ (0%)
Заголовок : Forced
Язык : Украинский
По умолчанию : Нет
Принудительно : Нет

Текст #3
Идентификатор : 18
Формат : UTF-8
Идентификатор кодека : S_TEXT/UTF8
Идентификатор кодека/Информация : UTF-8 Plain Text
Продолжительность : 2 ч. 10 мин.
Битрейт : 90 бит/сек
Частота кадров : 0,197 кадр/сек
Число элементов : 1542
Размер потока : 86,6 КиБ (0%)
Заголовок : Full (Netflix)
Язык : Украинский
По умолчанию : Нет
Принудительно : Нет

Текст #4
Идентификатор : 19
Формат : UTF-8
Идентификатор кодека : S_TEXT/UTF8
Идентификатор кодека/Информация : UTF-8 Plain Text
Продолжительность : 2 ч. 10 мин.
Битрейт : 53 бит/сек
Частота кадров : 0,177 кадр/сек
Число элементов : 1387
Размер потока : 51,5 КиБ (0%)
Заголовок : Full
Язык : Английский
По умолчанию : Нет
Принудительно : Нет

Текст #5
Идентификатор : 20
Формат : UTF-8
Идентификатор кодека : S_TEXT/UTF8
Идентификатор кодека/Информация : UTF-8 Plain Text
Продолжительность : 2 ч. 10 мин.
Битрейт : 58 бит/сек
Частота кадров : 0,185 кадр/сек
Число элементов : 1451
Размер потока : 56,2 КиБ (0%)
Заголовок : SDH
Язык : Английский
По умолчанию : Нет
Принудительно : Нет

Меню
00:00:00.000 : en:Barney's Observations
00:03:00.065 : en:Main Titles
00:05:05.190 : en:The Fish Market
00:10:40.651 : en:An Ugly Mess
00:14:03.520 : en:A Good Deal
00:16:51.438 : en:Mason Verger
00:22:53.966 : en:Hannibal the Cannibal
00:24:16.924 : en:Catching Up with Barney
00:28:56.912 : en:Dr. Fell
00:36:06.508 : en:Tracing Lecter's Scent
00:38:34.406 : en:Pazzi on the Case
00:43:38.126 : en:Krendler's Terms
00:47:29.816 : en:Possibly Illegal Action
00:50:34.000 : en:Family History
00:54:40.621 : en:Fingerprints
00:59:48.596 : en:Verger's Boys
01:02:30.883 : en:La Vita Nuova
01:06:41.675 : en:Lecter Found
01:10:14.512 : en:The Price of Avarice
01:15:33.540 : en:Pazzi's Destiny
01:21:40.698 : en:Starling in Distress
01:26:44.168 : en:Shopping Spree
01:30:13.252 : en:Deep Roller
01:33:45.964 : en:Cat and Mouse
01:39:02.405 : en:A Kidnapping
01:42:24.816 : en:Face to Face
01:45:58.237 : en:The Main Attraction
01:50:24.420 : en:Alone at Last
01:52:15.823 : en:Dinner
02:01:39.094 : en:That's My Girl
02:05:19.856 : en:In-Flight Service
02:07:08.632 : en:End Credits
Загрузка...Cкриншот1 Ганнибал / Hannibal (2001) [4k Remastered | Kino Lorber] BDRip 1080p [HEVC] 10 bit от OldGamerЗагрузка...Cкриншот2 Ганнибал / Hannibal (2001) [4k Remastered | Kino Lorber] BDRip 1080p [HEVC] 10 bit от OldGamerЗагрузка...Cкриншот3 Ганнибал / Hannibal (2001) [4k Remastered | Kino Lorber] BDRip 1080p [HEVC] 10 bit от OldGamerЗагрузка...Cкриншот4 Ганнибал / Hannibal (2001) [4k Remastered | Kino Lorber] BDRip 1080p [HEVC] 10 bit от OldGamer

История обновленийПричина замены торрента в комментарии к раздаче
Поблагодарили: 26alexyak, and50, AndresUA, aquarius, Broadcast, Brooklyn, Chestnoc, chetlanin67, denisptp4, ExoticDeer, FFantasy, ilyich05, IRIT, Kilop77, Kiran, Miss Exclusive 888, Niflung, Nuclear70, petr_trnk, Rexfire, sasadru, SERGIY, SergKote, sharkey71, Winsent, Кинозритель
Файлы: 5
  • Hannibal
    • 7.24 ГБ01.Ганнибал.Восхождение.Hannibal.Rising.2006.Unrated.BDRip-HEVC.1080p.mkv
    • 8.41 ГБ02.Охотник.на.людей.Manhunter.1986.Theatrical.Cut.BDRip-HEVC.1080p.mkv
    • 13.61 ГБ03.Красный Дракон.Red.Dragon.2002.4k.Remastered.Kino.Lorber.BDRip-HEVC.1080p.mkv
    • 18.33 ГБ04.Молчание.ягнят.The.Silence.of.the.Lambs.1991.4k.Remastered.The.Criterion.Collection.BDRip-HEVC.1080p.mkv
    • 14.53 ГБ05.Ганнибал.Hannibal.2001.4k.Remastered.Kino.Lorber.BDRip-HEVC.1080p.mkv

Рейтинги КП и IMDB, кнопки "Раздайте, пожалуйста" и "Спасибо", а также мультитрекерная статистика доступны только зарегистрированным/авторизованным пользователям!

OldGamer
1309111(5) 62.12 ГБ

💬︎ Комментарии

Добавление комментариев доступно только зарегистрированным/авторизованным пользователям.

Всего: 11
Аватар Winsent
Winsent
  (отредактировано: )
Красный Дракон / Red Dragon (2002) это remake Охотник на людей / Manhunter (1986), только с Хопкинсом
Аватар OldGamer
OldGamer
Winsent писал(а):
Смотреть в том порядке каком пронумерован или по дате выхода?
Повторюсь, фильмы расставлены по хронологии событий, а уж кто и как будет смотреть - дело хозяйское.
Аватар Winsent
Winsent
Смотреть в том порядке каком пронумерован или по дате выхода?
Аватар OldGamer
OldGamer
Красный дракон: перекодировано с нового трансфера, добавлены переводы FDV, Cine+. Молчание ягнят: перекодировано, добавлены переводы Jaskier, Дмитрий Есарев, Евгений Гаевский, AMC. Ганнибал: перекодировано с другого исходника, добавлены переводы CDV, Iнтер.
Аватар OldGamer
OldGamer
  (отредактировано: )
1. Исправлен дефектный участок дублированной дорожки в конце фильма. Замена подписанных глав. 3. Исправлено написание глав. 4. Удалена низкокачественная дорожка НТВ (имеющаяся в сети альтернативная и менее шумная тоже по факту "не айс"). 5. Перекодировано с нового трансфера, с добавлением ранее отсутствовавших переводов.
Аватар не указан
Кинозритель
  (отредактировано: )
Спасибо за релиз. Но в дорожке "дубляж + MVO Киномания" в "Ганнибале. Восхождение" в самом конце начинается рассинхрон между каналами, примерно с 02:02:17. Да и с подписанием глав не всё правильно. Названия взяты с DVD от "Киномании", но там глав на 2-ве больше, из-за чего название последних не соответствует содержанию.
Также не всё в порядке с подписанием глав в Красном Драконе: 19-ю надо объединить с 20 (объединив и названия), т.к. 20-я не содержит никаких титров, она отмечает конец фильма.
В "Молчании ягнят" дорожка с двухголосым переводом НТВ плохого качества, есть ли в ней смысл?
К фильму "Ганнибал" есть ещё один дублированный перевод (ТВ-3) и 2-ва двухголосых ("SDI Media" и "REN-TV"), все они есть на рутрекере.
Аватар Nuclear70
Nuclear70
ок
Аватар OldGamer
OldGamer
Nuclear70 писал(а):
Какой порядок просмотра как здесь стоит или нет
Расставлено по хронологии событий
Аватар Nuclear70
Nuclear70
Какой порядок просмотра как здесь стоит или нет
Аватар OldGamer
OldGamer
chetlanin67 писал(а):
Это HDR релиз?
нет, иначе бы в заголовке стояла соответствующая пометка