💬 Мини-чат

Для тех, кому интересен процесс переделки сайта - https://rips.club/changelog.html (обновлен 20.04.2024)
  • justmkr
Отправка сообщений доступна только зарегистрированным/авторизованным пользователям.
Онлайн (за 10 мин.): 1

Маньяк-полицейский: Трилогия / Maniac Cop: Trilogy (1988-1992) BDRip 1080p [HEVC] 10 bit от OldGamer (RG RIPS CLUB)

HEVC
10 bit
Обложка Маньяк-полицейский: Трилогия / Maniac Cop: Trilogy (1988-1992) BDRip 1080p [HEVC] 10 bit от OldGamer (RG RIPS CLUB) Год: 1988-1992
Страна: США
Жанр: Ужасы, Боевик, Криминал, Детектив

1. Маньяк-полицейский / Maniac Cop (1988) [Theatrical Cut / US Transfer] BDRip 1080p [HEVC] 10 bit от OldGamer
HEVC
10 bit
Обложка Маньяк-полицейский / Maniac Cop (1988) [Theatrical Cut / US Transfer] BDRip 1080p [HEVC] 10 bit от OldGamer Год: 1988
Страна: США
Студия: Shapiro-Glickenhaus Entertainment
Жанр: Ужасы, Боевик, Криминал, Детектив
Продолжительность: 01:25:08

Режиссер: Уильям Лустиг
В ролях: Том Аткинс, Брюс Кэмпбелл, Лаурен Лэндон, Ричард Раундтри, Уильям Смит, Роберт З’Дар, Шири Норт, Нина Арвесен, Ник Барбаро, Лу Бонаки

Описание: Нью-Йорк в ужасе! Город охватила серия жестоких убийств. Все свидетели утверждают, что их совершил некто в форме полицейского. Управление полиции поначалу не верит в это, и только лейтенант Френк МакКрей понимает, о ком идёт речь.


Исходник: Blu-Ray Remux 1080p (rutracker)
Видео: 1918x1040 (1.85:1), 10,1 Мбит/сек, HEVC (Main10@L.4.1@High)
Аудио1: AC3, 6 ch, 640 Kbps - РусскийРусский, AVO (Алексей Михалёв)
Аудио2: AC3, 2 ch, 192 Kbps - РусскийРусский, AVO (Леха Прапорщик)
Аудио3: AC3, 2 ch, 192 Kbps - РусскийРусский, AVO (Леонид Володарский)
Аудио4: AC3, 2 ch, 192 Kbps - РусскийРусский, AVO (Владимир Козлов / Петербуржец)
Аудио5: AC3, 2 ch, 192 Kbps - РусскийРусский, AVO (Сергей Белов / Зереницын)
Аудио6: AC3, 6 ch, 640 Kbps - EnglishEnglish, Original
Субтитры: English full (SRT)

Как за пару секунд удалить ненужные аудиодорожки и субтитры (Внимание! После удаления вы не сможете поддержать раздачу)

Лог (x265 info)
x265 [info]: frame I: 517, Avg QP:17.18 kb/s: 21321.09
x265 [info]: frame P: 19640, Avg QP:18.38 kb/s: 18385.89
x265 [info]: frame B: 102125, Avg QP:20.22 kb/s: 8483.71
x265 [info]: Weighted P-Frames: Y:11.7% UV:9.8%
x265 [info]: Weighted B-Frames: Y:7.5% UV:6.0%
x265 [info]: consecutive B-frames: 1.0% 1.6% 3.6% 16.3% 8.1% 38.8% 8.4% 13.3% 4.3% 2.7% 0.7% 0.6% 0.3% 0.1% 0.2%
x265 [info]: encoded 122282 frames in 107741.11s (1.13 fps), 10128.40 kb/s, Avg QP:19.92
Медиаинфо
Общее
Уникальный идентификатор : 273770067789781581902667917054677303138 (0xCDF63277FC2B70B7BF152F35BFEF3F62)
Полное имя : \\.\01.Маньяк-полицейский.Maniac.Cop.1988.Theatrical.Cut.US.Transfer.BDRip-HEVC.1080p.mkv
Формат : Matroska
Версия формата : Version 4
Размер файла : 7,23 Гбайт
Продолжительность : 1 ч. 25 м.
Общий поток : 12,2 Мбит/сек
Название фильма : 01.Маньяк-полицейский.Maniac.Cop.1988.Theatrical.Cut.US.Transfer.BDRip-HEVC.1080p
Дата кодирования : UTC 2022-05-22 08:45:59
Программа кодирования : mkvmerge v67.0.0 ('Under Stars') 64-bit
Библиотека кодирования : libebml v1.4.2 + libmatroska v1.6.4

Видео
Идентификатор : 1
Формат : HEVC
Формат/Информация : High Efficiency Video Coding
Профиль формата : Main 10@L4.1@High
Идентификатор кодека : V_MPEGH/ISO/HEVC
Продолжительность : 1 ч. 25 м.
Битрейт : 10,1 Мбит/сек
Ширина : 1 918 пикселей
Высота : 1 040 пикселей
Соотношение сторон : 1,85:1
Режим частоты кадров : Постоянный
Частота кадров : 23,976 (24000/1001) кадра/сек
Цветовое пространство : YUV
Субдискретизация насыщенности : 4:2:0
Битовая глубина : 10 бит
Бит/(Пиксели*Кадры) : 0.212
Размер потока : 6,01 Гбайт (83%)
Заголовок : Maniac Cop / Rip by OldGamer
Библиотека кодирования : x265 3.5+35-e3713124d:[Windows][GCC 11.2.0][64 bit] 10bit
Настройки программы : cpuid=1111039 / frame-threads=3 / numa-pools=8 / wpp / no-pmode / no-pme / no-psnr / no-ssim / log-level=2 / input-csp=1 / input-res=1918x1040 / interlace=0 / total-frames=122282 / level-idc=41 / high-tier=1 / uhd-bd=0 / ref=5 / no-allow-non-conformance / no-repeat-headers / annexb / no-aud / no-eob / no-eos / no-hrd / info / hash=0 / no-temporal-layers / open-gop / min-keyint=23 / keyint=240 / gop-lookahead=0 / bframes=14 / b-adapt=2 / b-pyramid / bframe-bias=0 / rc-lookahead=40 / lookahead-slices=0 / scenecut=40 / no-hist-scenecut / radl=0 / no-splice / no-intra-refresh / ctu=32 / min-cu-size=8 / rect / amp / max-tu-size=32 / tu-inter-depth=4 / tu-intra-depth=4 / limit-tu=1 / rdoq-level=2 / dynamic-rd=0.00 / no-ssim-rd / signhide / no-tskip / nr-intra=0 / nr-inter=0 / no-constrained-intra / no-strong-intra-smoothing / max-merge=5 / limit-refs=3 / no-limit-modes / me=3 / subme=7 / merange=57 / temporal-mvp / no-frame-dup / no-hme / weightp / weightb / no-analyze-src-pics / deblock=-2:-2 / no-sao / no-sao-non-deblock / rd=6 / selective-sao=0 / no-early-skip / no-rskip / no-fast-intra / no-tskip-fast / no-cu-lossless / b-intra / no-splitrd-skip / rdpenalty=0 / psy-rd=2.00 / psy-rdoq=1.00 / no-rd-refine / no-lossless / cbqpoffs=0 / crqpoffs=0 / rc=crf / crf=20.0 / qcomp=0.60 / qpstep=4 / stats-write=0 / stats-read=0 / vbv-maxrate=50000 / vbv-bufsize=50000 / vbv-init=0.9 / min-vbv-fullness=50.0 / max-vbv-fullness=80.0 / crf-max=0.0 / crf-min=0.0 / ipratio=1.40 / pbratio=1.30 / aq-mode=1 / aq-strength=1.00 / no-cutree / zone-count=1 / zones: / start-frame=119308 / end-frame=122282 / qp=36 / no-strict-cbr / qg-size=32 / no-rc-grain / qpmax=69 / qpmin=0 / no-const-vbv / sar=1 / overscan=0 / videoformat=5 / range=0 / colorprim=2 / transfer=2 / colormatrix=2 / chromaloc=0 / display-window=0 / cll=0,0 / min-luma=0 / max-luma=1023 / log2-max-poc-lsb=8 / vui-timing-info / vui-hrd-info / slices=1 / no-opt-qp-pps / no-opt-ref-list-length-pps / no-multi-pass-opt-rps / scenecut-bias=0.00 / hist-threshold=0.03 / no-opt-cu-delta-qp / no-aq-motion / no-hdr10 / no-hdr10-opt / no-dhdr10-opt / no-idr-recovery-sei / analysis-reuse-level=0 / analysis-save-reuse-level=0 / analysis-load-reuse-level=0 / scale-factor=0 / refine-intra=0 / refine-inter=0 / refine-mv=1 / refine-ctu-distortion=0 / no-limit-sao / ctu-info=0 / no-lowpass-dct / refine-analysis-type=0 / copy-pic=1 / max-ausize-factor=1.0 / no-dynamic-refine / no-single-sei / no-hevc-aq / no-svt / no-field / qp-adaptation-range=1.00 / scenecut-aware-qp=0conformance-window-offsets / right=0 / bottom=0 / decoder-max-rate=0 / no-vbv-live-multi-pass
Язык : English
Default : Да
Forced : Нет

Аудио #1
Идентификатор : 2
Формат : AC-3
Формат/Информация : Audio Coding 3
Коммерческое название : Dolby Digital
Идентификатор кодека : A_AC3
Продолжительность : 1 ч. 25 м.
Вид битрейта : Постоянный
Битрейт : 640 Кбит/сек
Каналы : 6 каналов
Channel layout : L R C LFE Ls Rs
Частота : 48,0 КГц
Частота кадров : 31,250 кадров/сек (1536 SPF)
Метод сжатия : С потерями
Размер потока : 390 Мбайт (5%)
Заголовок : AVO (Алексей Михалёв)
Язык : Russian
Service kind : Complete Main
Default : Да
Forced : Нет

Аудио #2
Идентификатор : 3
Формат : AC-3
Формат/Информация : Audio Coding 3
Коммерческое название : Dolby Digital
Идентификатор кодека : A_AC3
Продолжительность : 1 ч. 25 м.
Вид битрейта : Постоянный
Битрейт : 192 Кбит/сек
Каналы : 2 канала
Channel layout : L R
Частота : 48,0 КГц
Частота кадров : 31,250 кадров/сек (1536 SPF)
Метод сжатия : С потерями
Размер потока : 117 Мбайт (2%)
Заголовок : AVO (Леха Прапорщик)
Язык : Russian
Service kind : Complete Main
Default : Нет
Forced : Нет

Аудио #3
Идентификатор : 4
Формат : AC-3
Формат/Информация : Audio Coding 3
Коммерческое название : Dolby Digital
Идентификатор кодека : A_AC3
Продолжительность : 1 ч. 25 м.
Вид битрейта : Постоянный
Битрейт : 192 Кбит/сек
Каналы : 2 канала
Channel layout : L R
Частота : 48,0 КГц
Частота кадров : 31,250 кадров/сек (1536 SPF)
Метод сжатия : С потерями
Размер потока : 117 Мбайт (2%)
Заголовок : AVO (Леонид Володарский)
Язык : Russian
Service kind : Complete Main
Default : Нет
Forced : Нет

Аудио #4
Идентификатор : 5
Формат : AC-3
Формат/Информация : Audio Coding 3
Коммерческое название : Dolby Digital
Идентификатор кодека : A_AC3
Продолжительность : 1 ч. 24 м.
Вид битрейта : Постоянный
Битрейт : 192 Кбит/сек
Каналы : 2 канала
Channel layout : L R
Частота : 48,0 КГц
Частота кадров : 31,250 кадров/сек (1536 SPF)
Метод сжатия : С потерями
Размер потока : 117 Мбайт (2%)
Заголовок : AVO (Владимир Козлов / Петербуржец)
Язык : Russian
Service kind : Complete Main
Default : Нет
Forced : Нет

Аудио #5
Идентификатор : 6
Формат : AC-3
Формат/Информация : Audio Coding 3
Коммерческое название : Dolby Digital
Идентификатор кодека : A_AC3
Продолжительность : 1 ч. 25 м.
Вид битрейта : Постоянный
Битрейт : 192 Кбит/сек
Каналы : 2 канала
Channel layout : L R
Частота : 48,0 КГц
Частота кадров : 31,250 кадров/сек (1536 SPF)
Метод сжатия : С потерями
Размер потока : 117 Мбайт (2%)
Заголовок : AVO (Сергей Белов / Зереницын)
Язык : Russian
Service kind : Complete Main
Default : Нет
Forced : Нет

Аудио #6
Идентификатор : 7
Формат : AC-3
Формат/Информация : Audio Coding 3
Коммерческое название : Dolby Digital
Идентификатор кодека : A_AC3
Продолжительность : 1 ч. 25 м.
Вид битрейта : Постоянный
Битрейт : 640 Кбит/сек
Каналы : 6 каналов
Channel layout : L R C LFE Ls Rs
Частота : 48,0 КГц
Частота кадров : 31,250 кадров/сек (1536 SPF)
Метод сжатия : С потерями
Размер потока : 390 Мбайт (5%)
Язык : English
Service kind : Complete Main
Default : Нет
Forced : Нет

Текст
Идентификатор : 8
Формат : UTF-8
Идентификатор кодека : S_TEXT/UTF8
Идентификатор кодека/Информация : UTF-8 Plain Text
Продолжительность : 1 ч. 15 м.
Битрейт : 52 бит/сек
Частота кадров : 0,147 кадр/сек
Count of elements : 670
Размер потока : 29,1 Кбайт (0%)
Язык : English
Default : Нет
Forced : Нет

Меню
00:00:00.000 : en:Opening
00:03:43.557 : en:Mugged
00:08:55.034 : en:Don't Drink and Drive
00:17:19.580 : en:Cop Killer
00:19:30.127 : en:Suspicion
00:24:22.670 : en:Caught in the Act
00:29:41.446 : en:Arrested
00:34:38.034 : en:Undercover Vice
00:39:44.882 : en:Precinct Secrets
00:47:51.994 : en:Investigating Cordell
00:49:43.772 : en:Brutal Fight
00:53:53.605 : en:Interrogation
00:59:40.118 : en:Prison Visit
01:05:42.438 : en:St/ Patrick's Day Parade
01:09:36.422 : en:Police Station Massacre
01:13:34.368 : en:The Chase
01:17:28.102 : en:Showdown
01:21:54.076 : en:Credits
Загрузка...Cкриншот1 Маньяк-полицейский / Maniac Cop (1988) [Theatrical Cut / US Transfer] BDRip 1080p [HEVC] 10 bit от OldGamerЗагрузка...Cкриншот2 Маньяк-полицейский / Maniac Cop (1988) [Theatrical Cut / US Transfer] BDRip 1080p [HEVC] 10 bit от OldGamerЗагрузка...Cкриншот3 Маньяк-полицейский / Maniac Cop (1988) [Theatrical Cut / US Transfer] BDRip 1080p [HEVC] 10 bit от OldGamerЗагрузка...Cкриншот4 Маньяк-полицейский / Maniac Cop (1988) [Theatrical Cut / US Transfer] BDRip 1080p [HEVC] 10 bit от OldGamer
Сэмпл
2. Маньяк-полицейский 2 / Maniac Cop 2 (1990) [US Transfer] BDRip 1080p [HEVC] 10 bit от OldGamer
HEVC
10 bit
Обложка Маньяк-полицейский 2 / Maniac Cop 2 (1990) [US Transfer] BDRip 1080p [HEVC] 10 bit от OldGamer Год: 1990
Страна: США
Студия: Fadd Enterprises, Medusa Pictures, Movie House Sales Company, The, Overseas FilmGroup
Жанр: Ужасы, Боевик, Триллер, Криминал
Продолжительность: 01:27:22

Режиссер: Уильям Лустиг
В ролях: Роберт Дави, Клаудия Кристиан, Майкл Лернер, Брюс Кэмпбелл, Лаурен Лэндон, Роберт З’Дар, Кларенс Уильямс III, Лео Росси, Лу Бонаки, Пола Трики

Описание: Все думают, что Мэт Корделл утонул в пучинах реки, куда он упал в полицейском грузовике, но они жестоко ошибаются. Мэтт сам назначил себя судьёй, жюри присяжных и палачом. Совсем недавно он был героем, лучшим полицейским, но его приверженность к справедливости добавила ему врагов, властных и безжалостных, могущественных и непримиримых. Они отправили его в тюрьму Синг-Синг прямо в лапы злых преступников, которых он сам недавно засадил за решетку. Но теперь их обман и коррупция создали монстра, которого не может контролировать никто. Восставший из мёртвых маньяк-полицейский снова на посту и единственный билет, который он выписывает - это билет в морг...


Исходник: Blu-Ray Remux 1080p (rutracker)
Видео: 1920x1040 (1.85:1), 13,5 Мбит/сек, HEVC (Main10@L.4.1@High)
Аудио1: AC3, 2 ch, 192 Kbps - РусскийРусский, DVO (REN-TV со вставками Василия Горчакова)
Аудио2: AC3, 2 ch, 192 Kbps - РусскийРусский, AVO (Василий Горчаков)
Аудио3: AC3, 2 ch, 192 Kbps - РусскийРусский, AVO (Леонид Володарский)
Аудио4: AC3, 2 ch, 192 Kbps - РусскийРусский, AVO (Лёша Прапорщик)
Аудио5: AC3, 2 ch, 192 Kbps - РусскийРусский, AVO (Сергей Белов / Зереницын)
Аудио6: AC3, 2 ch, 192 Kbps - РусскийРусский, AVO (Павел Прямостанов)
Аудио7: AC3, 2 ch, 192 Kbps - EnglishEnglish, Original
Субтитры: Русские полные (SRT), English full (SRT)

Как за пару секунд удалить ненужные аудиодорожки и субтитры (Внимание! После удаления вы не сможете поддержать раздачу)

Лог (x265 info)
x265 [info]: frame I: 533, Avg QP:16.91 kb/s: 28839.90
x265 [info]: frame P: 22012, Avg QP:18.09 kb/s: 23128.90
x265 [info]: frame B: 103152, Avg QP:20.10 kb/s: 11720.25
x265 [info]: Weighted P-Frames: Y:14.8% UV:12.0%
x265 [info]: Weighted B-Frames: Y:14.0% UV:11.0%
x265 [info]: consecutive B-frames: 1.5% 2.5% 4.4% 20.1% 10.8% 41.1% 7.3% 7.4% 3.4% 0.6% 0.3% 0.3% 0.1% 0.1%
x265 [info]: encoded 125697 frames in 118019.72s (1.07 fps), 13790.72 kb/s, Avg QP:19.74
Медиаинфо
Общее
Уникальный идентификатор : 312054823175340155148878751024524748017 (0xEAC392A49E709B2BD0438AFD637EE4F1)
Полное имя : \\.\02.Маньяк-полицейский.2.Maniac.Cop.2.1990.US.Transfer.BDRip-HEVC.1080p.mkv
Формат : Matroska
Версия формата : Version 4
Размер файла : 9,24 Гбайт
Продолжительность : 1 ч. 27 м.
Общий поток : 15,1 Мбит/сек
Название фильма : Маньяк-полицейский.2.Maniac.Cop.2.1990.US.Transfer.BDRip-HEVC.1080p02.Маньяк-полицейский.2.Maniac.Cop.2.1990.US.Transfer.BDRip-HEVC.1080p
Дата кодирования : UTC 2022-05-22 08:50:57
Программа кодирования : mkvmerge v67.0.0 ('Under Stars') 64-bit
Библиотека кодирования : libebml v1.4.2 + libmatroska v1.6.4
Обложка : Yes
Attachments : cover (2).jpg

Видео
Идентификатор : 1
Формат : HEVC
Формат/Информация : High Efficiency Video Coding
Профиль формата : Main 10@L4.1@High
Идентификатор кодека : V_MPEGH/ISO/HEVC
Продолжительность : 1 ч. 27 м.
Битрейт : 13,5 Мбит/сек
Ширина : 1 920 пикселей
Высота : 1 040 пикселей
Соотношение сторон : 1,85:1
Режим частоты кадров : Постоянный
Частота кадров : 23,976 (24000/1001) кадра/сек
Цветовое пространство : YUV
Субдискретизация насыщенности : 4:2:0
Битовая глубина : 10 бит
Бит/(Пиксели*Кадры) : 0.282
Размер потока : 8,24 Гбайт (89%)
Заголовок : Maniac Cop 2 / Rip by OldGamer
Библиотека кодирования : x265 3.5+35-e3713124d:[Windows][GCC 11.2.0][64 bit] 10bit
Настройки программы : cpuid=1111039 / frame-threads=3 / numa-pools=8 / wpp / no-pmode / no-pme / no-psnr / no-ssim / log-level=2 / input-csp=1 / input-res=1920x1040 / interlace=0 / total-frames=125697 / level-idc=41 / high-tier=1 / uhd-bd=0 / ref=5 / no-allow-non-conformance / no-repeat-headers / annexb / no-aud / no-eob / no-eos / no-hrd / info / hash=0 / no-temporal-layers / open-gop / min-keyint=23 / keyint=240 / gop-lookahead=0 / bframes=13 / b-adapt=2 / b-pyramid / bframe-bias=0 / rc-lookahead=40 / lookahead-slices=0 / scenecut=40 / no-hist-scenecut / radl=0 / no-splice / no-intra-refresh / ctu=32 / min-cu-size=8 / rect / amp / max-tu-size=32 / tu-inter-depth=4 / tu-intra-depth=4 / limit-tu=1 / rdoq-level=2 / dynamic-rd=0.00 / no-ssim-rd / signhide / no-tskip / nr-intra=0 / nr-inter=0 / no-constrained-intra / no-strong-intra-smoothing / max-merge=5 / limit-refs=3 / no-limit-modes / me=3 / subme=7 / merange=57 / temporal-mvp / no-frame-dup / no-hme / weightp / weightb / no-analyze-src-pics / deblock=-2:-2 / no-sao / no-sao-non-deblock / rd=6 / selective-sao=0 / no-early-skip / no-rskip / no-fast-intra / no-tskip-fast / no-cu-lossless / b-intra / no-splitrd-skip / rdpenalty=0 / psy-rd=2.00 / psy-rdoq=1.00 / no-rd-refine / no-lossless / cbqpoffs=0 / crqpoffs=0 / rc=crf / crf=19.0 / qcomp=0.60 / qpstep=4 / stats-write=0 / stats-read=0 / vbv-maxrate=50000 / vbv-bufsize=50000 / vbv-init=0.9 / min-vbv-fullness=50.0 / max-vbv-fullness=80.0 / crf-max=0.0 / crf-min=0.0 / ipratio=1.40 / pbratio=1.30 / aq-mode=1 / aq-strength=1.00 / no-cutree / zone-count=1 / zones: / start-frame=119912 / end-frame=125697 / qp=36 / no-strict-cbr / qg-size=32 / no-rc-grain / qpmax=69 / qpmin=0 / no-const-vbv / sar=1 / overscan=0 / videoformat=5 / range=0 / colorprim=2 / transfer=2 / colormatrix=2 / chromaloc=0 / display-window=0 / cll=0,0 / min-luma=0 / max-luma=1023 / log2-max-poc-lsb=8 / vui-timing-info / vui-hrd-info / slices=1 / no-opt-qp-pps / no-opt-ref-list-length-pps / no-multi-pass-opt-rps / scenecut-bias=0.00 / hist-threshold=0.03 / no-opt-cu-delta-qp / no-aq-motion / no-hdr10 / no-hdr10-opt / no-dhdr10-opt / no-idr-recovery-sei / analysis-reuse-level=0 / analysis-save-reuse-level=0 / analysis-load-reuse-level=0 / scale-factor=0 / refine-intra=0 / refine-inter=0 / refine-mv=1 / refine-ctu-distortion=0 / no-limit-sao / ctu-info=0 / no-lowpass-dct / refine-analysis-type=0 / copy-pic=1 / max-ausize-factor=1.0 / no-dynamic-refine / no-single-sei / no-hevc-aq / no-svt / no-field / qp-adaptation-range=1.00 / scenecut-aware-qp=0conformance-window-offsets / right=0 / bottom=0 / decoder-max-rate=0 / no-vbv-live-multi-pass
Язык : English
Default : Да
Forced : Нет

Аудио #1
Идентификатор : 2
Формат : AC-3
Формат/Информация : Audio Coding 3
Коммерческое название : Dolby Digital
Идентификатор кодека : A_AC3
Продолжительность : 1 ч. 27 м.
Вид битрейта : Постоянный
Битрейт : 192 Кбит/сек
Каналы : 2 канала
Channel layout : L R
Частота : 48,0 КГц
Частота кадров : 31,250 кадров/сек (1536 SPF)
Метод сжатия : С потерями
Размер потока : 120 Мбайт (1%)
Заголовок : DVO (REN-TV)
Язык : Russian
Service kind : Complete Main
Default : Да
Forced : Нет

Аудио #2
Идентификатор : 3
Формат : AC-3
Формат/Информация : Audio Coding 3
Коммерческое название : Dolby Digital
Идентификатор кодека : A_AC3
Продолжительность : 1 ч. 27 м.
Вид битрейта : Постоянный
Битрейт : 192 Кбит/сек
Каналы : 2 канала
Channel layout : L R
Частота : 48,0 КГц
Частота кадров : 31,250 кадров/сек (1536 SPF)
Метод сжатия : С потерями
Размер потока : 120 Мбайт (1%)
Заголовок : AVO (Василий Горчаков)
Язык : Russian
Service kind : Complete Main
Default : Нет
Forced : Нет

Аудио #3
Идентификатор : 4
Формат : AC-3
Формат/Информация : Audio Coding 3
Коммерческое название : Dolby Digital
Идентификатор кодека : A_AC3
Продолжительность : 1 ч. 27 м.
Вид битрейта : Постоянный
Битрейт : 192 Кбит/сек
Каналы : 2 канала
Channel layout : L R
Частота : 48,0 КГц
Частота кадров : 31,250 кадров/сек (1536 SPF)
Метод сжатия : С потерями
Размер потока : 120 Мбайт (1%)
Заголовок : AVO (Леонид Володарский)
Язык : Russian
Service kind : Complete Main
Default : Нет
Forced : Нет

Аудио #4
Идентификатор : 5
Формат : AC-3
Формат/Информация : Audio Coding 3
Коммерческое название : Dolby Digital
Идентификатор кодека : A_AC3
Продолжительность : 1 ч. 27 м.
Вид битрейта : Постоянный
Битрейт : 192 Кбит/сек
Каналы : 2 канала
Channel layout : L R
Частота : 48,0 КГц
Частота кадров : 31,250 кадров/сек (1536 SPF)
Метод сжатия : С потерями
Размер потока : 120 Мбайт (1%)
Заголовок : AVO (Лёша Прапорщик)
Язык : Russian
Service kind : Complete Main
Default : Нет
Forced : Нет

Аудио #5
Идентификатор : 6
Формат : AC-3
Формат/Информация : Audio Coding 3
Коммерческое название : Dolby Digital
Идентификатор кодека : A_AC3
Продолжительность : 1 ч. 27 м.
Вид битрейта : Постоянный
Битрейт : 192 Кбит/сек
Каналы : 2 канала
Channel layout : L R
Частота : 48,0 КГц
Частота кадров : 31,250 кадров/сек (1536 SPF)
Метод сжатия : С потерями
Размер потока : 120 Мбайт (1%)
Заголовок : AVO (Сергей Белов / Зереницын)
Язык : Russian
Service kind : Complete Main
Default : Нет
Forced : Нет

Аудио #6
Идентификатор : 7
Формат : AC-3
Формат/Информация : Audio Coding 3
Коммерческое название : Dolby Digital
Идентификатор кодека : A_AC3
Продолжительность : 1 ч. 27 м.
Вид битрейта : Постоянный
Битрейт : 192 Кбит/сек
Каналы : 2 канала
Channel layout : L R
Частота : 48,0 КГц
Частота кадров : 31,250 кадров/сек (1536 SPF)
Метод сжатия : С потерями
Размер потока : 120 Мбайт (1%)
Заголовок : AVO (Павел Прямостанов)
Язык : Russian
Service kind : Complete Main
Default : Нет
Forced : Нет

Аудио #7
Идентификатор : 8
Формат : AC-3
Формат/Информация : Audio Coding 3
Коммерческое название : Dolby Digital
Идентификатор кодека : A_AC3
Продолжительность : 1 ч. 27 м.
Вид битрейта : Постоянный
Битрейт : 192 Кбит/сек
Каналы : 2 канала
Channel layout : L R
Частота : 48,0 КГц
Частота кадров : 31,250 кадров/сек (1536 SPF)
Метод сжатия : С потерями
Размер потока : 120 Мбайт (1%)
Заголовок : Original
Язык : English
Service kind : Complete Main
Default : Нет
Forced : Нет

Текст #1
Идентификатор : 9
Формат : UTF-8
Идентификатор кодека : S_TEXT/UTF8
Идентификатор кодека/Информация : UTF-8 Plain Text
Язык : Russian
Default : Нет
Forced : Нет

Текст #2
Идентификатор : 10
Формат : UTF-8
Идентификатор кодека : S_TEXT/UTF8
Идентификатор кодека/Информация : UTF-8 Plain Text
Язык : English
Default : Нет
Forced : Нет

Меню
00:00:00.000 : Chapter 1
00:05:28.560 : Chapter 2
00:10:26.280 : Chapter 3
00:16:45.600 : Chapter 4
00:21:55.200 : Chapter 5
00:27:02.160 : Chapter 6
00:32:23.640 : Chapter 7
00:35:59.160 : Chapter 8
00:40:38.400 : Chapter 9
00:44:27.960 : Chapter 10
00:48:55.320 : Chapter 11
00:52:13.680 : Chapter 12
00:58:28.080 : Chapter 13
01:04:58.080 : Chapter 14
01:09:47.760 : Chapter 15
01:13:47.520 : Chapter 16
01:16:15.000 : Chapter 17
01:19:56.160 : Chapter 18
Загрузка...Cкриншот1 Маньяк-полицейский 2 / Maniac Cop 2 (1990) [US Transfer] BDRip 1080p [HEVC] 10 bit от OldGamerЗагрузка...Cкриншот2 Маньяк-полицейский 2 / Maniac Cop 2 (1990) [US Transfer] BDRip 1080p [HEVC] 10 bit от OldGamerЗагрузка...Cкриншот3 Маньяк-полицейский 2 / Maniac Cop 2 (1990) [US Transfer] BDRip 1080p [HEVC] 10 bit от OldGamerЗагрузка...Cкриншот4 Маньяк-полицейский 2 / Maniac Cop 2 (1990) [US Transfer] BDRip 1080p [HEVC] 10 bit от OldGamer
Сэмпл
3. Маньяк-полицейский 3: Знак молчания / Maniac Cop 3: Badge of Silence (1992) BDRip 1080p [HEVC] 10 bit от OldGamer
HEVC
10 bit
Обложка Маньяк-полицейский 3: Знак молчания / Maniac Cop 3: Badge of Silence (1992) BDRip 1080p [HEVC] 10 bit от OldGamer Год: 1992
Страна: США
Студия: First Look Pictures, NEO Motion Pictures, Overseas FilmGroup
Жанр: Ужасы, Боевик
Продолжительность: 01:24:42

Режиссер: Уильям Лустиг, Джоэль Сойзон
В ролях: Роберт Дави, Роберт З’Дар, Кэйтлин Дюлэйни, Гретчен Бекер, Пол Глисон, Джеки Эрл Хейли, Джулиус Харрис, Гранд Л. Буш, Даг Сэвант, Роберт Форстер

Описание: Фильм рассказывает историю хорошего полицейского, вовлечённого в опасную погоню за Корделлом, «маньяком-полицейским», вершащим на улицах Нью-Йорка кровавое правосудие по собственному усмотрению. На этот раз Корделл восстаёт из могилы для того, чтобы вернуть доброе имя находящейся в коме женщине - полицейской Кэйт. Она получила пулю в перестрелке, и её же обвинили в жестоком убийстве «случайного посетителя», который на самом деле был наркоманом-грабителем, захватившим заложницу. А подставили Кэт телерепортёры, подтасовавшие видеозапись при монтаже. Но наводящий ужас в своей безжалостной мести «маньяк-полицейский» готов разобраться со всеми «плохими парнями».


Исходник: Blu-Ray Remux 1080p (rutracker)
Видео: 1920x816 (2.35:1), 5223 Кбит/сек, HEVC (Main10@L.4.1@High)
Аудио1: AC3, 2 ch, 192 Kbps - РусскийРусский, AVO (Евгений Гранкин)
Аудио2: AC3, 2 ch, 192 Kbps - РусскийРусский, AVO (Леонид Володарский)
Аудио3: AC3, 2 ch, 192 Kbps - РусскийРусский, AVO (Андрей Гаврилов)
Аудио4: AC3, 2 ch, 192 Kbps - РусскийРусский, AVO (Пётр Карцев)
Аудио5: AC3, 6 ch, 640 Kbps - EnglishEnglish, Original
Субтитры: русские, английские

Как за пару секунд удалить ненужные аудиодорожки и субтитры (Внимание! После удаления вы не сможете поддержать раздачу)

Лог (x265 info)
x265 [info]: frame I: 515, Avg QP:16.75 kb/s: 13570.32
x265 [info]: frame P: 20447, Avg QP:18.10 kb/s: 10702.08
x265 [info]: frame B: 100897, Avg QP:20.34 kb/s: 4069.29
x265 [info]: Weighted P-Frames: Y:12.6% UV:9.6%
x265 [info]: Weighted B-Frames: Y:13.8% UV:8.9%
x265 [info]: consecutive B-frames: 5.0% 3.6% 5.6% 17.7% 8.7% 28.7% 7.2% 10.1% 7.4% 2.5% 0.9% 1.3% 0.3% 0.3% 0.5%
x265 [info]: encoded 121859 frames in 73592.27s (1.66 fps), 5222.37 kb/s, Avg QP:19.95
Медиаинфо
Общее
Уникальный идентификатор : 30215754226138231967250326619358736012 (0x16BB57B3B138C1E63D77C7F92FCFAE8C)
Полное имя : \\.\03.Маньяк-полицейский.3.Знак.молчания.Maniac.Cop.3.Badge.of.Silence.1992.BDRip-HEVC.1080p.mkv
Формат : Matroska
Версия формата : Version 4
Размер файла : 3,93 Гбайт
Продолжительность : 1 ч. 24 м.
Общий поток : 6 634 Кбит/сек
Название фильма : 03.Маньяк-полицейский.3.Знак.молчания.Maniac.Cop.3.Badge.of.Silence.1992.BDRip-HEVC.1080p
Дата кодирования : UTC 2022-05-22 09:08:58
Программа кодирования : mkvmerge v67.0.0 ('Under Stars') 64-bit
Библиотека кодирования : libebml v1.4.2 + libmatroska v1.6.4

Видео
Идентификатор : 1
Формат : HEVC
Формат/Информация : High Efficiency Video Coding
Профиль формата : Main 10@L4.1@High
Идентификатор кодека : V_MPEGH/ISO/HEVC
Продолжительность : 1 ч. 24 м.
Битрейт : 5 223 Кбит/сек
Ширина : 1 920 пикселей
Высота : 816 пикселей
Соотношение сторон : 2,35:1
Режим частоты кадров : Постоянный
Частота кадров : 23,976 (24000/1001) кадра/сек
Цветовое пространство : YUV
Субдискретизация насыщенности : 4:2:0
Битовая глубина : 10 бит
Бит/(Пиксели*Кадры) : 0.139
Размер потока : 3,09 Гбайт (79%)
Заголовок : Maniac Cop 3: Badge of Silence / Rip by OldGamer
Библиотека кодирования : x265 3.5+35-e3713124d:[Windows][GCC 11.2.0][64 bit] 10bit
Настройки программы : cpuid=1111039 / frame-threads=3 / numa-pools=8 / wpp / no-pmode / no-pme / no-psnr / no-ssim / log-level=2 / input-csp=1 / input-res=1920x816 / interlace=0 / total-frames=121859 / level-idc=41 / high-tier=1 / uhd-bd=0 / ref=5 / no-allow-non-conformance / no-repeat-headers / annexb / no-aud / no-eob / no-eos / no-hrd / info / hash=0 / no-temporal-layers / open-gop / min-keyint=23 / keyint=240 / gop-lookahead=0 / bframes=14 / b-adapt=2 / b-pyramid / bframe-bias=0 / rc-lookahead=40 / lookahead-slices=0 / scenecut=40 / no-hist-scenecut / radl=0 / no-splice / no-intra-refresh / ctu=32 / min-cu-size=8 / rect / amp / max-tu-size=32 / tu-inter-depth=4 / tu-intra-depth=4 / limit-tu=1 / rdoq-level=2 / dynamic-rd=0.00 / no-ssim-rd / signhide / no-tskip / nr-intra=0 / nr-inter=0 / no-constrained-intra / no-strong-intra-smoothing / max-merge=5 / limit-refs=3 / no-limit-modes / me=3 / subme=7 / merange=57 / temporal-mvp / no-frame-dup / no-hme / weightp / weightb / no-analyze-src-pics / deblock=-2:-2 / no-sao / no-sao-non-deblock / rd=6 / selective-sao=0 / no-early-skip / no-rskip / no-fast-intra / no-tskip-fast / no-cu-lossless / b-intra / no-splitrd-skip / rdpenalty=0 / psy-rd=2.00 / psy-rdoq=1.00 / no-rd-refine / no-lossless / cbqpoffs=0 / crqpoffs=0 / rc=crf / crf=20.5 / qcomp=0.60 / qpstep=4 / stats-write=0 / stats-read=0 / vbv-maxrate=50000 / vbv-bufsize=50000 / vbv-init=0.9 / min-vbv-fullness=50.0 / max-vbv-fullness=80.0 / crf-max=0.0 / crf-min=0.0 / ipratio=1.40 / pbratio=1.30 / aq-mode=1 / aq-strength=1.00 / no-cutree / zone-count=1 / zones: / start-frame=116362 / end-frame=121859 / qp=36 / no-strict-cbr / qg-size=32 / no-rc-grain / qpmax=69 / qpmin=0 / no-const-vbv / sar=1 / overscan=0 / videoformat=5 / range=0 / colorprim=2 / transfer=2 / colormatrix=2 / chromaloc=0 / display-window=0 / cll=0,0 / min-luma=0 / max-luma=1023 / log2-max-poc-lsb=8 / vui-timing-info / vui-hrd-info / slices=1 / no-opt-qp-pps / no-opt-ref-list-length-pps / no-multi-pass-opt-rps / scenecut-bias=0.00 / hist-threshold=0.03 / no-opt-cu-delta-qp / no-aq-motion / no-hdr10 / no-hdr10-opt / no-dhdr10-opt / no-idr-recovery-sei / analysis-reuse-level=0 / analysis-save-reuse-level=0 / analysis-load-reuse-level=0 / scale-factor=0 / refine-intra=0 / refine-inter=0 / refine-mv=1 / refine-ctu-distortion=0 / no-limit-sao / ctu-info=0 / no-lowpass-dct / refine-analysis-type=0 / copy-pic=1 / max-ausize-factor=1.0 / no-dynamic-refine / no-single-sei / no-hevc-aq / no-svt / no-field / qp-adaptation-range=1.00 / scenecut-aware-qp=0conformance-window-offsets / right=0 / bottom=0 / decoder-max-rate=0 / no-vbv-live-multi-pass
Язык : English
Default : Да
Forced : Нет

Аудио #1
Идентификатор : 2
ID in the original source medium : 4352 (0x1100)
Формат : AC-3
Формат/Информация : Audio Coding 3
Коммерческое название : Dolby Digital
Идентификатор кодека : A_AC3
Продолжительность : 1 ч. 24 м.
Вид битрейта : Постоянный
Битрейт : 192 Кбит/сек
Каналы : 2 канала
Channel layout : L R
Частота : 48,0 КГц
Частота кадров : 31,250 кадров/сек (1536 SPF)
Метод сжатия : С потерями
Размер потока : 116 Мбайт (3%)
Заголовок : AVO (Евгений Гранкин)
Язык : Russian
Service kind : Complete Main
Default : Нет
Forced : Нет
Носитель оригинала : Blu-ray

Аудио #2
Идентификатор : 3
Формат : AC-3
Формат/Информация : Audio Coding 3
Коммерческое название : Dolby Digital
Идентификатор кодека : A_AC3
Продолжительность : 1 ч. 24 м.
Вид битрейта : Постоянный
Битрейт : 192 Кбит/сек
Каналы : 2 канала
Channel layout : L R
Частота : 48,0 КГц
Частота кадров : 31,250 кадров/сек (1536 SPF)
Метод сжатия : С потерями
Размер потока : 116 Мбайт (3%)
Заголовок : AVO (Леонид Володарский)
Язык : Russian
Service kind : Complete Main
Default : Нет
Forced : Нет

Аудио #3
Идентификатор : 4
Формат : AC-3
Формат/Информация : Audio Coding 3
Коммерческое название : Dolby Digital
Идентификатор кодека : A_AC3
Продолжительность : 1 ч. 24 м.
Вид битрейта : Постоянный
Битрейт : 192 Кбит/сек
Каналы : 2 канала
Channel layout : L R
Частота : 48,0 КГц
Частота кадров : 31,250 кадров/сек (1536 SPF)
Метод сжатия : С потерями
Размер потока : 116 Мбайт (3%)
Заголовок : AVO (Андрей Гаврилов)
Язык : Russian
Service kind : Complete Main
Default : Да
Forced : Нет

Аудио #4
Идентификатор : 5
Формат : AC-3
Формат/Информация : Audio Coding 3
Коммерческое название : Dolby Digital
Идентификатор кодека : A_AC3
Продолжительность : 1 ч. 24 м.
Вид битрейта : Постоянный
Битрейт : 192 Кбит/сек
Каналы : 2 канала
Channel layout : L R
Частота : 48,0 КГц
Частота кадров : 31,250 кадров/сек (1536 SPF)
Метод сжатия : С потерями
Размер потока : 116 Мбайт (3%)
Заголовок : AVO (Пётр Карцев)
Язык : Russian
Service kind : Complete Main
Default : Нет
Forced : Нет

Аудио #5
Идентификатор : 6
Формат : AC-3
Формат/Информация : Audio Coding 3
Коммерческое название : Dolby Digital
Идентификатор кодека : A_AC3
Продолжительность : 1 ч. 24 м.
Вид битрейта : Постоянный
Битрейт : 640 Кбит/сек
Каналы : 6 каналов
Channel layout : L R C LFE Ls Rs
Частота : 48,0 КГц
Частота кадров : 31,250 кадров/сек (1536 SPF)
Метод сжатия : С потерями
Размер потока : 388 Мбайт (10%)
Язык : English
Service kind : Complete Main
Default : Нет
Forced : Нет

Текст #1
Идентификатор : 7
Формат : UTF-8
Идентификатор кодека : S_TEXT/UTF8
Идентификатор кодека/Информация : UTF-8 Plain Text
Продолжительность : 1 ч. 24 м.
Битрейт : 66 бит/сек
Частота кадров : 0,130 кадр/сек
Count of elements : 657
Размер потока : 41,0 Кбайт (0%)
Язык : Russian
Default : Нет
Forced : Нет

Текст #2
Идентификатор : 8
Формат : UTF-8
Идентификатор кодека : S_TEXT/UTF8
Идентификатор кодека/Информация : UTF-8 Plain Text
Продолжительность : 1 ч. 15 м.
Битрейт : 40 бит/сек
Частота кадров : 0,144 кадр/сек
Count of elements : 653
Размер потока : 22,4 Кбайт (0%)
Язык : English
Default : Нет
Forced : Нет

Меню
00:00:00.000 : en:Chapter 01
00:05:00.383 : en:Chapter 02
00:10:00.308 : en:Chapter 03
00:15:00.399 : en:Chapter 04
00:20:00.490 : en:Chapter 05
00:25:00.332 : en:Chapter 06
00:30:00.131 : en:Chapter 07
00:35:00.556 : en:Chapter 08
00:40:00.314 : en:Chapter 09
00:45:00.197 : en:Chapter 10
00:50:00.080 : en:Chapter 11
00:54:59.671 : en:Chapter 12
01:00:00.221 : en:Chapter 13
01:04:59.770 : en:Chapter 14
01:09:59.987 : en:Chapter 15
01:15:00.037 : en:Chapter 16
01:20:00.212 : en:Chapter 17
Загрузка...Cкриншот1 Маньяк-полицейский 3: Знак молчания / Maniac Cop 3: Badge of Silence (1992) BDRip 1080p [HEVC] 10 bit от OldGamerЗагрузка...Cкриншот2 Маньяк-полицейский 3: Знак молчания / Maniac Cop 3: Badge of Silence (1992) BDRip 1080p [HEVC] 10 bit от OldGamerЗагрузка...Cкриншот3 Маньяк-полицейский 3: Знак молчания / Maniac Cop 3: Badge of Silence (1992) BDRip 1080p [HEVC] 10 bit от OldGamerЗагрузка...Cкриншот4 Маньяк-полицейский 3: Знак молчания / Maniac Cop 3: Badge of Silence (1992) BDRip 1080p [HEVC] 10 bit от OldGamer
Сэмпл
Релиз-группа: RIPS CLUB
Торрент🧲 Магнет

Рейтинги КП и IMDB, кнопки "Позвать в чате" и "Спасибо", а также мультитрекерная статистика доступны только зарегистрированным/авторизованным пользователям!

Файлы: 3
  • Маньяк-полицейский.Maniac.Cop.Trilogy.1988-1992
    • 01.Маньяк-полицейский.Maniac.Cop.1988.Theatrical.Cut.US.Transfer.BDRip-HEVC.1080p.mkv   7.23 ГБ
    • 02.Маньяк-полицейский.2.Maniac.Cop.2.1990.US.Transfer.BDRip-HEVC.1080p.mkv   9.24 ГБ
    • 03.Маньяк-полицейский.3.Знак.молчания.Maniac.Cop.3.Badge.of.Silence.1992.BDRip-HEVC.1080p.mkv   3.93 ГБ
Поблагодарили: 14
and50, bs158250, donadar, ilyich05, IRIT, Kiran, kisa1980, PavlOFF, SergKote, sharkey71, SoulBoy, torrentzulu, VIS, Лара
OldGamer
016602 (3)  20.4 ГБ

Добавление нового комментария

Добавление комментариев доступно только зарегистрированным/авторизованным пользователям.