💬 Мини-чат

Для тех, кому интересен процесс переделки сайта - https://rips.club/changelog.html (обновлен 22.02.2024)
OldGamerz1M4p9i0, и этот релиз скачался
Adminatomicheart, встал, но у Вас в профиле не видно. Вам бы перекачать.
OldGamerz1M4p9i0, Хан Соло скачался, но релиз, который был на руторе, там аудиодорожек меньше, чем тут, а видеоряд тот же. Попробуйте оттуда, я пока что сидирую.
OldGamerХан Соло откуда-то по чайной ложке в час скачивается, за сутки 50%, наблюдаем-с дальше
Adminatomicheart, завтра посмотрю, он у меня должен быть.
atomicheartРаздайте, пожалуйста, Тихое место: Дилогия / A Quiet Place: Dilogy (2018-2020) UHD-BDRip 1080p [HEVC] 10 bit [HDR] от Mr. Fox
z1M4p9i0Раздайте, пожалуйста, Хан Соло: Звёздные войны. Истории / Solo: A Star Wars Story (2018) [Локализованная версия] BDRip 1080p [HEVC] 10 bit от Cthulhu
z1M4p9i0Раздайте, пожалуйста, Терминатор: Тёмные судьбы / Terminator: Dark Fate (2019) [iTunes] UHD-BDRip 1440p [HEVC] 10 bit от HANNIBAL
OldGamerKeynol, честно говоря, пока что не планировалось, так как у нас есть отличный рип этого фильма
KeynolПриветствую! А можно сделать HEVC 10 bit на Трон Наследие Hybrid ? там файл на 31 гиг :-( на рутрекере. Хороший, но очень массивный..
  • OldGamer
  • AndresUA
  • BalU
  • bronsonw200
  • InSpector
  • pmihail99
Отправка сообщений доступна только зарегистрированным/авторизованным пользователям.
Онлайн (за 10 мин.): 6

Ю-571 / U-571 (2000) [NOR Transfer / Open Matte] BDRip 1080p [HEVC] 10 bit от OldGamer (RG RIPS CLUB)

HEVC
10 bit
Обложка Ю-571 / U-571 (2000) [NOR Transfer / Open Matte] BDRip 1080p [HEVC] 10 bit от OldGamer (RG RIPS CLUB) Год: 2000
Страна: США, Франция
Студия: Canal Plus Image International, Dino De Laurentiis Productions, Universal Pictures
Жанр: Боевик, Военный
Продолжительность: 01:55:59

Режиссер: Джонатан Мостоу
В ролях: Мэттью МакКонахи, Билл Пэкстон, Харви Кейтель, Джон Бон Джови, Дэвид Кит, Томас Кречман, Джейк Уэбер, Джек Ноузуорти, Том Гайри, Уилл Эстес

Описание: 1942 год. Немецкие подводные лодки хозяйничают в Атлантике. Радиоперехваты не дают союзникам ничего: сообщения противника не поддаются расшифровке. И тогда американские моряки получают секретное задание: захватить вражескую субмарину U-571 и находящуюся на её борту шифровальную машину «Энигма». Захватить... и вернуться обратно!


Исходник: Blu-Ray Remux 1080p (rutracker)
Видео: 1920x1080, 8350 Kbps, HEVC (Main10@L.4.1@High)
Аудио1: E-AC3, 6 ch, 640 Kbps - РусскийРусский, DUB (Lucky Production / Netflix, 2020 г.)
Аудио2: AC3, 6 ch, 384 Kbps - РусскийРусский, DUB ("Мосфильм" по заказу "West Video", 2000 г.)
Аудио3: AC3, 2 ch, 224 Kbps - РусскийРусский, DUB (TrueDubbing / Paramount, 2018 г.)
Аудио4: AC3, 2 ch, 192 Kbps - РусскийРусский, MVO (КиноПоиск)
Аудио5: AC3, 6 ch, 640 Kbps - РусскийРусский, AVO (Андрей Гаврилов)
Аудио6: AC3, 6 ch, 640 Kbps - РусскийРусский, AVO (Юрий Живов)
Аудио7: AC3, 6 ch, 640 Kbps - РусскийРусский, AVO (Сергей Визгунов)
Аудио8: AC3, 6 ch, 640 Kbps - РусскийРусский, AVO (Леонид Володарский)
Аудио9: AC3, 6 ch, 640 Kbps - РусскийРусский, VO
Аудио10: AC3, 2 ch, 192 Kbps - УкраинскийУкраинский, MVO (НЛО)
Аудио11: AC3, 2 ch, 192 Kbps - УкраинскийУкраинский, MVO (2+2)
Аудио12: AC3, 6 ch, 640 Kbps - АнглийскийАнглийский
Субтитры: русские (full, forced), украинские, английские (SDH)

Как за пару секунд удалить ненужные аудиодорожки и субтитры (Внимание! После удаления вы не сможете поддержать раздачу)

Лог (x265 info)
x265 [info]: frame I: 710, Avg QP:17.59 kb/s: 17895.67
x265 [info]: frame P: 30479, Avg QP:18.81 kb/s: 15790.30
x265 [info]: frame B: 135847, Avg QP:20.91 kb/s: 6923.59
x265 [info]: Weighted P-Frames: Y:12.5% UV:9.8%
x265 [info]: Weighted B-Frames: Y:11.3% UV:7.6%
x265 [info]: consecutive B-frames: 2.7% 2.9% 4.7% 27.2% 10.9% 33.7% 5.4% 7.5% 2.2% 1.4% 0.5% 0.5% 0.4%
x265 [info]: encoded 167036 frames in 134607.67s (1.24 fps), 8588.13 kb/s, Avg QP:20.52
Медиаинфо
Общее
Уникальный идентификатор : 269357455013823637272013022325648798388 (0xCAA45BDCA4CB3B56DF1E0F1B63D232B4)
Полное имя : \\.\Ю-571.U-571.2000.NOR.Transfer.BDRip-HEVC.1080p.mkv
Формат : Matroska
Версия формата : Version 4
Размер файла : 11,6 Гбайт
Продолжительность : 1 ч. 56 м.
Общий поток : 14,3 Мбит/сек
Частота кадров : 24,000 кадра/сек
Дата кодирования : 2023-12-09 16:03:29 UTC
Программа кодирования : mkvmerge v81.0 ('Milliontown') 64-bit
Библиотека кодирования : libebml v1.4.4 + libmatroska v1.7.1
Обложка : Yes
Attachments : cover.jpg

Видео
Идентификатор : 1
Формат : HEVC
Формат/Информация : High Efficiency Video Coding
Профиль формата : Main 10@L4.1@High
Идентификатор кодека : V_MPEGH/ISO/HEVC
Продолжительность : 1 ч. 55 м.
Битрейт : 8 589 Кбит/сек
Ширина : 1 920 пикселей
Высота : 1 080 пикселей
Соотношение сторон : 16:9
Режим частоты кадров : Постоянный
Частота кадров : 24,000 кадра/сек
Цветовое пространство : YUV
Субдискретизация насыщенности : 4:2:0
Битовая глубина : 10 бит
Бит/(Пиксели*Кадры) : 0.173
Размер потока : 6,96 Гбайт (60%)
Заголовок : U-571 / Rip by OldGamer
Библиотека кодирования : x265 3.5+35-e3713124d:[Windows][GCC 11.2.0][64 bit] 10bit
Настройки программы : cpuid=1111039 / frame-threads=4 / numa-pools=16 / wpp / no-pmode / no-pme / no-psnr / no-ssim / log-level=2 / input-csp=1 / input-res=1920x1080 / interlace=0 / total-frames=167036 / level-idc=41 / high-tier=1 / uhd-bd=0 / ref=5 / no-allow-non-conformance / no-repeat-headers / annexb / no-aud / no-eob / no-eos / no-hrd / info / hash=0 / no-temporal-layers / open-gop / min-keyint=23 / keyint=240 / gop-lookahead=0 / bframes=12 / b-adapt=2 / b-pyramid / bframe-bias=0 / rc-lookahead=40 / lookahead-slices=0 / scenecut=40 / no-hist-scenecut / radl=0 / no-splice / no-intra-refresh / ctu=32 / min-cu-size=8 / rect / amp / max-tu-size=32 / tu-inter-depth=4 / tu-intra-depth=4 / limit-tu=1 / rdoq-level=2 / dynamic-rd=0.00 / no-ssim-rd / signhide / no-tskip / nr-intra=0 / nr-inter=0 / no-constrained-intra / no-strong-intra-smoothing / max-merge=5 / limit-refs=3 / no-limit-modes / me=3 / subme=7 / merange=57 / temporal-mvp / no-frame-dup / no-hme / weightp / weightb / no-analyze-src-pics / deblock=-2:-2 / no-sao / no-sao-non-deblock / rd=6 / selective-sao=0 / no-early-skip / no-rskip / no-fast-intra / no-tskip-fast / no-cu-lossless / b-intra / no-splitrd-skip / rdpenalty=0 / psy-rd=2.00 / psy-rdoq=1.00 / no-rd-refine / no-lossless / cbqpoffs=0 / crqpoffs=0 / rc=crf / crf=20.3 / qcomp=0.66 / qpstep=4 / stats-write=0 / stats-read=0 / vbv-maxrate=50000 / vbv-bufsize=50000 / vbv-init=0.9 / min-vbv-fullness=50.0 / max-vbv-fullness=80.0 / crf-max=0.0 / crf-min=0.0 / ipratio=1.40 / pbratio=1.30 / aq-mode=1 / aq-strength=1.00 / no-cutree / zone-count=1 / zones: / start-frame=157084 / end-frame=167036 / qp=36 / no-strict-cbr / qg-size=32 / no-rc-grain / qpmax=69 / qpmin=0 / no-const-vbv / sar=1 / overscan=0 / videoformat=5 / range=0 / colorprim=2 / transfer=2 / colormatrix=2 / chromaloc=0 / display-window=0 / cll=0,0 / min-luma=0 / max-luma=1023 / log2-max-poc-lsb=8 / vui-timing-info / vui-hrd-info / slices=1 / no-opt-qp-pps / no-opt-ref-list-length-pps / no-multi-pass-opt-rps / scenecut-bias=0.00 / hist-threshold=0.03 / no-opt-cu-delta-qp / no-aq-motion / no-hdr10 / no-hdr10-opt / no-dhdr10-opt / no-idr-recovery-sei / analysis-reuse-level=0 / analysis-save-reuse-level=0 / analysis-load-reuse-level=0 / scale-factor=0 / refine-intra=0 / refine-inter=0 / refine-mv=1 / refine-ctu-distortion=0 / no-limit-sao / ctu-info=0 / no-lowpass-dct / refine-analysis-type=0 / copy-pic=1 / max-ausize-factor=1.0 / no-dynamic-refine / no-single-sei / no-hevc-aq / no-svt / no-field / qp-adaptation-range=1.00 / scenecut-aware-qp=0conformance-window-offsets / right=0 / bottom=0 / decoder-max-rate=0 / no-vbv-live-multi-pass
Язык : English
Default : Да
Forced : Нет

Аудио #1
Идентификатор : 2
Формат : E-AC-3
Формат/Информация : Enhanced AC-3
Коммерческое название : Dolby Digital Plus
Идентификатор кодека : A_EAC3
Продолжительность : 1 ч. 56 м.
Вид битрейта : Постоянный
Битрейт : 640 Кбит/сек
Каналы : 6 каналов
Channel layout : L R C LFE Ls Rs
Частота : 48,0 КГц
Частота кадров : 31,250 кадров/сек (1536 SPF)
Метод сжатия : С потерями
Размер потока : 531 Мбайт (4%)
Заголовок : DUB (Lucky Production / Netflix, 2020 г.)
Язык : Russian
Service kind : Complete Main
Default : Нет
Forced : Нет

Аудио #2
Идентификатор : 3
ID in the original source medium : 4352 (0x1100)
Формат : AC-3
Формат/Информация : Audio Coding 3
Коммерческое название : Dolby Digital
Идентификатор кодека : A_AC3
Продолжительность : 1 ч. 55 м.
Вид битрейта : Постоянный
Битрейт : 384 Кбит/сек
Каналы : 6 каналов
Channel layout : L R C LFE Ls Rs
Частота : 48,0 КГц
Частота кадров : 31,250 кадров/сек (1536 SPF)
Метод сжатия : С потерями
Размер потока : 319 Мбайт (3%)
Заголовок : DUB ("Мосфильм" по заказу "West Video", 2000 г.)
Язык : Russian
Service kind : Complete Main
Default : Да
Forced : Нет
Носитель оригинала : Blu-ray

Аудио #3
Идентификатор : 4
Формат : AC-3
Формат/Информация : Audio Coding 3
Коммерческое название : Dolby Digital
Идентификатор кодека : A_AC3
Продолжительность : 1 ч. 55 м.
Вид битрейта : Постоянный
Битрейт : 224 Кбит/сек
Каналы : 2 канала
Channel layout : L R
Частота : 48,0 КГц
Частота кадров : 31,250 кадров/сек (1536 SPF)
Метод сжатия : С потерями
Размер потока : 186 Мбайт (2%)
Заголовок : DUB (TrueDubbing / Paramount, 2018 г.)
Язык : Russian
Service kind : Complete Main
Default : Нет
Forced : Нет

Аудио #4
Идентификатор : 5
Формат : AC-3
Формат/Информация : Audio Coding 3
Коммерческое название : Dolby Digital
Идентификатор кодека : A_AC3
Продолжительность : 1 ч. 56 м.
Вид битрейта : Постоянный
Битрейт : 192 Кбит/сек
Каналы : 2 канала
Channel layout : L R
Частота : 48,0 КГц
Частота кадров : 31,250 кадров/сек (1536 SPF)
Метод сжатия : С потерями
Размер потока : 159 Мбайт (1%)
Заголовок : MVO (КиноПоиск)
Язык : Russian
Service kind : Complete Main
Default : Нет
Forced : Нет

Аудио #5
Идентификатор : 6
Формат : AC-3
Формат/Информация : Audio Coding 3
Коммерческое название : Dolby Digital
Идентификатор кодека : A_AC3
Продолжительность : 1 ч. 55 м.
Вид битрейта : Постоянный
Битрейт : 640 Кбит/сек
Каналы : 6 каналов
Channel layout : L R C LFE Ls Rs
Частота : 48,0 КГц
Частота кадров : 31,250 кадров/сек (1536 SPF)
Метод сжатия : С потерями
Размер потока : 531 Мбайт (4%)
Заголовок : AVO (Андрей Гаврилов)
Язык : Russian
Service kind : Complete Main
Default : Нет
Forced : Нет

Аудио #6
Идентификатор : 7
Формат : AC-3
Формат/Информация : Audio Coding 3
Коммерческое название : Dolby Digital
Идентификатор кодека : A_AC3
Продолжительность : 1 ч. 55 м.
Вид битрейта : Постоянный
Битрейт : 640 Кбит/сек
Каналы : 6 каналов
Channel layout : L R C LFE Ls Rs
Частота : 48,0 КГц
Частота кадров : 31,250 кадров/сек (1536 SPF)
Метод сжатия : С потерями
Размер потока : 531 Мбайт (4%)
Заголовок : AVO (Юрий Живов)
Язык : Russian
Service kind : Complete Main
Default : Нет
Forced : Нет

Аудио #7
Идентификатор : 8
Формат : AC-3
Формат/Информация : Audio Coding 3
Коммерческое название : Dolby Digital
Идентификатор кодека : A_AC3
Продолжительность : 1 ч. 55 м.
Вид битрейта : Постоянный
Битрейт : 640 Кбит/сек
Каналы : 6 каналов
Channel layout : L R C LFE Ls Rs
Частота : 48,0 КГц
Частота кадров : 31,250 кадров/сек (1536 SPF)
Метод сжатия : С потерями
Размер потока : 531 Мбайт (4%)
Заголовок : AVO (Сергей Визгунов)
Язык : Russian
Service kind : Complete Main
Default : Нет
Forced : Нет

Аудио #8
Идентификатор : 9
Формат : AC-3
Формат/Информация : Audio Coding 3
Коммерческое название : Dolby Digital
Идентификатор кодека : A_AC3
Продолжительность : 1 ч. 55 м.
Вид битрейта : Постоянный
Битрейт : 640 Кбит/сек
Каналы : 6 каналов
Channel layout : L R C LFE Ls Rs
Частота : 48,0 КГц
Частота кадров : 31,250 кадров/сек (1536 SPF)
Метод сжатия : С потерями
Размер потока : 531 Мбайт (4%)
Заголовок : AVO (Леонид Володарский)
Язык : Russian
Service kind : Complete Main
Default : Нет
Forced : Нет

Аудио #9
Идентификатор : 10
Формат : AC-3
Формат/Информация : Audio Coding 3
Коммерческое название : Dolby Digital
Идентификатор кодека : A_AC3
Продолжительность : 1 ч. 55 м.
Вид битрейта : Постоянный
Битрейт : 640 Кбит/сек
Каналы : 6 каналов
Channel layout : L R C LFE Ls Rs
Частота : 48,0 КГц
Частота кадров : 31,250 кадров/сек (1536 SPF)
Метод сжатия : С потерями
Размер потока : 531 Мбайт (4%)
Заголовок : VO (неизвестный)
Язык : Russian
Service kind : Complete Main
Default : Нет
Forced : Нет

Аудио #10
Идентификатор : 11
Формат : AC-3
Формат/Информация : Audio Coding 3
Коммерческое название : Dolby Digital
Идентификатор кодека : A_AC3
Продолжительность : 1 ч. 55 м.
Вид битрейта : Постоянный
Битрейт : 192 Кбит/сек
Каналы : 2 канала
Channel layout : L R
Частота : 48,0 КГц
Частота кадров : 31,250 кадров/сек (1536 SPF)
Метод сжатия : С потерями
Размер потока : 159 Мбайт (1%)
Заголовок : MVO (НЛО)
Язык : Ukrainian
Service kind : Complete Main
Default : Нет
Forced : Нет

Аудио #11
Идентификатор : 12
Формат : AC-3
Формат/Информация : Audio Coding 3
Коммерческое название : Dolby Digital
Идентификатор кодека : A_AC3
Продолжительность : 1 ч. 55 м.
Вид битрейта : Постоянный
Битрейт : 192 Кбит/сек
Каналы : 2 канала
Channel layout : L R
Частота : 48,0 КГц
Частота кадров : 31,250 кадров/сек (1536 SPF)
Метод сжатия : С потерями
Размер потока : 159 Мбайт (1%)
Заголовок : MVO (2+2)
Язык : Ukrainian
Service kind : Complete Main
Default : Нет
Forced : Нет

Аудио #12
Идентификатор : 13
Формат : AC-3
Формат/Информация : Audio Coding 3
Коммерческое название : Dolby Digital
Идентификатор кодека : A_AC3
Продолжительность : 1 ч. 55 м.
Вид битрейта : Постоянный
Битрейт : 640 Кбит/сек
Каналы : 6 каналов
Channel layout : L R C LFE Ls Rs
Частота : 48,0 КГц
Частота кадров : 31,250 кадров/сек (1536 SPF)
Метод сжатия : С потерями
Размер потока : 531 Мбайт (4%)
Язык : English
Service kind : Complete Main
Default : Нет
Forced : Нет

Текст #1
Идентификатор : 14
Формат : UTF-8
Идентификатор кодека : S_TEXT/UTF8
Идентификатор кодека/Информация : UTF-8 Plain Text
Продолжительность : 1 ч. 49 м.
Битрейт : 9 бит/сек
Частота кадров : 0,024 кадр/сек
Count of elements : 160
Размер потока : 7,81 Кбайт (0%)
Заголовок : Forced (Netflix)
Язык : Russian
Default : Да
Forced : Нет

Текст #2
Идентификатор : 15
Формат : UTF-8
Идентификатор кодека : S_TEXT/UTF8
Идентификатор кодека/Информация : UTF-8 Plain Text
Продолжительность : 1 ч. 49 м.
Битрейт : 71 бит/сек
Частота кадров : 0,178 кадр/сек
Count of elements : 1166
Размер потока : 56,8 Кбайт (0%)
Заголовок : Full (Netflix)
Язык : Russian
Default : Нет
Forced : Нет

Текст #3
Идентификатор : 16
Формат : UTF-8
Идентификатор кодека : S_TEXT/UTF8
Идентификатор кодека/Информация : UTF-8 Plain Text
Продолжительность : 1 ч. 47 м.
Битрейт : 69 бит/сек
Частота кадров : 0,126 кадр/сек
Count of elements : 811
Размер потока : 54,6 Кбайт (0%)
Заголовок : Full
Язык : Russian
Default : Нет
Forced : Нет

Текст #4
Идентификатор : 17
Формат : UTF-8
Идентификатор кодека : S_TEXT/UTF8
Идентификатор кодека/Информация : UTF-8 Plain Text
Продолжительность : 1 ч. 48 м.
Битрейт : 66 бит/сек
Частота кадров : 0,180 кадр/сек
Count of elements : 1171
Размер потока : 52,6 Кбайт (0%)
Заголовок : Full (Netflix)
Язык : Ukrainian
Default : Нет
Forced : Нет

Текст #5
Идентификатор : 18
Формат : UTF-8
Идентификатор кодека : S_TEXT/UTF8
Идентификатор кодека/Информация : UTF-8 Plain Text
Продолжительность : 1 ч. 38 м.
Битрейт : 46 бит/сек
Частота кадров : 0,157 кадр/сек
Count of elements : 930
Размер потока : 33,4 Кбайт (0%)
Заголовок : Full
Язык : English
Default : Нет
Forced : Нет

Текст #6
Идентификатор : 19
Формат : UTF-8
Идентификатор кодека : S_TEXT/UTF8
Идентификатор кодека/Информация : UTF-8 Plain Text
Продолжительность : 1 ч. 46 м.
Битрейт : 46 бит/сек
Частота кадров : 0,165 кадр/сек
Count of elements : 1055
Размер потока : 36,2 Кбайт (0%)
Заголовок : SDH
Язык : English
Default : Нет
Forced : Нет

Меню
00:00:00.000 : en:Dead in the Water
00:08:42.767 : en:The Lost Command
00:12:59.100 : en:A Special Op
00:15:57.141 : en:The Trojan Horse
00:29:45.058 : en:To Be a Captain
00:33:15.849 : en:Battle Stations
00:36:03.640 : en:The Boarding Party
00:39:55.098 : en:Siege
00:46:49.681 : en:The Floating Target
00:56:29.889 : en:Survivors
00:58:55.847 : en:Heading for England
01:03:03.430 : en:A Real Sea Captain
01:06:36.180 : en:The Battle Below
01:10:02.138 : en:Face-to-Face
01:16:46.554 : en:Depth-Charged
01:21:31.471 : en:160 Meters
01:29:38.095 : en:200 Meters
01:35:31.428 : en:Trigger's Job
01:41:44.636 : en:Fire or Die!
01:48:31.969 : en:Epilogue/End Credits
Загрузка...Cкриншот1 Ю-571 / U-571 (2000) [NOR Transfer / Open Matte] BDRip 1080p [HEVC] 10 bit от OldGamer (RG RIPS CLUB)Загрузка...Cкриншот2 Ю-571 / U-571 (2000) [NOR Transfer / Open Matte] BDRip 1080p [HEVC] 10 bit от OldGamer (RG RIPS CLUB)Загрузка...Cкриншот3 Ю-571 / U-571 (2000) [NOR Transfer / Open Matte] BDRip 1080p [HEVC] 10 bit от OldGamer (RG RIPS CLUB)Загрузка...Cкриншот4 Ю-571 / U-571 (2000) [NOR Transfer / Open Matte] BDRip 1080p [HEVC] 10 bit от OldGamer (RG RIPS CLUB)
Релиз-группа: RIPS CLUB
Сэмпл Торрент🧲 Магнет

Раздача обновлена!
Добавлены звуковые дорожки (Lucky Production / Netflix, TrueDubbing / Paramount, КиноПоиск, неизвестная одноголоска, НЛО, 2+2). Замена субтитров и именованных глав.

Рейтинги КП и IMDB, кнопки "Позвать в чате" и "Спасибо", а также мультитрекерная статистика доступны только зарегистрированным/авторизованным пользователям!

Файлы: 1
  • Ю-571.U-571.2000.NOR.Transfer.BDRip-HEVC.1080p.mkv   11.55 ГБ
Поблагодарили: 14
Andrewshcka, Brooklyn, D16T, Elico1977, FijiMAX, FIXA, Gadzilla 2019, ilyich05, IRIT, ko1ob, SergKote, sharkey71, Tony, Горо
OldGamer
01948011.55 ГБ

Добавление нового комментария

Добавление комментариев доступно только зарегистрированным/авторизованным пользователям.