Чат

⚫︎
Список изменений сайта - https://rips.club/changelog.html (обновлен 24.05.2024)
  • AlexStallone
  • arwis
Онлайн (за 10 мин.): 2
  • Tastod: Раздайте, пожалуйста, Загадочная история Бенджамина Баттона / The Curious Case of Benjamin Button (2008) BDRip 1080p [HEVC] 10 bit от Spartanec1308
  • Гл. Админ: Исправил баг, когда после анонса коллекции все анонсы показывались в спойлере, даже если не являлись коллекцией.
  • Гл. Админ: Исправил баг, когда в ЛС не возможно было удалить сообщение.
  • bronsonw200: Гл. Админ, Как по мне, так смотрится приятнее.
  • Гл. Админ: В светлой теме задний фон сделал чуть потемнее, чтобы было не слишком ярко. В темной теме поисковую строку сделал черной (как в светлой теме), чтобы выделялась. Убрал рамки вокруг элементов форм. Прокрутку страницы в начало сделал плавной. ( отредактировано: )
  • Гл. Админ: В ближайшие дни по вечерам начну подправлять дизайн.
  • Гл. Админ: Готово.
  • Гл. Админ: Управление релизами закончил, но не буду выкладывать на ночь глядя. Утром протестирую на локальном компе, и днем выложу.
  • Гл. Админ: Фон баннера релиз-группы сделал прозрачным и перезалил на внешнем хостинге.
  • OldGamer: было бы неплохо
  • Гл. Админ: Управление релизами наверно сегодня закончу.
  • HANNIBAL: Сообщение удалено (удалил: HANNIBAL)
  • HANNIBAL: Гл. Админ, не привычно
  • Гл. Админ: HANNIBAL, хорошего или плохого?
  • HANNIBAL: эт чей-то вы тут натворили с сайтом ;)
  • Гл. Админ: ExoticDeer, просто в будущем будет несколько новостных строчек и они будут автоматически переключаться по кругу, поэтому не хочется статичную. Могу ещё уменьшить частоту, если всё равно будет отвлекать. ( отредактировано: )
  • Гл. Админ: ExoticDeer, уменьшил частоту мигания с 5 сек. до 10 сек.
  • ExoticDeer: Гл. Админ, про мигание, скорее отвлекает, особенно на тёмной теме. статичная хорошо смотрелась
  • Гл. Админ: Winsent, Исправил. Теперь, при просмотре комментариев конкретного пользователя, эта галочка не играет роли. Спасибо, что сообщили.
  • Гл. Админ: Winsent, сначала не поверил своим глазам. Это было оооочень странно. Но кажется теперь понял в чем проблема. Ошибка появляется, если в настройках не установлена галочка "Получать уведомления о всех комментариях". Причем у разных пользователей проявляется по разному - у кого-то ничего не показывается, а у кого-то показывается часть комментариев. Поэтому мне долго не удавалось воспроизвести ошибку. Сейчас исправлю.
Отправка сообщений доступна только зарегистрированным/авторизованным пользователям.

🎥︎Люди под лестницей / The People Under the Stairs (1991) BDRip 1080p [HEVC] 10 bit от HANNIBAL


Обложка Люди под лестницей / The People Under the Stairs (1991) BDRip 1080p [HEVC] 10 bit от HANNIBAL
HEVC
10 bit
✂︎Сэмпл⤓︎Торрент🧲︎Магнет$Пожертвования
Год: 1991
Страна: США
Студия: Alive Films, Universal Pictures
Жанр: Ужасы, Триллер
Длительность: 01:41:56

Режиссер: Уэс Крэйвен
В ролях: Брэндон Квинтин Адамс, Эверет МакГилл, Уэнди Роби, А.Дж. Ленджер, Винг Реймз, Шон Уэйлен, Билл Коббс, Келли Джо Минтер, Джереми Робертс, Конни Мари Бразелтон

Описание: В каждом городе есть дом, о котором рассказывают ужасные вещи. Взрослые говорят об этом месте шепотом, а все соседские ребятишки обходят его стороной. От таких мрачных домов веет сыростью и смертью. И вряд ли найдется смельчак, который, даже на спор отважится приблизиться к страшному месту в сумраке ночи. Но случилось так, что однажды обыкновенный десятилетний мальчик вступил в жуткое жилище. Тот кошмар, который пришлось испытать маленькому герою, невозможно описать словами...


Видео: 1920x1064, 5435 Kbps
Аудио: DTS, 2 ch, 768 Kbps - РусскийРусский, Дублированный (Лицензия)
Субтитры: нет

МедиаинфоGeneral
Unique ID : 118230401727641507194842836490584200897 (0x58F258DBB4450B1C900F0A9892AA16C1)
Complete name : D:\ВИДЕО\[HEVC]\The People Under the Stairs (1991) BDRip 1080p [HEVC] 10bit.mkv
Format : Matroska
Format version : Version 4 / Version 2
File size : 4.42 GiB
Duration : 1 h 41 min
Overall bit rate : 6 205 kb/s
Encoded date : UTC 2018-08-24 21:35:35
Writing application : mkvmerge v20.0.0 ('I Am The Sun') 64-bit
Writing library : libebml v1.3.5 + libmatroska v1.4.8 / Lavf57.71.100
Cover : Yes
Attachments : cover.jpg
ENCODING_INFO : MPEGTS > MKV 1080p 10-bit / H264 > X265 ABR 5500kbps Medium / DTS > DTS CBR 768kbps

Video
ID : 1
Format : HEVC
Format/Info : High Efficiency Video Coding
Format profile : Main 10@L5.1@Main
Codec ID : V_MPEGH/ISO/HEVC
Duration : 1 h 41 min
Bit rate : 5 435 kb/s
Width : 1 920 pixels
Height : 1 064 pixels
Display aspect ratio : 16:9
Frame rate mode : Constant
Frame rate : 23.976 (24000/1001) FPS
Color space : YUV
Chroma subsampling : 4:2:0
Bit depth : 10 bits
Bits/(Pixel*Frame) : 0.111
Stream size : 3.87 GiB (88%)
Writing library : x265 2.8+19-bcdc610cf5f0:[Windows][GCC 7.3.0][64 bit] 10bit
Encoding settings : cpuid=1111039 / frame-threads=13 / numa-pools=12 / wpp / no-pmode / no-pme / no-psnr / no-ssim / log-level=3 / input-csp=1 / input-res=1920x1064 / interlace=0 / total-frames=0 / level-idc=51 / high-tier=1 / uhd-bd=0 / ref=5 / allow-non-conformance / no-repeat-headers / annexb / no-aud / no-hrd / info / hash=0 / no-temporal-layers / open-gop / min-keyint=24 / keyint=240 / gop-lookahead=0 / bframes=8 / b-adapt=2 / b-pyramid / bframe-bias=0 / rc-lookahead=20 / lookahead-slices=6 / scenecut=40 / radl=0 / no-intra-refresh / ctu=64 / min-cu-size=8 / no-rect / no-amp / max-tu-size=32 / tu-inter-depth=1 / tu-intra-depth=1 / limit-tu=0 / rdoq-level=0 / dynamic-rd=0.00 / no-ssim-rd / signhide / no-tskip / nr-intra=0 / nr-inter=0 / no-constrained-intra / strong-intra-smoothing / max-merge=2 / limit-refs=3 / no-limit-modes / me=3 / subme=7 / merange=57 / temporal-mvp / weightp / no-weightb / no-analyze-src-pics / deblock=-2:-2 / sao / no-sao-non-deblock / rd=3 / no-early-skip / rskip / no-fast-intra / no-tskip-fast / no-cu-lossless / no-b-intra / no-splitrd-skip / rdpenalty=0 / psy-rd=2.00 / psy-rdoq=0.00 / no-rd-refine / no-lossless / cbqpoffs=0 / crqpoffs=0 / rc=abr / bitrate=5500 / qcomp=0.60 / qpstep=4 / stats-write=0 / stats-read=0 / ipratio=1.40 / pbratio=1.30 / aq-mode=1 / aq-strength=1.00 / cutree / zone-count=0 / no-strict-cbr / qg-size=32 / no-rc-grain / qpmax=69 / qpmin=0 / no-const-vbv / sar=1 / overscan=0 / videoformat=5 / range=0 / colorprim=1 / transfer=1 / colormatrix=1 / chromaloc=0 / display-window=0 / max-cll=0,0 / min-luma=0 / max-luma=1023 / log2-max-poc-lsb=8 / vui-timing-info / vui-hrd-info / slices=1 / no-opt-qp-pps / no-opt-ref-list-length-pps / no-multi-pass-opt-rps / scenecut-bias=0.05 / no-opt-cu-delta-qp / no-aq-motion / no-hdr / no-hdr-opt / no-dhdr10-opt / no-idr-recovery-sei / analysis-reuse-level=5 / scale-factor=0 / refine-intra=0 / refine-inter=0 / refine-mv=0 / no-limit-sao / ctu-info=0 / no-lowpass-dct / refine-mv-type=0 / copy-pic=1 / max-ausize-factor=1.0 / no-dynamic-refine / no-single-sei
Default : Yes
Forced : No
Color range : Limited
Color primaries : BT.709
Transfer characteristics : BT.709
Matrix coefficients : BT.709

Audio
ID : 2
Format : DTS
Format/Info : Digital Theater Systems
Codec ID : A_DTS
Duration : 1 h 41 min
Bit rate mode : Constant
Bit rate : 768 kb/s
Channel(s) : 2 channels
Channel positions : Front: L R
Sampling rate : 48.0 kHz
Frame rate : 93.750 FPS (512 SPF)
Bit depth : 16 bits
Compression mode : Lossy
Stream size : 560 MiB (12%)
Default : Yes
Forced : No
Загрузка...Cкриншот1 Люди под лестницей / The People Under the Stairs (1991) BDRip 1080p [HEVC] 10 bit от HANNIBALЗагрузка...Cкриншот2 Люди под лестницей / The People Under the Stairs (1991) BDRip 1080p [HEVC] 10 bit от HANNIBALЗагрузка...Cкриншот3 Люди под лестницей / The People Under the Stairs (1991) BDRip 1080p [HEVC] 10 bit от HANNIBALЗагрузка...Cкриншот4 Люди под лестницей / The People Under the Stairs (1991) BDRip 1080p [HEVC] 10 bit от HANNIBAL
Поблагодарили: 2icesnoop, sanmitsu
Файлы: 1
  • The People Under the Stairs (1991) BDRip 1080p [HEVC] 10bit.mkv

Рейтинги КП и IMDB, кнопки "Раздайте, пожалуйста" и "Спасибо", а также мультитрекерная статистика доступны только зарегистрированным/авторизованным пользователям!

HANNIBAL
0129214.42 ГБ

💬︎ Комментарии

Добавление комментариев доступно только зарегистрированным/авторизованным пользователям.

Всего: 1
Аватар не указан
mishonok
Классный напряженный фильм. Спасибо!!!!