💬 Мини-чат

Для тех, кому интересен процесс переделки сайта - https://rips.club/changelog.html (обновлен 20.04.2024)
  • Странник
Отправка сообщений доступна только зарегистрированным/авторизованным пользователям.
Онлайн (за 10 мин.): 1

Полиция Майами: Отдел нравов / Miami Vice (1986-1987) [3 сезон] BDRip 1080p [HEVC] 10 bit от OldGamer (RG RIPS CLUB)

HEVC
10 bit
Обложка Полиция Майами: Отдел нравов / Miami Vice (1986-1987) [3 сезон] BDRip 1080p [HEVC] 10 bit от OldGamer (RG RIPS CLUB) Год: 1986-1987
Страна: США
Студия: Michael Mann Productions, Universal TV
Жанр: Боевик, Триллер, Драма, Криминал
Продолжительность: 19:23:21

Режиссер: Джон Николелла, Ричард Комптон, Леон Ичасо
В ролях: Дон Джонсон, Филип Майкл Томас, Сандра Сантьяго, Оливия Браун, Майкл Тэлботт, Эдвард Джеймс Олмос, Джон Дил, Роберт Пэйсли, Мартин Ферреро, Рафаэль Рей Гомез

Описание: Сериал рассказывает о нелёгкой работе полицейских Майами. Санни Крокетт и его напарник и одновременно близкий друг Таббс расследуют жестокие убийства, изнасилования и ограбления. Полицейские всегда находят преступников и защищают слабых.


Исходник: Blu-Ray Remux 1080p (rutor)
Видео: 1460x1080 (4:3), 5281-11800 Кбит/сек, HEVC (Main10@L.4.1@High)
Аудио1: AC3, 2 ch, 192 Kbps - РусскийРусский, MVO (CTC)
Аудио2: AC3, 2 ch, 192 Kbps - EnglishEnglish, Original
Субтитры: Отсутствуют

Как за пару секунд удалить ненужные аудиодорожки и субтитры (Внимание! После удаления вы не сможете поддержать раздачу)

Лог (x265 info)
x265 [info]: frame I: 307, Avg QP:17.03 kb/s: 18019.77
x265 [info]: frame P: 12684, Avg QP:18.19 kb/s: 14720.79
x265 [info]: frame B: 57626, Avg QP:20.23 kb/s: 7271.32
x265 [info]: Weighted P-Frames: Y:13.5% UV:9.8%
x265 [info]: Weighted B-Frames: Y:8.1% UV:5.5%
x265 [info]: consecutive B-frames: 1.2% 1.4% 1.8% 17.5% 11.1% 63.2% 2.2% 0.8% 0.4% 0.1% 0.2%
x265 [info]: encoded 70617 frames in 42284.58s (1.67 fps), 8656.10 kb/s, Avg QP:19.85
Медиаинфо
Общее
Уникальный идентификатор : 304945155629372218167797401866913502396 (0xE56A4CF83366778C0E8CF92A6F18D4BC)
Полное имя : \\.\Miami.Vice.S03E15.Duty.and.Honor.mkv
Формат : Matroska
Версия формата : Version 4
Размер файла : 3,10 Гбайт
Продолжительность : 49 м. 5 с.
Общий поток : 9 043 Кбит/сек
Название фильма : Miami.Vice.S03E15.Duty.and.Honor
Дата кодирования : UTC 2022-07-08 17:42:59
Программа кодирования : mkvmerge v68.0.0 ('The Curtain') 64-bit
Библиотека кодирования : libebml v1.4.2 + libmatroska v1.6.4

Видео
Идентификатор : 1
Формат : HEVC
Формат/Информация : High Efficiency Video Coding
Профиль формата : Main 10@L4.1@High
Идентификатор кодека : V_MPEGH/ISO/HEVC
Продолжительность : 49 м. 5 с.
Битрейт : 8 657 Кбит/сек
Ширина : 1 460 пикселей
Высота : 1 080 пикселей
Соотношение сторон : 4:3
Режим частоты кадров : Постоянный
Частота кадров : 23,976 (24000/1001) кадра/сек
Цветовое пространство : YUV
Субдискретизация насыщенности : 4:2:0
Битовая глубина : 10 бит
Бит/(Пиксели*Кадры) : 0.229
Размер потока : 2,97 Гбайт (96%)
Заголовок : Miami Vice S03E15 / Rip by OldGamer
Библиотека кодирования : x265 3.5+35-e3713124d:[Windows][GCC 11.2.0][64 bit] 10bit
Настройки программы : cpuid=1111039 / frame-threads=4 / numa-pools=16 / wpp / no-pmode / no-pme / no-psnr / no-ssim / log-level=2 / input-csp=1 / input-res=1460x1080 / interlace=0 / total-frames=70617 / level-idc=41 / high-tier=1 / uhd-bd=0 / ref=5 / no-allow-non-conformance / no-repeat-headers / annexb / no-aud / no-eob / no-eos / no-hrd / info / hash=0 / no-temporal-layers / open-gop / min-keyint=23 / keyint=240 / gop-lookahead=0 / bframes=10 / b-adapt=2 / b-pyramid / bframe-bias=0 / rc-lookahead=40 / lookahead-slices=0 / scenecut=40 / no-hist-scenecut / radl=0 / no-splice / no-intra-refresh / ctu=32 / min-cu-size=8 / rect / amp / max-tu-size=32 / tu-inter-depth=4 / tu-intra-depth=4 / limit-tu=1 / rdoq-level=2 / dynamic-rd=0.00 / no-ssim-rd / signhide / no-tskip / nr-intra=0 / nr-inter=0 / no-constrained-intra / no-strong-intra-smoothing / max-merge=5 / limit-refs=3 / no-limit-modes / me=3 / subme=7 / merange=57 / temporal-mvp / no-frame-dup / no-hme / weightp / weightb / no-analyze-src-pics / deblock=-2:-2 / no-sao / no-sao-non-deblock / rd=6 / selective-sao=0 / no-early-skip / no-rskip / no-fast-intra / no-tskip-fast / no-cu-lossless / b-intra / no-splitrd-skip / rdpenalty=0 / psy-rd=2.00 / psy-rdoq=1.00 / no-rd-refine / no-lossless / cbqpoffs=0 / crqpoffs=0 / rc=crf / crf=20.0 / qcomp=0.60 / qpstep=4 / stats-write=0 / stats-read=0 / vbv-maxrate=50000 / vbv-bufsize=50000 / vbv-init=0.9 / min-vbv-fullness=50.0 / max-vbv-fullness=80.0 / crf-max=0.0 / crf-min=0.0 / ipratio=1.40 / pbratio=1.30 / aq-mode=1 / aq-strength=1.00 / no-cutree / zone-count=0 / no-strict-cbr / qg-size=32 / no-rc-grain / qpmax=69 / qpmin=0 / no-const-vbv / sar=1 / overscan=0 / videoformat=5 / range=0 / colorprim=2 / transfer=2 / colormatrix=2 / chromaloc=0 / display-window=0 / cll=0,0 / min-luma=0 / max-luma=1023 / log2-max-poc-lsb=8 / vui-timing-info / vui-hrd-info / slices=1 / no-opt-qp-pps / no-opt-ref-list-length-pps / no-multi-pass-opt-rps / scenecut-bias=0.00 / hist-threshold=0.03 / no-opt-cu-delta-qp / no-aq-motion / no-hdr10 / no-hdr10-opt / no-dhdr10-opt / no-idr-recovery-sei / analysis-reuse-level=0 / analysis-save-reuse-level=0 / analysis-load-reuse-level=0 / scale-factor=0 / refine-intra=0 / refine-inter=0 / refine-mv=1 / refine-ctu-distortion=0 / no-limit-sao / ctu-info=0 / no-lowpass-dct / refine-analysis-type=0 / copy-pic=1 / max-ausize-factor=1.0 / no-dynamic-refine / no-single-sei / no-hevc-aq / no-svt / no-field / qp-adaptation-range=1.00 / scenecut-aware-qp=0conformance-window-offsets / right=0 / bottom=0 / decoder-max-rate=0 / no-vbv-live-multi-pass
Язык : English
Default : Да
Forced : Нет

Аудио #1
Идентификатор : 2
Формат : AC-3
Формат/Информация : Audio Coding 3
Коммерческое название : Dolby Digital
Идентификатор кодека : A_AC3
Продолжительность : 49 м. 5 с.
Вид битрейта : Постоянный
Битрейт : 192 Кбит/сек
Каналы : 2 канала
Channel layout : L R
Частота : 48,0 КГц
Частота кадров : 31,250 кадров/сек (1536 SPF)
Метод сжатия : С потерями
Размер потока : 67,4 Мбайт (2%)
Заголовок : MVO-CTC
Язык : Russian
Service kind : Complete Main
Default : Да
Forced : Нет

Аудио #2
Идентификатор : 3
Формат : AC-3
Формат/Информация : Audio Coding 3
Коммерческое название : Dolby Digital
Идентификатор кодека : A_AC3
Продолжительность : 49 м. 5 с.
Вид битрейта : Постоянный
Битрейт : 192 Кбит/сек
Каналы : 2 канала
Channel layout : L R
Частота : 48,0 КГц
Частота кадров : 31,250 кадров/сек (1536 SPF)
Метод сжатия : С потерями
Размер потока : 67,4 Мбайт (2%)
Заголовок : Dolby Digital Audio / 2.0 / 48 kHz / 192 kbps
Язык : English
Service kind : Complete Main
Default : Нет
Forced : Нет
Загрузка...Cкриншот1 Полиция Майами: Отдел нравов / Miami Vice (1986-1987) [3 сезон] BDRip 1080p [HEVC] 10 bit от OldGamer (RG RIPS CLUB)Загрузка...Cкриншот2 Полиция Майами: Отдел нравов / Miami Vice (1986-1987) [3 сезон] BDRip 1080p [HEVC] 10 bit от OldGamer (RG RIPS CLUB)Загрузка...Cкриншот3 Полиция Майами: Отдел нравов / Miami Vice (1986-1987) [3 сезон] BDRip 1080p [HEVC] 10 bit от OldGamer (RG RIPS CLUB)Загрузка...Cкриншот4 Полиция Майами: Отдел нравов / Miami Vice (1986-1987) [3 сезон] BDRip 1080p [HEVC] 10 bit от OldGamer (RG RIPS CLUB)
Релиз-группа: RIPS CLUB
Сэмпл Торрент🧲 Магнет

Рейтинги КП и IMDB, кнопки "Позвать в чате" и "Спасибо", а также мультитрекерная статистика доступны только зарегистрированным/авторизованным пользователям!

Файлы: 24
  • Miami.Vice.S03.1986-1987.BDRip-HEVC.1080p
    • Miami.Vice.S03E01.When.Irish.Eyes.Are.Crying.mkv   2.66 ГБ
    • Miami.Vice.S03E02.Stone's.War.mkv   2.42 ГБ
    • Miami.Vice.S03E03.Killshot.mkv   3.6 ГБ
    • Miami.Vice.S03E04.Walk-Alone.mkv   2.46 ГБ
    • Miami.Vice.S03E05.The.Good.Collar.mkv   4.03 ГБ
    • Miami.Vice.S03E06.Shadow.in.the.Dark.mkv   2.67 ГБ
    • Miami.Vice.S03E07.El.Viejo.mkv   2.9 ГБ
    • Miami.Vice.S03E08.Better.Living.Through.Chemistry.mkv   3.64 ГБ
    • Miami.Vice.S03E09.Baby.Blues.mkv   4.13 ГБ
    • Miami.Vice.S03E10.Streetwise.mkv   2.83 ГБ
    • Miami.Vice.S03E11.Forgive.Us.Our.Debts.mkv   2.46 ГБ
    • Miami.Vice.S03E12.Down.for.the.Count.mkv   2.97 ГБ
    • Miami.Vice.S03E13.Down.for.the.Count.Part.II.mkv   2.59 ГБ
    • Miami.Vice.S03E14.Cuba.Libre.mkv   2.88 ГБ
    • Miami.Vice.S03E15.Duty.and.Honor.mkv   3.1 ГБ
    • Miami.Vice.S03E16.Theresa.mkv   2.72 ГБ
    • Miami.Vice.S03E17.The.Afternoon.Plane.mkv   2.67 ГБ
    • Miami.Vice.S03E18.Lend.Me.an.Ear.mkv   2.51 ГБ
    • Miami.Vice.S03E19.Red.Tape.mkv   4.03 ГБ
    • Miami.Vice.S03E20.By.Hooker.by.Crook.mkv   2.61 ГБ
    • Miami.Vice.S03E21.Knock.Knock.Who's.There.mkv   3.69 ГБ
    • Miami.Vice.S03E22.Viking.Bikers.from.Hell.mkv   1.88 ГБ
    • Miami.Vice.S03E23.Everybody's.in.Show.Biz.mkv   3.51 ГБ
    • Miami.Vice.S03E24.Heroes.of.the.Revolution.mkv   2.9 ГБ
Поблагодарили: 3
Elico1977, ilyich05, Kilop77
OldGamer
05100 (24)  71.85 ГБ

Добавление нового комментария

Добавление комментариев доступно только зарегистрированным/авторизованным пользователям.