💬 Мини-чат

Убедительная просьба не обсуждать тут политику.
МичманADVOKAT69, ✋
ADVOKAT69Spartanec1308, ✋
AlexTwittAdmin, странно, что только на 1 часть 😃
AdminРелизы Гоголь - старые. Просто вытащил из антологии, так как на первую часть пришла жалоба, и придется заблокировать.
Отправка сообщений доступна только зарегистрированным/авторизованным пользователям.
Онлайн (за 10 мин.): 0

Плезантвиль / Pleasantville (1998) BDRip 1080p [HEVC] 10 bit от OldGamer (RG RIPS CLUB)

HEVC
10 bit
Обложка Плезантвиль / Pleasantville (1998) BDRip 1080p [HEVC] 10 bit от OldGamer (RG RIPS CLUB) Год: 1998
Страна: США
Студия: Larger Than Life Productions, New Line Cinema
Жанр: Фэнтези, Драма, Комедия
Продолжительность: 02:04:31

Режиссер: Гэри Росс
В ролях: Тоби Магуайр, Риз Уизерспун, Уильям Х. Мэйси, Джоан Аллен, Джефф Дэниелс, Дон Ноттс, Пол Уокер, Дж.Т. Уолш, Джейн Качмарек, Марли Шелтон

Описание: Дэвид Вагнер - дитя девяностых. Но он увлечён телевизионным шоу «Плезантвиль», где действие происходит в 50-е годы в небольшом одноимённом городке, где все шикарны, веселы и непорочны, и жизнь удивительно приятна. Заворожённый этим утопическим миром Дэвид воображает себя в «Плезантвиле», где он наконец-то избавился бы от своей взбалмошной и помешанной на парнях сестры Дженнифер. И однажды вечером жизнь совершает причудливый поворот: странный телемастер вручает Дэвиду необычный пульт дистанционного управления, который отправляет его вместе с сестрой прямо в Плезантвиль. Визит пришельцев не прошёл для города бесследно, удивительным образом изменив судьбы его обитателей.


Исходник: Blu-Ray Remux 1080p (rutracker)
Видео: 1920x1080 (16:9), 8455 Кбит/сек, HEVC (Main10@L.4.1@High)
Аудио1: AC3, 6 ch, 448 Kbps - РусскийРусский, MVO (CP Digital / R5)
Аудио2: AC3, 6 ch, 448 Kbps - РусскийРусский, DVO (НТВ)
Аудио3: AC3, 6 ch, 640 Kbps - РусскийРусский, AVO (Юрий Живов)
Аудио4: AC3, 6 ch, 640 Kbps - РусскийРусский, AVO (Павел Санаев)
Аудио5: AC3, 6 ch, 640 Kbps - EnglishEnglish, Original
Субтитры: русские, английские (SDH)

Как за пару секунд удалить ненужные аудиодорожки и субтитры (Внимание! После удаления вы не сможете поддержать раздачу)

Лог (x265 info)
x265 [info]: frame I: 750, Avg QP:18.14 kb/s: 20259.41
x265 [info]: frame P: 33038, Avg QP:19.30 kb/s: 15857.43
x265 [info]: frame B: 145339, Avg QP:21.31 kb/s: 6709.86
x265 [info]: Weighted P-Frames: Y:15.8% UV:7.3%
x265 [info]: Weighted B-Frames: Y:8.1% UV:4.0%
x265 [info]: consecutive B-frames: 1.9% 2.6% 3.9% 27.9% 7.2% 44.8% 3.2% 7.0% 0.5% 0.3% 0.1% 0.1% 0.1% 0.1% 0.1% 0.2%
x265 [info]: encoded 179127 frames in 148678.29s (1.20 fps), 8453.76 kb/s, Avg QP:20.93
Медиаинфо
Общее
Уникальный идентификатор : 200706133452047467530918194194538780298 (0x96FE9861E4EE57D9610B50986A37568A)
Полное имя : \\.\Плезантвиль.Pleasantville.1998.BDRip-HEVC.1080p.mkv
Формат : Matroska
Версия формата : Version 4
Размер файла : 9,81 Гбайт
Продолжительность : 2 ч. 4 м.
Общий поток : 11,3 Мбит/сек
Название фильма : Плезантвиль.Pleasantville.1998.BDRip-HEVC.1080p
Дата кодирования : UTC 2022-07-27 00:58:25
Программа кодирования : mkvmerge v69.0.0 ('Day And Age') 64-bit
Библиотека кодирования : libebml v1.4.2 + libmatroska v1.6.4
Обложка : Yes
Attachments : cover.jpg

Видео
Идентификатор : 1
Формат : HEVC
Формат/Информация : High Efficiency Video Coding
Профиль формата : Main 10@L4.1@High
Идентификатор кодека : V_MPEGH/ISO/HEVC
Продолжительность : 2 ч. 4 м.
Битрейт : 8 455 Кбит/сек
Ширина : 1 920 пикселей
Высота : 1 080 пикселей
Соотношение сторон : 16:9
Режим частоты кадров : Постоянный
Частота кадров : 23,976 (24000/1001) кадра/сек
Цветовое пространство : YUV
Субдискретизация насыщенности : 4:2:0
Битовая глубина : 10 бит
Бит/(Пиксели*Кадры) : 0.170
Размер потока : 7,35 Гбайт (75%)
Заголовок : Pleasantville / Rip by OldGamer
Библиотека кодирования : x265 3.5+35-e3713124d:[Windows][GCC 11.2.0][64 bit] 10bit
Настройки программы : cpuid=1111039 / frame-threads=3 / numa-pools=8 / wpp / no-pmode / no-pme / no-psnr / no-ssim / log-level=2 / input-csp=1 / input-res=1920x1080 / interlace=0 / total-frames=179127 / level-idc=41 / high-tier=1 / uhd-bd=0 / ref=5 / no-allow-non-conformance / no-repeat-headers / annexb / no-aud / no-eob / no-eos / no-hrd / info / hash=0 / no-temporal-layers / open-gop / min-keyint=23 / keyint=240 / gop-lookahead=0 / bframes=15 / b-adapt=2 / b-pyramid / bframe-bias=0 / rc-lookahead=40 / lookahead-slices=0 / scenecut=40 / no-hist-scenecut / radl=0 / no-splice / no-intra-refresh / ctu=32 / min-cu-size=8 / rect / amp / max-tu-size=32 / tu-inter-depth=4 / tu-intra-depth=4 / limit-tu=1 / rdoq-level=2 / dynamic-rd=0.00 / no-ssim-rd / signhide / no-tskip / nr-intra=0 / nr-inter=0 / no-constrained-intra / no-strong-intra-smoothing / max-merge=5 / limit-refs=3 / no-limit-modes / me=3 / subme=7 / merange=57 / temporal-mvp / no-frame-dup / no-hme / weightp / weightb / no-analyze-src-pics / deblock=-2:-2 / no-sao / no-sao-non-deblock / rd=6 / selective-sao=0 / no-early-skip / no-rskip / no-fast-intra / no-tskip-fast / no-cu-lossless / b-intra / no-splitrd-skip / rdpenalty=0 / psy-rd=2.00 / psy-rdoq=1.00 / no-rd-refine / no-lossless / cbqpoffs=0 / crqpoffs=0 / rc=crf / crf=19.3 / qcomp=0.60 / qpstep=4 / stats-write=0 / stats-read=0 / vbv-maxrate=50000 / vbv-bufsize=50000 / vbv-init=0.9 / min-vbv-fullness=50.0 / max-vbv-fullness=80.0 / crf-max=0.0 / crf-min=0.0 / ipratio=1.40 / pbratio=1.30 / aq-mode=1 / aq-strength=1.00 / no-cutree / zone-count=1 / zones: / start-frame=167854 / end-frame=179127 / qp=36 / no-strict-cbr / qg-size=32 / no-rc-grain / qpmax=69 / qpmin=0 / no-const-vbv / sar=1 / overscan=0 / videoformat=5 / range=0 / colorprim=2 / transfer=2 / colormatrix=2 / chromaloc=0 / display-window=0 / cll=0,0 / min-luma=0 / max-luma=1023 / log2-max-poc-lsb=8 / vui-timing-info / vui-hrd-info / slices=1 / no-opt-qp-pps / no-opt-ref-list-length-pps / no-multi-pass-opt-rps / scenecut-bias=0.00 / hist-threshold=0.03 / no-opt-cu-delta-qp / no-aq-motion / no-hdr10 / no-hdr10-opt / no-dhdr10-opt / no-idr-recovery-sei / analysis-reuse-level=0 / analysis-save-reuse-level=0 / analysis-load-reuse-level=0 / scale-factor=0 / refine-intra=0 / refine-inter=0 / refine-mv=1 / refine-ctu-distortion=0 / no-limit-sao / ctu-info=0 / no-lowpass-dct / refine-analysis-type=0 / copy-pic=1 / max-ausize-factor=1.0 / no-dynamic-refine / no-single-sei / no-hevc-aq / no-svt / no-field / qp-adaptation-range=1.00 / scenecut-aware-qp=0conformance-window-offsets / right=0 / bottom=0 / decoder-max-rate=0 / no-vbv-live-multi-pass
Язык : English
Default : Да
Forced : Нет

Аудио #1
Идентификатор : 2
ID in the original source medium : 4354 (0x1102)
Формат : AC-3
Формат/Информация : Audio Coding 3
Коммерческое название : Dolby Digital
Идентификатор кодека : A_AC3
Продолжительность : 2 ч. 4 м.
Вид битрейта : Постоянный
Битрейт : 448 Кбит/сек
Каналы : 6 каналов
Channel layout : L R C LFE Ls Rs
Частота : 48,0 КГц
Частота кадров : 31,250 кадров/сек (1536 SPF)
Метод сжатия : С потерями
Размер потока : 399 Мбайт (4%)
Заголовок : MVO (CP Digital / R5)
Язык : Russian
Service kind : Complete Main
Default : Нет
Forced : Нет
Носитель оригинала : Blu-ray

Аудио #2
Идентификатор : 3
ID in the original source medium : 4358 (0x1106)
Формат : AC-3
Формат/Информация : Audio Coding 3
Коммерческое название : Dolby Digital
Идентификатор кодека : A_AC3
Продолжительность : 2 ч. 4 м.
Вид битрейта : Постоянный
Битрейт : 448 Кбит/сек
Каналы : 6 каналов
Channel layout : L R C LFE Ls Rs
Частота : 48,0 КГц
Частота кадров : 31,250 кадров/сек (1536 SPF)
Метод сжатия : С потерями
Размер потока : 399 Мбайт (4%)
Заголовок : DVO (НТВ)
Язык : Russian
Service kind : Complete Main
Default : Нет
Forced : Нет
Носитель оригинала : Blu-ray

Аудио #3
Идентификатор : 4
Формат : AC-3
Формат/Информация : Audio Coding 3
Коммерческое название : Dolby Digital
Идентификатор кодека : A_AC3
Продолжительность : 2 ч. 4 м.
Вид битрейта : Постоянный
Битрейт : 640 Кбит/сек
Каналы : 6 каналов
Channel layout : L R C LFE Ls Rs
Частота : 48,0 КГц
Частота кадров : 31,250 кадров/сек (1536 SPF)
Метод сжатия : С потерями
Размер потока : 570 Мбайт (6%)
Заголовок : AVO (Юрий Живов)
Язык : Russian
Service kind : Complete Main
Default : Нет
Forced : Нет

Аудио #4
Идентификатор : 5
Формат : AC-3
Формат/Информация : Audio Coding 3
Коммерческое название : Dolby Digital
Идентификатор кодека : A_AC3
Продолжительность : 2 ч. 4 м.
Вид битрейта : Постоянный
Битрейт : 640 Кбит/сек
Каналы : 6 каналов
Channel layout : L R C LFE Ls Rs
Частота : 48,0 КГц
Частота кадров : 31,250 кадров/сек (1536 SPF)
Метод сжатия : С потерями
Размер потока : 570 Мбайт (6%)
Заголовок : AVO (Павел Санаев)
Язык : Russian
Service kind : Complete Main
Default : Нет
Forced : Нет

Аудио #5
Идентификатор : 6
Формат : AC-3
Формат/Информация : Audio Coding 3
Коммерческое название : Dolby Digital
Идентификатор кодека : A_AC3
Продолжительность : 2 ч. 4 м.
Вид битрейта : Постоянный
Битрейт : 640 Кбит/сек
Каналы : 6 каналов
Channel layout : L R C LFE Ls Rs
Частота : 48,0 КГц
Частота кадров : 31,250 кадров/сек (1536 SPF)
Метод сжатия : С потерями
Размер потока : 570 Мбайт (6%)
Язык : English
Service kind : Complete Main
Default : Нет
Forced : Нет

Текст #1
Идентификатор : 7
Формат : UTF-8
Идентификатор кодека : S_TEXT/UTF8
Идентификатор кодека/Информация : UTF-8 Plain Text
Продолжительность : 1 ч. 56 м.
Битрейт : 85 бит/сек
Частота кадров : 0,198 кадр/сек
Count of elements : 1380
Размер потока : 73,0 Кбайт (0%)
Язык : Russian
Default : Нет
Forced : Нет

Текст #2
Идентификатор : 8
Формат : UTF-8
Идентификатор кодека : S_TEXT/UTF8
Идентификатор кодека/Информация : UTF-8 Plain Text
Продолжительность : 2 ч. 4 м.
Битрейт : 53 бит/сек
Частота кадров : 0,208 кадр/сек
Count of elements : 1548
Размер потока : 48,6 Кбайт (0%)
Заголовок : SDH
Язык : English
Default : Нет
Forced : Нет

Меню
00:00:00.000 : New Line Cinema Logo/Opening Credits
00:00:36.369 : Pleasantville Marathon
00:02:01.120 : "Once Upon a Time"
00:05:59.357 : Trivia
00:07:52.012 : That Night
00:09:55.219 : "We'll Fix You for Good"
00:12:40.718 : "We're in Pleasantville?!"
00:16:58.976 : "Good Morning Kids"
00:19:46.226 : "Stuck in Nerdville"
00:22:55.874 : The Undefeated Pleasantville Lions
00:26:35.342 : Go with the Program
00:28:08.728 : The Soda Shop
00:32:08.217 : Lover's Lane
00:34:11.966 : "Do You Want Some Cookies?"
00:36:27.226 : A Red Rose
00:38:05.699 : With the Universe
00:42:52.736 : The Barber Shop
00:46:24.782 : Betty Takes a Bath
00:48:21.898 : "Fire! Fire! Cat?"
00:50:47.294 : Take Five
00:53:59.569 : Kind of Blue
00:55:46.760 : "Stand Up for What's Right!"
00:57:57.432 : What's A Mother to Do?
01:00:29.334 : A Book of Art
01:02:58.733 : "Those Are Not Your Cookies, Bud!"
01:05:48.903 : "at Last"
01:10:35.481 : From the Tree of Knowledge
01:13:16.642 : Rain
01:16:50.147 : A Question of Values
01:20:52.347 : Caught in the Storm
01:26:15.670 : A Lovely Shade of Blue
01:31:54.133 : Code of Conduct
01:36:00.171 : Civil Disobedience
01:42:11.375 : The Trial
01:49:10.418 : Farewell
01:53:14.454 : "Across the Universe"
01:56:41.994 : End Credits
02:04:30.880 : End
Загрузка...Cкриншот1 Плезантвиль / Pleasantville (1998) BDRip 1080p [HEVC] 10 bit от OldGamer (RG RIPS CLUB)Загрузка...Cкриншот2 Плезантвиль / Pleasantville (1998) BDRip 1080p [HEVC] 10 bit от OldGamer (RG RIPS CLUB)Загрузка...Cкриншот3 Плезантвиль / Pleasantville (1998) BDRip 1080p [HEVC] 10 bit от OldGamer (RG RIPS CLUB)Загрузка...Cкриншот4 Плезантвиль / Pleasantville (1998) BDRip 1080p [HEVC] 10 bit от OldGamer (RG RIPS CLUB)
Релиз-группа: RIPS CLUB
Сэмпл Торрент🧲 Магнет

Рейтинги КП и IMDB, кнопки "Позвать в чате" и "Спасибо", а также мультитрекерная статистика доступны только зарегистрированным/авторизованным пользователям!

Файлы: 1
  • Плезантвиль.Pleasantville.1998.BDRip-HEVC.1080p.mkv   9.81 ГБ
Поблагодарили: 7
donadar, ilyich05, IRIT, ko1ob, SaN161NeK, SergKote, torrentzulu
OldGamer
0138209.81 ГБ

Добавление нового комментария

Добавление комментариев доступно только зарегистрированным/авторизованным пользователям.