💬 Мини-чат

Убедительная просьба не обсуждать тут политику.
МичманADVOKAT69, ✋
ADVOKAT69Spartanec1308, ✋
AlexTwittAdmin, странно, что только на 1 часть 😃
AdminРелизы Гоголь - старые. Просто вытащил из антологии, так как на первую часть пришла жалоба, и придется заблокировать.
  • EiffeL
  • stickstoff
Отправка сообщений доступна только зарегистрированным/авторизованным пользователям.
Онлайн (за 10 мин.): 2

Искусство войны / The Art of War (2000) BDRip 1080p [HEVC] 10 bit от OldGamer (RG RIPS CLUB)

HEVC
10 bit
Обложка Искусство войны / The Art of War (2000) BDRip 1080p [HEVC] 10 bit от OldGamer (RG RIPS CLUB) Год: 2000
Страна: США, Канада
Студия: Amen Ra Films, Canadian Film or Video Production Tax Credit (CPTC), Echelon Productions, Inc., Filmline International Inc.
Жанр: Боевик, Триллер, Криминал, Приключения
Продолжительность: 01:57:24

Режиссер: Кристиан Дюге
В ролях: Уэсли Снайпс, Дональд Сазерленд, Мори Чайкин, Энн Арчер, Мари Матико, Майкл Бин, Кэри-Хироюки Тагава, Лилиана Коморовска, Джеймс Хун, Пол Хопкинс

Описание: Нил Шоу - лучший спецагент секретного подразделения ООН. При выполнении очередного задания он оказывается главным подозреваемым в убийстве китайского посла, которое ставит под угрозу подписание важного соглашения между Китаем и США. Скрываясь от ФБР и вступая в смертельный бой с китайской триадой, Шоу должен снять с себя подозрение и найти убийцу. Но в мире политических тайн и международных заговоров это становится почти невыполнимой задачей. И врагом может оказаться каждый. А награду получит только тот, кто по-настоящему владеет искусством войны.


Исходник: Blu-Ray Remux 1080p (rutracker)
Видео: 1920x800 (2.40:1), 7187 Кбит/сек, HEVC (Main10@L.4.1@High)
Аудио1: AC3, 2 ch, 192 Kbps - РусскийРусский, MVO (РТР)
Аудио2: AC3, 6 ch, 640 Kbps - РусскийРусский, DVO (R5)
Аудио3: AC3, 2 ch, 192 Kbps - РусскийРусский, DVO (REN-TV)
Аудио4: AC3, 6 ch, 640 Kbps - РусскийРусский, AVO (Андрей Гаврилов)
Аудио5: AC3, 6 ch, 640 Kbps - РусскийРусский, AVO (Юрий Живов)
Аудио6: AC3, 6 ch, 640 Kbps - РусскийРусский, AVO (Сергей Визгунов)
Аудио7: AC3, 6 ch, 640 Kbps - РусскийРусский, AVO (Сергей Рябов)
Аудио8: AC3, 2 ch, 192 Kbps - РусскийРусский, AVO (Андрей Дольский)
Аудио9: AC3, 2 ch, 192 Kbps - УкраинскийУкраинский, MVO (ICTV)
Аудио10: AC3, 6 ch, 640 Kbps - EnglishEnglish, Original
Субтитры: русские, английские (SDH)

Как за пару секунд удалить ненужные аудиодорожки и субтитры (Внимание! После удаления вы не сможете поддержать раздачу)

Лог (x265 info)
x265 [info]: frame I: 718, Avg QP:16.99 kb/s: 15107.09
x265 [info]: frame P: 34950, Avg QP:18.38 kb/s: 12539.31
x265 [info]: frame B: 133208, Avg QP:20.55 kb/s: 5738.62
x265 [info]: Weighted P-Frames: Y:9.9% UV:8.5%
x265 [info]: Weighted B-Frames: Y:12.3% UV:9.7%
x265 [info]: consecutive B-frames: 5.1% 5.8% 8.4% 33.8% 9.3% 25.6% 4.3% 5.6% 1.0% 0.7% 0.2% 0.2% 0.1% 0.1%
x265 [info]: encoded 168876 frames in 117320.86s (1.44 fps), 7185.90 kb/s, Avg QP:20.08
Медиаинфо
Общее
Уникальный идентификатор : 268071480103630544300400342365396574397 (0xC9ACB06755F5E267DD4E714D6930A0BD)
Полное имя : \\.\Искусство.войны.The.Art.of.War.2000.BDRip-HEVC.1080p.mkv
Формат : Matroska
Версия формата : Version 4
Размер файла : 9,68 Гбайт
Продолжительность : 1 ч. 57 м.
Общий поток : 11,8 Мбит/сек
Название фильма : Искусство.войны.The.Art.of.War.2000.BDRip-HEVC.1080p
Дата кодирования : UTC 2022-07-29 13:43:39
Программа кодирования : mkvmerge v69.0.0 ('Day And Age') 64-bit
Библиотека кодирования : libebml v1.4.2 + libmatroska v1.6.4

Видео
Идентификатор : 1
Формат : HEVC
Формат/Информация : High Efficiency Video Coding
Профиль формата : Main 10@L4.1@High
Идентификатор кодека : V_MPEGH/ISO/HEVC
Продолжительность : 1 ч. 57 м.
Битрейт : 7 187 Кбит/сек
Ширина : 1 920 пикселей
Высота : 800 пикселей
Соотношение сторон : 2,40:1
Режим частоты кадров : Постоянный
Частота кадров : 23,976 (24000/1001) кадра/сек
Цветовое пространство : YUV
Субдискретизация насыщенности : 4:2:0
Битовая глубина : 10 бит
Бит/(Пиксели*Кадры) : 0.195
Размер потока : 5,89 Гбайт (61%)
Заголовок : The Art of War / Rip by OldGamer
Библиотека кодирования : x265 3.5+35-e3713124d:[Windows][GCC 11.2.0][64 bit] 10bit
Настройки программы : cpuid=1111039 / frame-threads=3 / numa-pools=8 / wpp / no-pmode / no-pme / no-psnr / no-ssim / log-level=2 / input-csp=1 / input-res=1920x800 / interlace=0 / total-frames=168876 / level-idc=41 / high-tier=1 / uhd-bd=0 / ref=5 / no-allow-non-conformance / no-repeat-headers / annexb / no-aud / no-eob / no-eos / no-hrd / info / hash=0 / no-temporal-layers / open-gop / min-keyint=23 / keyint=240 / gop-lookahead=0 / bframes=13 / b-adapt=2 / b-pyramid / bframe-bias=0 / rc-lookahead=40 / lookahead-slices=0 / scenecut=40 / no-hist-scenecut / radl=0 / no-splice / no-intra-refresh / ctu=32 / min-cu-size=8 / rect / amp / max-tu-size=32 / tu-inter-depth=4 / tu-intra-depth=4 / limit-tu=1 / rdoq-level=2 / dynamic-rd=0.00 / no-ssim-rd / signhide / no-tskip / nr-intra=0 / nr-inter=0 / no-constrained-intra / no-strong-intra-smoothing / max-merge=5 / limit-refs=3 / no-limit-modes / me=3 / subme=7 / merange=57 / temporal-mvp / no-frame-dup / no-hme / weightp / weightb / no-analyze-src-pics / deblock=-2:-2 / no-sao / no-sao-non-deblock / rd=6 / selective-sao=0 / no-early-skip / no-rskip / no-fast-intra / no-tskip-fast / no-cu-lossless / b-intra / no-splitrd-skip / rdpenalty=0 / psy-rd=2.00 / psy-rdoq=1.00 / no-rd-refine / no-lossless / cbqpoffs=0 / crqpoffs=0 / rc=crf / crf=19.9 / qcomp=0.60 / qpstep=4 / stats-write=0 / stats-read=0 / vbv-maxrate=50000 / vbv-bufsize=50000 / vbv-init=0.9 / min-vbv-fullness=50.0 / max-vbv-fullness=80.0 / crf-max=0.0 / crf-min=0.0 / ipratio=1.40 / pbratio=1.30 / aq-mode=1 / aq-strength=1.00 / no-cutree / zone-count=1 / zones: / start-frame=163495 / end-frame=168876 / qp=36 / no-strict-cbr / qg-size=32 / no-rc-grain / qpmax=69 / qpmin=0 / no-const-vbv / sar=1 / overscan=0 / videoformat=5 / range=0 / colorprim=2 / transfer=2 / colormatrix=2 / chromaloc=0 / display-window=0 / cll=0,0 / min-luma=0 / max-luma=1023 / log2-max-poc-lsb=8 / vui-timing-info / vui-hrd-info / slices=1 / no-opt-qp-pps / no-opt-ref-list-length-pps / no-multi-pass-opt-rps / scenecut-bias=0.00 / hist-threshold=0.03 / no-opt-cu-delta-qp / no-aq-motion / no-hdr10 / no-hdr10-opt / no-dhdr10-opt / no-idr-recovery-sei / analysis-reuse-level=0 / analysis-save-reuse-level=0 / analysis-load-reuse-level=0 / scale-factor=0 / refine-intra=0 / refine-inter=0 / refine-mv=1 / refine-ctu-distortion=0 / no-limit-sao / ctu-info=0 / no-lowpass-dct / refine-analysis-type=0 / copy-pic=1 / max-ausize-factor=1.0 / no-dynamic-refine / no-single-sei / no-hevc-aq / no-svt / no-field / qp-adaptation-range=1.00 / scenecut-aware-qp=0conformance-window-offsets / right=0 / bottom=0 / decoder-max-rate=0 / no-vbv-live-multi-pass
Язык : English
Default : Да
Forced : Нет

Аудио #1
Идентификатор : 2
Формат : AC-3
Формат/Информация : Audio Coding 3
Коммерческое название : Dolby Digital
Идентификатор кодека : A_AC3
Продолжительность : 1 ч. 57 м.
Вид битрейта : Постоянный
Битрейт : 192 Кбит/сек
Каналы : 2 канала
Channel layout : L R
Частота : 48,0 КГц
Частота кадров : 31,250 кадров/сек (1536 SPF)
Метод сжатия : С потерями
Размер потока : 161 Мбайт (2%)
Заголовок : MVO (РТР)
Язык : Russian
Service kind : Complete Main
Default : Да
Forced : Нет

Аудио #2
Идентификатор : 3
Формат : AC-3
Формат/Информация : Audio Coding 3
Коммерческое название : Dolby Digital
Идентификатор кодека : A_AC3
Продолжительность : 1 ч. 57 м.
Вид битрейта : Постоянный
Битрейт : 640 Кбит/сек
Каналы : 6 каналов
Channel layout : L R C LFE Ls Rs
Частота : 48,0 КГц
Частота кадров : 31,250 кадров/сек (1536 SPF)
Метод сжатия : С потерями
Размер потока : 537 Мбайт (5%)
Заголовок : DVO (R5)
Язык : Russian
Service kind : Complete Main
Default : Нет
Forced : Нет

Аудио #3
Идентификатор : 4
Формат : AC-3
Формат/Информация : Audio Coding 3
Коммерческое название : Dolby Digital
Идентификатор кодека : A_AC3
Продолжительность : 1 ч. 57 м.
Вид битрейта : Постоянный
Битрейт : 192 Кбит/сек
Каналы : 2 канала
Channel layout : L R
Частота : 48,0 КГц
Частота кадров : 31,250 кадров/сек (1536 SPF)
Метод сжатия : С потерями
Размер потока : 161 Мбайт (2%)
Заголовок : DVO (REN-TV)
Язык : Russian
Service kind : Complete Main
Default : Нет
Forced : Нет

Аудио #4
Идентификатор : 5
Формат : AC-3
Формат/Информация : Audio Coding 3
Коммерческое название : Dolby Digital
Идентификатор кодека : A_AC3
Продолжительность : 1 ч. 57 м.
Вид битрейта : Постоянный
Битрейт : 640 Кбит/сек
Каналы : 6 каналов
Channel layout : L R C LFE Ls Rs
Частота : 48,0 КГц
Частота кадров : 31,250 кадров/сек (1536 SPF)
Метод сжатия : С потерями
Размер потока : 537 Мбайт (5%)
Заголовок : AVO (Андрей Гаврилов)
Язык : Russian
Service kind : Complete Main
Default : Нет
Forced : Нет

Аудио #5
Идентификатор : 6
Формат : AC-3
Формат/Информация : Audio Coding 3
Коммерческое название : Dolby Digital
Идентификатор кодека : A_AC3
Продолжительность : 1 ч. 57 м.
Вид битрейта : Постоянный
Битрейт : 640 Кбит/сек
Каналы : 6 каналов
Channel layout : L R C LFE Ls Rs
Частота : 48,0 КГц
Частота кадров : 31,250 кадров/сек (1536 SPF)
Метод сжатия : С потерями
Размер потока : 537 Мбайт (5%)
Заголовок : AVO (Юрий Живов)
Язык : Russian
Service kind : Complete Main
Default : Нет
Forced : Нет

Аудио #6
Идентификатор : 7
Формат : AC-3
Формат/Информация : Audio Coding 3
Коммерческое название : Dolby Digital
Идентификатор кодека : A_AC3
Продолжительность : 1 ч. 57 м.
Вид битрейта : Постоянный
Битрейт : 640 Кбит/сек
Каналы : 6 каналов
Channel layout : L R C LFE Ls Rs
Частота : 48,0 КГц
Частота кадров : 31,250 кадров/сек (1536 SPF)
Метод сжатия : С потерями
Размер потока : 537 Мбайт (5%)
Заголовок : AVO (Сергей Визгунов)
Язык : Russian
Service kind : Complete Main
Default : Нет
Forced : Нет

Аудио #7
Идентификатор : 8
Формат : AC-3
Формат/Информация : Audio Coding 3
Коммерческое название : Dolby Digital
Идентификатор кодека : A_AC3
Продолжительность : 1 ч. 57 м.
Вид битрейта : Постоянный
Битрейт : 640 Кбит/сек
Каналы : 6 каналов
Channel layout : L R C LFE Ls Rs
Частота : 48,0 КГц
Частота кадров : 31,250 кадров/сек (1536 SPF)
Метод сжатия : С потерями
Размер потока : 537 Мбайт (5%)
Заголовок : AVO (Сергей Рябов)
Язык : Russian
Service kind : Complete Main
Default : Нет
Forced : Нет

Аудио #8
Идентификатор : 9
Формат : AC-3
Формат/Информация : Audio Coding 3
Коммерческое название : Dolby Digital
Идентификатор кодека : A_AC3
Продолжительность : 1 ч. 57 м.
Вид битрейта : Постоянный
Битрейт : 192 Кбит/сек
Каналы : 2 канала
Channel layout : L R
Частота : 48,0 КГц
Частота кадров : 31,250 кадров/сек (1536 SPF)
Метод сжатия : С потерями
Размер потока : 161 Мбайт (2%)
Заголовок : AVO (Андрей Дольский)
Язык : Russian
Service kind : Complete Main
Default : Нет
Forced : Нет

Аудио #9
Идентификатор : 10
ID in the original source medium : 4357 (0x1105)
Формат : AC-3
Формат/Информация : Audio Coding 3
Коммерческое название : Dolby Digital
Идентификатор кодека : A_AC3
Продолжительность : 1 ч. 57 м.
Вид битрейта : Постоянный
Битрейт : 192 Кбит/сек
Каналы : 2 канала
Channel layout : L R
Частота : 48,0 КГц
Частота кадров : 31,250 кадров/сек (1536 SPF)
Метод сжатия : С потерями
Размер потока : 161 Мбайт (2%)
Заголовок : MVO (ICTV)
Язык : Ukrainian
Service kind : Complete Main
Default : Нет
Forced : Нет
Носитель оригинала : Blu-ray

Аудио #10
Идентификатор : 11
Формат : AC-3
Формат/Информация : Audio Coding 3
Коммерческое название : Dolby Digital
Идентификатор кодека : A_AC3
Продолжительность : 1 ч. 57 м.
Вид битрейта : Постоянный
Битрейт : 640 Кбит/сек
Каналы : 6 каналов
Channel layout : L R C LFE Ls Rs
Частота : 48,0 КГц
Частота кадров : 31,250 кадров/сек (1536 SPF)
Метод сжатия : С потерями
Размер потока : 537 Мбайт (5%)
Язык : English
Service kind : Complete Main
Default : Нет
Forced : Нет

Текст #1
Идентификатор : 12
Формат : UTF-8
Идентификатор кодека : S_TEXT/UTF8
Идентификатор кодека/Информация : UTF-8 Plain Text
Продолжительность : 1 ч. 52 м.
Битрейт : 72 бит/сек
Частота кадров : 0,121 кадр/сек
Count of elements : 820
Размер потока : 59,5 Кбайт (0%)
Заголовок : v1
Язык : Russian
Default : Нет
Forced : Нет

Текст #2
Идентификатор : 13
Формат : UTF-8
Идентификатор кодека : S_TEXT/UTF8
Идентификатор кодека/Информация : UTF-8 Plain Text
Продолжительность : 1 ч. 52 м.
Битрейт : 68 бит/сек
Частота кадров : 0,144 кадр/сек
Count of elements : 969
Размер потока : 56,1 Кбайт (0%)
Заголовок : v2
Язык : Russian
Default : Нет
Forced : Нет

Текст #3
Идентификатор : 14
Формат : UTF-8
Идентификатор кодека : S_TEXT/UTF8
Идентификатор кодека/Информация : UTF-8 Plain Text
Продолжительность : 1 ч. 54 м.
Битрейт : 47 бит/сек
Частота кадров : 0,150 кадр/сек
Count of elements : 1031
Размер потока : 40,1 Кбайт (0%)
Язык : English
Default : Нет
Forced : Нет

Текст #4
Идентификатор : 15
Формат : UTF-8
Идентификатор кодека : S_TEXT/UTF8
Идентификатор кодека/Информация : UTF-8 Plain Text
Продолжительность : 1 ч. 55 м.
Битрейт : 53 бит/сек
Частота кадров : 0,177 кадр/сек
Count of elements : 1230
Размер потока : 45,0 Кбайт (0%)
Заголовок : SDH
Язык : English
Default : Нет
Forced : Нет

Меню
00:00:00.000 : Hong Kong High Life (Credits)
00:04:15.046 : Happy New Year
00:06:38.438 : Big-Screen Blackmail
00:08:57.994 : High-Flying Escape
00:12:25.161 : Put to the Test
00:16:56.682 : Walk in the Park
00:22:01.361 : On the Air
00:26:05.063 : An Assassin Strikes
00:29:26.181 : Chasing the Shooter
00:32:56.933 : In Custody
00:35:57.655 : Attack in the Park
00:37:23.491 : Reckless Driving
00:41:01.041 : Our Own Techniques
00:43:10.337 : Like Wrestling
00:45:34.898 : Looking-Glass Death
00:49:58.495 : Hospital Havoc
00:54:42.277 : Wu's Words
00:58:28.505 : Always a War
01:02:52.101 : Dinner Demolition
01:06:50.381 : Bridging a Gulf
01:09:53.939 : Infiltrating the Club
01:14:03.939 : Brush with the Law
01:17:52.584 : Making It Happen
01:20:18.814 : Shots in the Dark
01:24:17.510 : The Shooter's Identity
01:29:11.387 : The Art of War
01:31:22.268 : Locked in, Locked Out
01:33:59.591 : The Truth About It All
01:37:37.725 : People Out of Place
01:40:06.917 : Bly Makes His Move
01:43:11.894 : Neighborhood Rules
01:46:01.188 : Shattered Enemy
01:48:58.448 : What Goes Around
01:50:42.052 : Another Lifetime
01:53:40.000 : End Credits (Art of Good Over Demonic)
Загрузка...Cкриншот1 Искусство войны / The Art of War (2000) BDRip 1080p [HEVC] 10 bit от OldGamer (RG RIPS CLUB)Загрузка...Cкриншот2 Искусство войны / The Art of War (2000) BDRip 1080p [HEVC] 10 bit от OldGamer (RG RIPS CLUB)Загрузка...Cкриншот3 Искусство войны / The Art of War (2000) BDRip 1080p [HEVC] 10 bit от OldGamer (RG RIPS CLUB)Загрузка...Cкриншот4 Искусство войны / The Art of War (2000) BDRip 1080p [HEVC] 10 bit от OldGamer (RG RIPS CLUB)
Релиз-группа: RIPS CLUB
Сэмпл Торрент🧲 Магнет

Рейтинги КП и IMDB, кнопки "Позвать в чате" и "Спасибо", а также мультитрекерная статистика доступны только зарегистрированным/авторизованным пользователям!

Файлы: 1
  • Искусство.войны.The.Art.of.War.2000.BDRip-HEVC.1080p.mkv   9.68 ГБ
Поблагодарили: 8
alexyak, and50, Brooklyn, ilyich05, IRIT, Nuclear70, SaN161NeK, torrentzulu
OldGamer
0136509.68 ГБ

Добавление нового комментария

Добавление комментариев доступно только зарегистрированным/авторизованным пользователям.