💬 Мини-чат

Убедительная просьба не обсуждать тут политику.
МичманADVOKAT69, ✋
ADVOKAT69Spartanec1308, ✋
AlexTwittAdmin, странно, что только на 1 часть 😃
AdminРелизы Гоголь - старые. Просто вытащил из антологии, так как на первую часть пришла жалоба, и придется заблокировать.
  • yalibgot
  • Мичман
Отправка сообщений доступна только зарегистрированным/авторизованным пользователям.
Онлайн (за 10 мин.): 2

Фантастическая четвёрка / Fantastic Four (2005) BDRip 1080p [HEVC] 10 bit от OldGamer (RG RIPS CLUB)

HEVC
10 bit
Обложка Фантастическая четвёрка / Fantastic Four (2005) BDRip 1080p [HEVC] 10 bit от OldGamer (RG RIPS CLUB) Год: 2005
Страна: США, Германия
Студия: 1492 Pictures, 20th Century Fox Film Corporation, Constantin Film Produktion GmbH, Marvel Enterprises
Жанр: Фантастика, Фэнтези, Боевик, Приключения
Продолжительность: 01:45:29

Режиссер: Тим Стори
В ролях: Йоан Гриффит, Джессика Альба, Крис Эванс, Майкл Чиклис, Джулиан МакМэхон, Хэмиш Линклейтер, Керри Вашингтон, Лори Холден, Дэвид Паркер, Кевин МакНалти

Описание: Четыре космонавта в далёком космосе попали под действие неизвестных лучей и приобрели каждый свою суперспособность. После возвращения на Землю четвёрка встаёт на пути у врагов цивилизации, которые усиленно портят жизнь всего прогрессивного человечества.


Исходник: Blu-Ray Remux 1080p (rutracker)
Видео: 1920x816 (2.35:1), 9173 Кбит/сек, HEVC (Main10@L.4.1@High)
Аудио1: AC3, 6 ch, 640 Kbps - РусскийРусский, DUB
Аудио2: AC3, 6 ch, 640 Kbps - EnglishEnglish, Original
Субтитры: русские, английские

Как за пару секунд удалить ненужные аудиодорожки и субтитры (Внимание! После удаления вы не сможете поддержать раздачу)

Лог (x265 info)
x265 [info]: frame I: 642, Avg QP:17.59 kb/s: 22181.96
x265 [info]: frame P: 31083, Avg QP:18.89 kb/s: 16655.80
x265 [info]: frame B: 120026, Avg QP:21.05 kb/s: 7164.57
x265 [info]: Weighted P-Frames: Y:7.4% UV:4.7%
x265 [info]: Weighted B-Frames: Y:8.5% UV:4.4%
x265 [info]: consecutive B-frames: 4.2% 4.3% 5.3% 36.6% 10.0% 31.4% 3.7% 3.2% 0.6% 0.3% 0.1% 0.2% 0.2%
x265 [info]: encoded 151751 frames in 125351.78s (1.21 fps), 9172.18 kb/s, Avg QP:20.60
Медиаинфо
Общее
Уникальный идентификатор : 169565679476844982479093044858457869694 (0x7F912976811AFC63A1A80698626ACD7E)
Полное имя : \\.\Фантастическая.четверка.Fantastic.Four.2005.BDRip-HEVC.1080p.mkv
Формат : Matroska
Версия формата : Version 4
Размер файла : 7,70 Гбайт
Продолжительность : 1 ч. 45 м.
Общий поток : 10,5 Мбит/сек
Название фильма : Фантастическая.четверка.Fantastic.Four.2005.BDRip-HEVC.1080p
Дата кодирования : UTC 2022-08-01 13:00:54
Программа кодирования : mkvmerge v69.0.0 ('Day And Age') 64-bit
Библиотека кодирования : libebml v1.4.2 + libmatroska v1.6.4

Видео
Идентификатор : 1
Формат : HEVC
Формат/Информация : High Efficiency Video Coding
Профиль формата : Main 10@L4.1@High
Идентификатор кодека : V_MPEGH/ISO/HEVC
Продолжительность : 1 ч. 45 м.
Битрейт : 9 173 Кбит/сек
Ширина : 1 920 пикселей
Высота : 816 пикселей
Соотношение сторон : 2,35:1
Режим частоты кадров : Постоянный
Частота кадров : 23,976 (24000/1001) кадра/сек
Цветовое пространство : YUV
Субдискретизация насыщенности : 4:2:0
Битовая глубина : 10 бит
Бит/(Пиксели*Кадры) : 0.244
Размер потока : 6,76 Гбайт (88%)
Заголовок : Fantastic Four / Rip by OldGamer
Библиотека кодирования : x265 3.5+35-e3713124d:[Windows][GCC 11.2.0][64 bit] 10bit
Настройки программы : cpuid=1111039 / frame-threads=3 / numa-pools=8 / wpp / no-pmode / no-pme / no-psnr / no-ssim / log-level=2 / input-csp=1 / input-res=1920x816 / interlace=0 / total-frames=151751 / level-idc=41 / high-tier=1 / uhd-bd=0 / ref=5 / no-allow-non-conformance / no-repeat-headers / annexb / no-aud / no-eob / no-eos / no-hrd / info / hash=0 / no-temporal-layers / open-gop / min-keyint=23 / keyint=240 / gop-lookahead=0 / bframes=12 / b-adapt=2 / b-pyramid / bframe-bias=0 / rc-lookahead=40 / lookahead-slices=0 / scenecut=40 / no-hist-scenecut / radl=0 / no-splice / no-intra-refresh / ctu=32 / min-cu-size=8 / rect / amp / max-tu-size=32 / tu-inter-depth=4 / tu-intra-depth=4 / limit-tu=1 / rdoq-level=2 / dynamic-rd=0.00 / no-ssim-rd / signhide / no-tskip / nr-intra=0 / nr-inter=0 / no-constrained-intra / no-strong-intra-smoothing / max-merge=5 / limit-refs=3 / no-limit-modes / me=3 / subme=7 / merange=57 / temporal-mvp / no-frame-dup / no-hme / weightp / weightb / no-analyze-src-pics / deblock=-2:-2 / no-sao / no-sao-non-deblock / rd=6 / selective-sao=0 / no-early-skip / no-rskip / no-fast-intra / no-tskip-fast / no-cu-lossless / b-intra / no-splitrd-skip / rdpenalty=0 / psy-rd=2.00 / psy-rdoq=1.00 / no-rd-refine / no-lossless / cbqpoffs=0 / crqpoffs=0 / rc=crf / crf=19.0 / qcomp=0.75 / qpstep=4 / stats-write=0 / stats-read=0 / vbv-maxrate=50000 / vbv-bufsize=50000 / vbv-init=0.9 / min-vbv-fullness=50.0 / max-vbv-fullness=80.0 / crf-max=0.0 / crf-min=0.0 / ipratio=1.40 / pbratio=1.30 / aq-mode=1 / aq-strength=1.00 / no-cutree / zone-count=1 / zones: / start-frame=140847 / end-frame=151751 / qp=36 / no-strict-cbr / qg-size=32 / no-rc-grain / qpmax=69 / qpmin=0 / no-const-vbv / sar=1 / overscan=0 / videoformat=5 / range=0 / colorprim=2 / transfer=2 / colormatrix=2 / chromaloc=0 / display-window=0 / cll=0,0 / min-luma=0 / max-luma=1023 / log2-max-poc-lsb=8 / vui-timing-info / vui-hrd-info / slices=1 / no-opt-qp-pps / no-opt-ref-list-length-pps / no-multi-pass-opt-rps / scenecut-bias=0.00 / hist-threshold=0.03 / no-opt-cu-delta-qp / no-aq-motion / no-hdr10 / no-hdr10-opt / no-dhdr10-opt / no-idr-recovery-sei / analysis-reuse-level=0 / analysis-save-reuse-level=0 / analysis-load-reuse-level=0 / scale-factor=0 / refine-intra=0 / refine-inter=0 / refine-mv=1 / refine-ctu-distortion=0 / no-limit-sao / ctu-info=0 / no-lowpass-dct / refine-analysis-type=0 / copy-pic=1 / max-ausize-factor=1.0 / no-dynamic-refine / no-single-sei / no-hevc-aq / no-svt / no-field / qp-adaptation-range=1.00 / scenecut-aware-qp=0conformance-window-offsets / right=0 / bottom=0 / decoder-max-rate=0 / no-vbv-live-multi-pass
Язык : English
Default : Да
Forced : Нет

Аудио #1
Идентификатор : 2
Формат : AC-3
Формат/Информация : Audio Coding 3
Коммерческое название : Dolby Digital
Идентификатор кодека : A_AC3
Продолжительность : 1 ч. 45 м.
Вид битрейта : Постоянный
Битрейт : 640 Кбит/сек
Каналы : 6 каналов
Channel layout : L R C LFE Ls Rs
Частота : 48,0 КГц
Частота кадров : 31,250 кадров/сек (1536 SPF)
Метод сжатия : С потерями
Размер потока : 483 Мбайт (6%)
Язык : Russian
Service kind : Complete Main
Default : Да
Forced : Нет

Аудио #2
Идентификатор : 3
Формат : AC-3
Формат/Информация : Audio Coding 3
Коммерческое название : Dolby Digital
Идентификатор кодека : A_AC3
Продолжительность : 1 ч. 45 м.
Вид битрейта : Постоянный
Битрейт : 640 Кбит/сек
Каналы : 6 каналов
Channel layout : L R C LFE Ls Rs
Частота : 48,0 КГц
Частота кадров : 31,250 кадров/сек (1536 SPF)
Метод сжатия : С потерями
Размер потока : 483 Мбайт (6%)
Язык : English
Service kind : Complete Main
Default : Нет
Forced : Нет

Текст #1
Идентификатор : 4
Формат : UTF-8
Идентификатор кодека : S_TEXT/UTF8
Идентификатор кодека/Информация : UTF-8 Plain Text
Продолжительность : 1 ч. 37 м.
Битрейт : 91 бит/сек
Частота кадров : 0,195 кадр/сек
Count of elements : 1139
Размер потока : 65,4 Кбайт (0%)
Язык : Russian
Default : Нет
Forced : Нет

Текст #2
Идентификатор : 5
Формат : UTF-8
Идентификатор кодека : S_TEXT/UTF8
Идентификатор кодека/Информация : UTF-8 Plain Text
Продолжительность : 1 ч. 44 м.
Битрейт : 50 бит/сек
Частота кадров : 0,177 кадр/сек
Count of elements : 1107
Размер потока : 38,4 Кбайт (0%)
Язык : English
Default : Нет
Forced : Нет

Меню
00:00:00.000 : A Deal With Von Doom
00:05:05.888 : Uneasy Alliance
00:07:58.019 : Nine Hours To Contact
00:10:35.718 : The Cosmic Storm
00:14:36.041 : Quarantine
00:17:14.283 : Running Hot
00:19:20.075 : Man On Fire
00:21:25.617 : Metamorphosis
00:28:19.906 : Thing
00:30:51.182 : Panic On The Brooklyn Bridge
00:39:40.419 : The Fantactic Four
00:42:49.858 : Back To The Baxter Building
00:45:37.609 : Victor's Visit
00:48:11.847 : Tests
00:51:51.316 : Terrible News
00:54:53.164 : Reed's Plan
00:57:13.805 : Vengeance Of Von Doom
00:59:20.515 : The Torch Breaks Out
01:02:57.482 : This Is Who We Are
01:06:26.983 : Alicia
01:09:56.400 : Take Charge
01:11:32.997 : Seeds Of Doubt
01:15:44.414 : More Power
01:17:26.600 : To Be Ben Grimm Again
01:21:15.871 : A Better, Stronger Being
01:24:11.713 : Flame On!
01:26:24.554 : Call Me Doom
01:27:48.638 : It's Clobberin' Time!
01:30:19.872 : Doomsday
01:34:16.067 : Celebration
01:36:59.563 : The End?
01:37:54.618 : End Titles
01:45:28.196 : End
Загрузка...Cкриншот1 Фантастическая четвёрка / Fantastic Four (2005) BDRip 1080p [HEVC] 10 bit от OldGamer (RG RIPS CLUB)Загрузка...Cкриншот2 Фантастическая четвёрка / Fantastic Four (2005) BDRip 1080p [HEVC] 10 bit от OldGamer (RG RIPS CLUB)Загрузка...Cкриншот3 Фантастическая четвёрка / Fantastic Four (2005) BDRip 1080p [HEVC] 10 bit от OldGamer (RG RIPS CLUB)Загрузка...Cкриншот4 Фантастическая четвёрка / Fantastic Four (2005) BDRip 1080p [HEVC] 10 bit от OldGamer (RG RIPS CLUB)
Релиз-группа: RIPS CLUB
Сэмпл Торрент🧲 Магнет

Рейтинги КП и IMDB, кнопки "Позвать в чате" и "Спасибо", а также мультитрекерная статистика доступны только зарегистрированным/авторизованным пользователям!

Файлы: 1
  • Фантастическая.четверка.Fantastic.Four.2005.BDRip-HEVC.1080p.mkv   7.7 ГБ
Поблагодарили: 9
alexyak, donadar, Elico1977, ilyich05, Kiran, normalllhuman, Nuclear70, SaN161NeK, Горо
OldGamer
0123417.7 ГБ

Добавление нового комментария

Добавление комментариев доступно только зарегистрированным/авторизованным пользователям.