💬 Мини-чат

Убедительная просьба не обсуждать тут политику.
МичманADVOKAT69, ✋
ADVOKAT69Spartanec1308, ✋
AlexTwittAdmin, странно, что только на 1 часть 😃
AdminРелизы Гоголь - старые. Просто вытащил из антологии, так как на первую часть пришла жалоба, и придется заблокировать.
  • EiffeL
  • alexyak
  • Странник
Отправка сообщений доступна только зарегистрированным/авторизованным пользователям.
Онлайн (за 10 мин.): 3

Полиция Майами: Отдел нравов / Miami Vice (1988-1989) [5 сезон] BDRip 1080p [HEVC] 10 bit от OldGamer (RG RIPS CLUB)

HEVC
10 bit
Обложка Полиция Майами: Отдел нравов / Miami Vice (1988-1989) [5 сезон] BDRip 1080p [HEVC] 10 bit от OldGamer (RG RIPS CLUB) Год: 1988-1989
Страна: США
Студия: Michael Mann Productions, Universal TV
Жанр: Боевик, Триллер, Драма, Криминал
Продолжительность: 17:39:44

Режиссер: Джон Николелла, Ричард Комптон, Леон Ичасо
В ролях: Дон Джонсон, Филип Майкл Томас, Сандра Сантьяго, Оливия Браун, Майкл Тэлботт, Эдвард Джеймс Олмос, Джон Дил, Роберт Пэйсли, Мартин Ферреро, Рафаэль Рей Гомез

Описание: Сериал рассказывает о нелёгкой работе полицейских Майами. Санни Крокетт и его напарник и одновременно близкий друг Таббс расследуют жестокие убийства, изнасилования и ограбления. Полицейские всегда находят преступников и защищают слабых.


Исходник: Blu-Ray Remux 1080p (rutor)
Видео: 1460x1080 (4:3), 4507-7688 Кбит/сек, HEVC (Main10@L.4.1@High)
Аудио1: AC3, 2 ch, 192 Kbps - РусскийРусский, MVO (CTC)
Аудио2: AC3, 2 ch, 192 Kbps - EnglishEnglish, Original
Субтитры: Отсутствуют

Как за пару секунд удалить ненужные аудиодорожки и субтитры (Внимание! После удаления вы не сможете поддержать раздачу)

Лог (x265 info)
x265 [info]: frame I: 295, Avg QP:17.89 kb/s: 19140.40
x265 [info]: frame P: 13339, Avg QP:19.05 kb/s: 14041.16
x265 [info]: frame B: 55462, Avg QP:21.06 kb/s: 5606.41
x265 [info]: Weighted P-Frames: Y:7.8% UV:5.7%
x265 [info]: Weighted B-Frames: Y:3.4% UV:2.4%
x265 [info]: consecutive B-frames: 1.4% 2.4% 2.8% 28.9% 14.2% 48.5% 1.3% 0.2% 0.1% 0.1% 0.2%
x265 [info]: encoded 69096 frames in 40499.99s (1.71 fps), 7292.52 kb/s, Avg QP:20.66
Медиаинфо
Общее
Уникальный идентификатор : 75582856126761374357024758767208002008 (0x38DCBA84DA81D59B677103A329B671D8)
Полное имя : \\.\Miami.Vice.S05.1988-1989.BDRip-HEVC.1080p\Miami.Vice.S05E17.World.of.Trouble.mkv
Формат : Matroska
Версия формата : Version 4
Размер файла : 2,58 Гбайт
Продолжительность : 48 м. 1 с.
Общий поток : 7 679 Кбит/сек
Название фильма : Miami.Vice.S05E17.World.of.Trouble
Дата кодирования : UTC 2022-08-01 14:05:55
Программа кодирования : mkvmerge v69.0.0 ('Day And Age') 64-bit
Библиотека кодирования : libebml v1.4.2 + libmatroska v1.6.4

Видео
Идентификатор : 1
Формат : HEVC
Формат/Информация : High Efficiency Video Coding
Профиль формата : Main 10@L4.1@High
Идентификатор кодека : V_MPEGH/ISO/HEVC
Продолжительность : 48 м. 1 с.
Битрейт : 7 293 Кбит/сек
Ширина : 1 460 пикселей
Высота : 1 080 пикселей
Соотношение сторон : 4:3
Режим частоты кадров : Постоянный
Частота кадров : 23,976 (24000/1001) кадра/сек
Цветовое пространство : YUV
Субдискретизация насыщенности : 4:2:0
Битовая глубина : 10 бит
Бит/(Пиксели*Кадры) : 0.193
Размер потока : 2,45 Гбайт (95%)
Заголовок : Miami Vice S05E17 / Rip by OldGamer
Библиотека кодирования : x265 3.5+35-e3713124d:[Windows][GCC 11.2.0][64 bit] 10bit
Настройки программы : cpuid=1111039 / frame-threads=4 / numa-pools=16 / wpp / no-pmode / no-pme / no-psnr / no-ssim / log-level=2 / input-csp=1 / input-res=1460x1080 / interlace=0 / total-frames=69096 / level-idc=41 / high-tier=1 / uhd-bd=0 / ref=5 / no-allow-non-conformance / no-repeat-headers / annexb / no-aud / no-eob / no-eos / no-hrd / info / hash=0 / no-temporal-layers / open-gop / min-keyint=23 / keyint=240 / gop-lookahead=0 / bframes=10 / b-adapt=2 / b-pyramid / bframe-bias=0 / rc-lookahead=40 / lookahead-slices=0 / scenecut=40 / no-hist-scenecut / radl=0 / no-splice / no-intra-refresh / ctu=32 / min-cu-size=8 / rect / amp / max-tu-size=32 / tu-inter-depth=4 / tu-intra-depth=4 / limit-tu=1 / rdoq-level=2 / dynamic-rd=0.00 / no-ssim-rd / signhide / no-tskip / nr-intra=0 / nr-inter=0 / no-constrained-intra / no-strong-intra-smoothing / max-merge=5 / limit-refs=3 / no-limit-modes / me=3 / subme=7 / merange=57 / temporal-mvp / no-frame-dup / no-hme / weightp / weightb / no-analyze-src-pics / deblock=-2:-2 / no-sao / no-sao-non-deblock / rd=6 / selective-sao=0 / no-early-skip / no-rskip / no-fast-intra / no-tskip-fast / no-cu-lossless / b-intra / no-splitrd-skip / rdpenalty=0 / psy-rd=2.00 / psy-rdoq=1.00 / no-rd-refine / no-lossless / cbqpoffs=0 / crqpoffs=0 / rc=crf / crf=20.0 / qcomp=0.60 / qpstep=4 / stats-write=0 / stats-read=0 / vbv-maxrate=50000 / vbv-bufsize=50000 / vbv-init=0.9 / min-vbv-fullness=50.0 / max-vbv-fullness=80.0 / crf-max=0.0 / crf-min=0.0 / ipratio=1.40 / pbratio=1.30 / aq-mode=1 / aq-strength=1.00 / no-cutree / zone-count=0 / no-strict-cbr / qg-size=32 / no-rc-grain / qpmax=69 / qpmin=0 / no-const-vbv / sar=1 / overscan=0 / videoformat=5 / range=0 / colorprim=2 / transfer=2 / colormatrix=2 / chromaloc=0 / display-window=0 / cll=0,0 / min-luma=0 / max-luma=1023 / log2-max-poc-lsb=8 / vui-timing-info / vui-hrd-info / slices=1 / no-opt-qp-pps / no-opt-ref-list-length-pps / no-multi-pass-opt-rps / scenecut-bias=0.00 / hist-threshold=0.03 / no-opt-cu-delta-qp / no-aq-motion / no-hdr10 / no-hdr10-opt / no-dhdr10-opt / no-idr-recovery-sei / analysis-reuse-level=0 / analysis-save-reuse-level=0 / analysis-load-reuse-level=0 / scale-factor=0 / refine-intra=0 / refine-inter=0 / refine-mv=1 / refine-ctu-distortion=0 / no-limit-sao / ctu-info=0 / no-lowpass-dct / refine-analysis-type=0 / copy-pic=1 / max-ausize-factor=1.0 / no-dynamic-refine / no-single-sei / no-hevc-aq / no-svt / no-field / qp-adaptation-range=1.00 / scenecut-aware-qp=0conformance-window-offsets / right=0 / bottom=0 / decoder-max-rate=0 / no-vbv-live-multi-pass
Язык : English
Default : Да
Forced : Нет

Аудио #1
Идентификатор : 2
Формат : AC-3
Формат/Информация : Audio Coding 3
Коммерческое название : Dolby Digital
Идентификатор кодека : A_AC3
Продолжительность : 48 м. 1 с.
Вид битрейта : Постоянный
Битрейт : 192 Кбит/сек
Каналы : 2 канала
Channel layout : L R
Частота : 48,0 КГц
Частота кадров : 31,250 кадров/сек (1536 SPF)
Метод сжатия : С потерями
Размер потока : 66,0 Мбайт (3%)
Язык : Russian
Service kind : Complete Main
Default : Да
Forced : Нет

Аудио #2
Идентификатор : 3
Формат : AC-3
Формат/Информация : Audio Coding 3
Коммерческое название : Dolby Digital
Идентификатор кодека : A_AC3
Продолжительность : 48 м. 1 с.
Вид битрейта : Постоянный
Битрейт : 192 Кбит/сек
Каналы : 2 канала
Channel layout : L R
Частота : 48,0 КГц
Частота кадров : 31,250 кадров/сек (1536 SPF)
Метод сжатия : С потерями
Размер потока : 66,0 Мбайт (3%)
Язык : English
Service kind : Complete Main
Default : Нет
Forced : Нет
Загрузка...Cкриншот1 Полиция Майами: Отдел нравов / Miami Vice (1988-1989) [5 сезон] BDRip 1080p [HEVC] 10 bit от OldGamer (RG RIPS CLUB)Загрузка...Cкриншот2 Полиция Майами: Отдел нравов / Miami Vice (1988-1989) [5 сезон] BDRip 1080p [HEVC] 10 bit от OldGamer (RG RIPS CLUB)Загрузка...Cкриншот3 Полиция Майами: Отдел нравов / Miami Vice (1988-1989) [5 сезон] BDRip 1080p [HEVC] 10 bit от OldGamer (RG RIPS CLUB)Загрузка...Cкриншот4 Полиция Майами: Отдел нравов / Miami Vice (1988-1989) [5 сезон] BDRip 1080p [HEVC] 10 bit от OldGamer (RG RIPS CLUB)
Релиз-группа: RIPS CLUB
Сэмпл Торрент🧲 Магнет

Рейтинги КП и IMDB, кнопки "Позвать в чате" и "Спасибо", а также мультитрекерная статистика доступны только зарегистрированным/авторизованным пользователям!

Файлы: 21
  • Miami.Vice.S05.1988-1989.BDRip-HEVC.1080p
    • Miami.Vice.S05E01.Hostile.Takeover.mkv   2.27 ГБ
    • Miami.Vice.S05E02.Redemption.in.Blood.mkv   2.42 ГБ
    • Miami.Vice.S05E03.Heart.of.Night.mkv   2.09 ГБ
    • Miami.Vice.S05E04.Bad.Timing.mkv   2.27 ГБ
    • Miami.Vice.S05E05.Borrasca.mkv   2.58 ГБ
    • Miami.Vice.S05E06.Line.of.Fire.mkv   2.38 ГБ
    • Miami.Vice.S05E07.Asian.Cut.mkv   2.17 ГБ
    • Miami.Vice.S05E08.Hard.Knocks.mkv   2.36 ГБ
    • Miami.Vice.S05E09.Fruit.of.the.Poison.Tree.mkv   2.12 ГБ
    • Miami.Vice.S05E10.To.Have.and.to.Hold.mkv   2.37 ГБ
    • Miami.Vice.S05E11.Miami.Squeeze.mkv   2.26 ГБ
    • Miami.Vice.S05E12.Jack.of.All.Trades.mkv   2.17 ГБ
    • Miami.Vice.S05E13.The.Cell.Within.mkv   2.8 ГБ
    • Miami.Vice.S05E14.The.Lost.Madonna.mkv   2.65 ГБ
    • Miami.Vice.S05E15.Over.the.Line.mkv   1.64 ГБ
    • Miami.Vice.S05E16.Victims.of.Circumstance.mkv   2.47 ГБ
    • Miami.Vice.S05E17.World.of.Trouble.mkv   2.58 ГБ
    • Miami.Vice.S05E18.Miracle.Man.mkv   2.07 ГБ
    • Miami.Vice.S05E19.Leap.of.Faith.mkv   2 ГБ
    • Miami.Vice.S05E20.Too.Much.Too.Late.mkv   2.54 ГБ
    • Miami.Vice.S05E21-22.Freefall.mkv   4.25 ГБ
Поблагодарили: 2
Elico1977, Kilop77
OldGamer
02310 (21)  50.47 ГБ

Добавление нового комментария

Добавление комментариев доступно только зарегистрированным/авторизованным пользователям.