💬 Мини-чат

Убедительная просьба не обсуждать тут политику.
МичманADVOKAT69, ✋
ADVOKAT69Spartanec1308, ✋
AlexTwittAdmin, странно, что только на 1 часть 😃
AdminРелизы Гоголь - старые. Просто вытащил из антологии, так как на первую часть пришла жалоба, и придется заблокировать.
  • ancestor87
  • MIGRANT
Отправка сообщений доступна только зарегистрированным/авторизованным пользователям.
Онлайн (за 10 мин.): 2

Список Шиндлера / Schindler's List (1993) [US 20th Anniversary Limited Edition] BDRip 1080p [HEVC] 10 bit от OldGamer (RG RIPS CLUB)

HEVC
10 bit
Обложка Список Шиндлера / Schindler's List (1993) [US 20th Anniversary Limited Edition] BDRip 1080p [HEVC] 10 bit от OldGamer (RG RIPS CLUB) Год: 1993
Страна: США
Студия: Amblin Entertainment, Universal Pictures
Жанр: Драма, Биография, История, Военный
Продолжительность: 03:15:12

Режиссер: Стивен Спилберг
В ролях: Лиам Нисон, Бен Кингсли, Рэйф Файнс, Кэролайн Гудолл, Эмбет Дэвидц, Йонатан Сэгаль, Малгоша Гебель, Шмуэль Леви, Марк Иванир, Беатриче Макола

Описание: Фильм рассказывает реальную историю загадочного Оскара Шиндлера, члена нацистской партии, преуспевающего фабриканта, спасшего во время Второй мировой войны почти 1200 евреев.


Исходник: Blu-Ray Remux 1080p
Видео: 1920x1040 (1.85:1), 12,4 Мбит/сек, HEVC (Main10@L.4.1@High)
Аудио1: AC3, 6 ch, 640 Kbps - РусскийРусский, DUB (Blu-ray CEE)
Аудио2: AC3, 2 ch, 640 Kbps - РусскийРусский, DUB (VHS)
Аудио3: AC3, 6 ch, 448 Kbps - РусскийРусский, MVO (Киномания)
Аудио4: AC3, 6 ch, 640 Kbps - РусскийРусский, AVO (Юрий Живов)
Аудио5: AC3, 6 ch, 640 Kbps - РусскийРусский, AVO (Юрий Сербин 2012 г.)
Аудио6: AC3, 2 ch, 192 Kbps - РусскийРусский, AVO (Василий Горчаков)
Аудио7: AC3, 2 ch, 192 Kbps - РусскийРусский, AVO (Сергей Визгунов)
Аудио8: AC3, 2 ch, 192 Kbps - УкраинскийУкраинский, MVO
Аудио9: AC3, 6 ch, 640 Kbps - АнглийскийАнглийский
Субтитры: русские (full, forced), английские (SDH)

Как за пару секунд удалить ненужные аудиодорожки и субтитры (Внимание! После удаления вы не сможете поддержать раздачу)

Лог (x265 info)
x265 [info]: frame I: 1176, Avg QP:16.79 kb/s: 28705.01
x265 [info]: frame P: 55731, Avg QP:18.20 kb/s: 21069.94
x265 [info]: frame B: 223916, Avg QP:20.51 kb/s: 10138.40
x265 [info]: Weighted P-Frames: Y:4.6% UV:1.3%
x265 [info]: Weighted B-Frames: Y:3.7% UV:0.8%
x265 [info]: consecutive B-frames: 2.1% 3.7% 7.8% 33.4% 11.4% 30.8% 5.0% 3.9% 0.9% 0.4% 0.1% 0.2% 0.1% 0.1%
x265 [info]: encoded 280823 frames in 249604.48s (1.13 fps), 12385.59 kb/s, Avg QP:20.04
Медиаинфо
Общее
Уникальный идентификатор : 262860356898265939118831460682057057509 (0xC5C110316E8717DF41DFFE06FCAF04E5)
Полное имя : \\.\Список.Шиндлера.Schindler's.List.1993.US.20th.Anniversary.Limited.Edition.BDRip-HEVC.1080p.mkv
Формат : Matroska
Версия формата : Version 4
Размер файла : 22,7 Гбайт
Продолжительность : 3 ч. 15 м.
Общий поток : 16,6 Мбит/сек
Название фильма : Список.Шиндлера.Schindler's.List.1993.US.20th.Anniversary.Limited.Edition.BDRip-HEVC.1080p
Дата кодирования : UTC 2022-08-09 14:44:34
Программа кодирования : mkvmerge v69.0.0 ('Day And Age') 64-bit
Библиотека кодирования : libebml v1.4.2 + libmatroska v1.6.4
Обложка : Yes
Attachments : cover.jpg

Видео
Идентификатор : 1
Формат : HEVC
Формат/Информация : High Efficiency Video Coding
Профиль формата : Main 10@L4.1@High
Идентификатор кодека : V_MPEGH/ISO/HEVC
Продолжительность : 3 ч. 15 м.
Битрейт : 12,4 Мбит/сек
Ширина : 1 920 пикселей
Высота : 1 040 пикселей
Соотношение сторон : 1,85:1
Режим частоты кадров : Постоянный
Частота кадров : 23,976 (24000/1001) кадра/сек
Цветовое пространство : YUV
Субдискретизация насыщенности : 4:2:0
Битовая глубина : 10 бит
Бит/(Пиксели*Кадры) : 0.259
Размер потока : 16,9 Гбайт (75%)
Заголовок : Schindler's List / Rip by OldGamer
Библиотека кодирования : x265 3.5+35-e3713124d:[Windows][GCC 11.2.0][64 bit] 10bit
Настройки программы : cpuid=1111039 / frame-threads=3 / numa-pools=8 / wpp / no-pmode / no-pme / no-psnr / no-ssim / log-level=2 / input-csp=1 / input-res=1920x1040 / interlace=0 / total-frames=280823 / level-idc=41 / high-tier=1 / uhd-bd=0 / ref=5 / no-allow-non-conformance / no-repeat-headers / annexb / no-aud / no-eob / no-eos / no-hrd / info / hash=0 / no-temporal-layers / open-gop / min-keyint=23 / keyint=240 / gop-lookahead=0 / bframes=13 / b-adapt=2 / b-pyramid / bframe-bias=0 / rc-lookahead=40 / lookahead-slices=0 / scenecut=40 / no-hist-scenecut / radl=0 / no-splice / no-intra-refresh / ctu=32 / min-cu-size=8 / rect / amp / max-tu-size=32 / tu-inter-depth=4 / tu-intra-depth=4 / limit-tu=1 / rdoq-level=2 / dynamic-rd=0.00 / no-ssim-rd / signhide / no-tskip / nr-intra=0 / nr-inter=0 / no-constrained-intra / no-strong-intra-smoothing / max-merge=5 / limit-refs=3 / no-limit-modes / me=3 / subme=7 / merange=57 / temporal-mvp / no-frame-dup / no-hme / weightp / weightb / no-analyze-src-pics / deblock=-2:-2 / no-sao / no-sao-non-deblock / rd=6 / selective-sao=0 / no-early-skip / no-rskip / no-fast-intra / no-tskip-fast / no-cu-lossless / b-intra / no-splitrd-skip / rdpenalty=0 / psy-rd=2.00 / psy-rdoq=1.00 / no-rd-refine / no-lossless / cbqpoffs=0 / crqpoffs=0 / rc=crf / crf=18.5 / qcomp=0.60 / qpstep=4 / stats-write=0 / stats-read=0 / vbv-maxrate=50000 / vbv-bufsize=50000 / vbv-init=0.9 / min-vbv-fullness=50.0 / max-vbv-fullness=80.0 / crf-max=0.0 / crf-min=0.0 / ipratio=1.40 / pbratio=1.30 / aq-mode=1 / aq-strength=1.00 / no-cutree / zone-count=1 / zones: / start-frame=273545 / end-frame=280823 / qp=36 / no-strict-cbr / qg-size=32 / no-rc-grain / qpmax=69 / qpmin=0 / no-const-vbv / sar=1 / overscan=0 / videoformat=5 / range=0 / colorprim=2 / transfer=2 / colormatrix=2 / chromaloc=0 / display-window=0 / cll=0,0 / min-luma=0 / max-luma=1023 / log2-max-poc-lsb=8 / vui-timing-info / vui-hrd-info / slices=1 / no-opt-qp-pps / no-opt-ref-list-length-pps / no-multi-pass-opt-rps / scenecut-bias=0.00 / hist-threshold=0.03 / no-opt-cu-delta-qp / no-aq-motion / no-hdr10 / no-hdr10-opt / no-dhdr10-opt / no-idr-recovery-sei / analysis-reuse-level=0 / analysis-save-reuse-level=0 / analysis-load-reuse-level=0 / scale-factor=0 / refine-intra=0 / refine-inter=0 / refine-mv=1 / refine-ctu-distortion=0 / no-limit-sao / ctu-info=0 / no-lowpass-dct / refine-analysis-type=0 / copy-pic=1 / max-ausize-factor=1.0 / no-dynamic-refine / no-single-sei / no-hevc-aq / no-svt / no-field / qp-adaptation-range=1.00 / scenecut-aware-qp=0conformance-window-offsets / right=0 / bottom=0 / decoder-max-rate=0 / no-vbv-live-multi-pass
Язык : English
Default : Да
Forced : Нет

Аудио #1
Идентификатор : 2
Формат : AC-3
Формат/Информация : Audio Coding 3
Коммерческое название : Dolby Digital
Идентификатор кодека : A_AC3
Продолжительность : 3 ч. 15 м.
Вид битрейта : Постоянный
Битрейт : 640 Кбит/сек
Каналы : 6 каналов
Channel layout : L R C LFE Ls Rs
Частота : 48,0 КГц
Частота кадров : 31,250 кадров/сек (1536 SPF)
Метод сжатия : С потерями
Размер потока : 893 Мбайт (4%)
Заголовок : DUB (Blu-ray CEE)
Язык : Russian
Service kind : Complete Main
Default : Да
Forced : Нет

Аудио #2
Идентификатор : 3
Формат : AC-3
Формат/Информация : Audio Coding 3
Коммерческое название : Dolby Digital
Идентификатор кодека : A_AC3
Продолжительность : 3 ч. 15 м.
Вид битрейта : Постоянный
Битрейт : 640 Кбит/сек
Каналы : 2 канала
Channel layout : L R
Частота : 48,0 КГц
Частота кадров : 31,250 кадров/сек (1536 SPF)
Метод сжатия : С потерями
Размер потока : 894 Мбайт (4%)
Заголовок : DUB (VHS)
Язык : Russian
Service kind : Complete Main
Default : Нет
Forced : Нет

Аудио #3
Идентификатор : 4
Формат : AC-3
Формат/Информация : Audio Coding 3
Коммерческое название : Dolby Digital
Идентификатор кодека : A_AC3
Продолжительность : 3 ч. 15 м.
Вид битрейта : Постоянный
Битрейт : 448 Кбит/сек
Каналы : 6 каналов
Channel layout : L R C LFE Ls Rs
Частота : 48,0 КГц
Частота кадров : 31,250 кадров/сек (1536 SPF)
Метод сжатия : С потерями
Размер потока : 626 Мбайт (3%)
Заголовок : MVO (Киномания)
Язык : Russian
Service kind : Complete Main
Default : Нет
Forced : Нет

Аудио #4
Идентификатор : 5
Формат : AC-3
Формат/Информация : Audio Coding 3
Коммерческое название : Dolby Digital
Идентификатор кодека : A_AC3
Продолжительность : 3 ч. 15 м.
Вид битрейта : Постоянный
Битрейт : 640 Кбит/сек
Каналы : 6 каналов
Channel layout : L R C LFE Ls Rs
Частота : 48,0 КГц
Частота кадров : 31,250 кадров/сек (1536 SPF)
Метод сжатия : С потерями
Размер потока : 894 Мбайт (4%)
Заголовок : AVO (Юрий Живов)
Язык : Russian
Service kind : Complete Main
Default : Нет
Forced : Нет

Аудио #5
Идентификатор : 6
Формат : AC-3
Формат/Информация : Audio Coding 3
Коммерческое название : Dolby Digital
Идентификатор кодека : A_AC3
Продолжительность : 3 ч. 15 м.
Вид битрейта : Постоянный
Битрейт : 640 Кбит/сек
Каналы : 6 каналов
Channel layout : L R C LFE Ls Rs
Частота : 48,0 КГц
Частота кадров : 31,250 кадров/сек (1536 SPF)
Метод сжатия : С потерями
Размер потока : 894 Мбайт (4%)
Заголовок : AVO (Юрий Сербин 2012 г.)
Язык : Russian
Service kind : Complete Main
Default : Нет
Forced : Нет

Аудио #6
Идентификатор : 7
Формат : AC-3
Формат/Информация : Audio Coding 3
Коммерческое название : Dolby Digital
Идентификатор кодека : A_AC3
Продолжительность : 3 ч. 15 м.
Вид битрейта : Постоянный
Битрейт : 192 Кбит/сек
Каналы : 2 канала
Channel layout : L R
Частота : 48,0 КГц
Частота кадров : 31,250 кадров/сек (1536 SPF)
Метод сжатия : С потерями
Размер потока : 268 Мбайт (1%)
Заголовок : AVO (Василий Горчаков)
Язык : Russian
Service kind : Complete Main
Default : Нет
Forced : Нет

Аудио #7
Идентификатор : 8
Формат : AC-3
Формат/Информация : Audio Coding 3
Коммерческое название : Dolby Digital
Идентификатор кодека : A_AC3
Продолжительность : 3 ч. 15 м.
Вид битрейта : Постоянный
Битрейт : 192 Кбит/сек
Каналы : 2 канала
Channel layout : L R
Частота : 48,0 КГц
Частота кадров : 31,250 кадров/сек (1536 SPF)
Метод сжатия : С потерями
Размер потока : 268 Мбайт (1%)
Заголовок : AVO (Сергей Визгунов)
Язык : Russian
Service kind : Complete Main
Default : Нет
Forced : Нет

Аудио #8
Идентификатор : 9
Формат : AC-3
Формат/Информация : Audio Coding 3
Коммерческое название : Dolby Digital
Идентификатор кодека : A_AC3
Продолжительность : 3 ч. 15 м.
Вид битрейта : Постоянный
Битрейт : 192 Кбит/сек
Каналы : 2 канала
Channel layout : L R
Частота : 48,0 КГц
Частота кадров : 31,250 кадров/сек (1536 SPF)
Метод сжатия : С потерями
Размер потока : 268 Мбайт (1%)
Заголовок : MVO
Язык : Ukrainian
Service kind : Complete Main
Default : Нет
Forced : Нет

Аудио #9
Идентификатор : 10
Формат : AC-3
Формат/Информация : Audio Coding 3
Коммерческое название : Dolby Digital
Идентификатор кодека : A_AC3
Продолжительность : 3 ч. 15 м.
Вид битрейта : Постоянный
Битрейт : 640 Кбит/сек
Каналы : 6 каналов
Channel layout : L R C LFE Ls Rs
Частота : 48,0 КГц
Частота кадров : 31,250 кадров/сек (1536 SPF)
Метод сжатия : С потерями
Размер потока : 894 Мбайт (4%)
Язык : English
Service kind : Complete Main
Default : Нет
Forced : Нет

Текст #1
Идентификатор : 11
Формат : UTF-8
Идентификатор кодека : S_TEXT/UTF8
Идентификатор кодека/Информация : UTF-8 Plain Text
Продолжительность : 3 ч. 7 м.
Битрейт : 3 бит/сек
Частота кадров : 0,006 кадр/сек
Count of elements : 62
Размер потока : 4,49 Кбайт (0%)
Заголовок : forced
Язык : Russian
Default : Да
Forced : Нет

Текст #2
Идентификатор : 12
Формат : UTF-8
Идентификатор кодека : S_TEXT/UTF8
Идентификатор кодека/Информация : UTF-8 Plain Text
Продолжительность : 3 ч. 7 м.
Битрейт : 75 бит/сек
Частота кадров : 0,146 кадр/сек
Count of elements : 1636
Размер потока : 103 Кбайт (0%)
Заголовок : CEE
Язык : Russian
Default : Нет
Forced : Нет

Текст #3
Идентификатор : 13
Формат : UTF-8
Идентификатор кодека : S_TEXT/UTF8
Идентификатор кодека/Информация : UTF-8 Plain Text
Продолжительность : 3 ч. 7 м.
Битрейт : 75 бит/сек
Частота кадров : 0,145 кадр/сек
Count of elements : 1632
Размер потока : 104 Кбайт (0%)
Заголовок : R5
Язык : Russian
Default : Нет
Forced : Нет

Текст #4
Идентификатор : 14
Формат : UTF-8
Идентификатор кодека : S_TEXT/UTF8
Идентификатор кодека/Информация : UTF-8 Plain Text
Продолжительность : 3 ч. 7 м.
Битрейт : 75 бит/сек
Частота кадров : 0,163 кадр/сек
Count of elements : 1837
Размер потока : 104 Кбайт (0%)
Заголовок : Kinomania
Язык : Russian
Default : Нет
Forced : Нет

Текст #5
Идентификатор : 15
Формат : UTF-8
Идентификатор кодека : S_TEXT/UTF8
Идентификатор кодека/Информация : UTF-8 Plain Text
Продолжительность : 3 ч. 0 м.
Битрейт : 44 бит/сек
Частота кадров : 0,169 кадр/сек
Count of elements : 1826
Размер потока : 58,9 Кбайт (0%)
Язык : English
Default : Нет
Forced : Нет

Текст #6
Идентификатор : 16
Формат : UTF-8
Идентификатор кодека : S_TEXT/UTF8
Идентификатор кодека/Информация : UTF-8 Plain Text
Продолжительность : 3 ч. 4 м.
Битрейт : 55 бит/сек
Частота кадров : 0,217 кадр/сек
Count of elements : 2408
Размер потока : 74,7 Кбайт (0%)
Заголовок : SDH
Язык : English
Default : Нет
Forced : Нет

Меню
00:00:00.000 : Mrs. Schindler
00:03:23.160 : Getting Supplies
00:10:12.153 : Setting Up the Business
00:14:51.307 : Finding Investors
00:17:28.714 : March 20, 1941: Deadline for Entering the Ghetto
00:21:42.384 : Making Deals
00:23:48.009 : The Judenrat
00:30:37.669 : Preparing for Dinner
00:34:23.728 : Main Titles
00:41:43.751 : A One-Armed Machinist
00:44:16.737 : Forgotten Papers
00:50:55.761 : Amon Goeth
00:55:09.431 : "Today Is History"
00:56:44.859 : March 13, 1943: Liquidation of the Ghetto
01:13:44.753 : Working for Goeth
01:17:05.704 : How Much Is a Worker Worth?
01:26:02.115 : Making Hindges
01:29:26.319 : Moving the Workforce
01:32:01.182 : A Haven
01:38:36.869 : Helen Hirsch
01:43:19.776 : "That Is Power"
01:49:36.611 : A Manicure
01:55:45.980 : The Birthday Kiss
01:58:42.824 : Making Room
02:02:59.789 : The Children Hiding
02:06:49.310 : Waiting on the Trains
02:10:11.637 : They Have No Future
02:13:44.725 : Incinerating the Bodies
02:18:21.376 : Buying the Workforce
02:26:46.506 : The List
02:34:15.620 : Auschwitz
02:38:48.018 : "I Want These"
02:41:15.415 : Leaving Auschwitz
02:46:21.763 : Mrs. Schindler Returns
02:48:12.332 : The Sabbath
02:50:23.171 : "Do You Have Any Money?"
02:55:28.392 : The Ring
03:01:51.358 : Liberation
03:05:06.720 : The Schindler Jews Today
03:08:51.278 : End Titles
Загрузка...Cкриншот1 Список Шиндлера / Schindler's List (1993) [US 20th Anniversary Limited Edition] BDRip 1080p [HEVC] 10 bit от OldGamer (RG RIPS CLUB)Загрузка...Cкриншот2 Список Шиндлера / Schindler's List (1993) [US 20th Anniversary Limited Edition] BDRip 1080p [HEVC] 10 bit от OldGamer (RG RIPS CLUB)Загрузка...Cкриншот3 Список Шиндлера / Schindler's List (1993) [US 20th Anniversary Limited Edition] BDRip 1080p [HEVC] 10 bit от OldGamer (RG RIPS CLUB)Загрузка...Cкриншот4 Список Шиндлера / Schindler's List (1993) [US 20th Anniversary Limited Edition] BDRip 1080p [HEVC] 10 bit от OldGamer (RG RIPS CLUB)
Релиз-группа: RIPS CLUB
Сэмпл Торрент🧲 Магнет

Рейтинги КП и IMDB, кнопки "Позвать в чате" и "Спасибо", а также мультитрекерная статистика доступны только зарегистрированным/авторизованным пользователям!

Файлы: 1
  • Список.Шиндлера.Schindler's.List.1993.US.20th.Anniversary.Limited.Edition.BDRip-HEVC.1080p.mkv   22.66 ГБ
Поблагодарили: 9
anderb, Brooklyn, donadar, Gerash, Kiran, kisa1980, makss333, Nuclear70, SaN161NeK
OldGamer
3980022.66 ГБ

Добавление нового комментария

Добавление комментариев доступно только зарегистрированным/авторизованным пользователям.
Аватар не указан
  maxim2201  
Спасибо огромное за фильм
Аватар Святогуб
  Святогуб  
EiffeL писал(а):
Великий фильм! Совесть народа
https://www.youtube.com/watch?v=xMVxnHKH_gQ
Аватар не указан
  EiffeL  
Великий фильм! Совесть народа