💬 Мини-чат

Для тех, кому интересен процесс переделки сайта - https://rips.club/changelog.html (обновлен 20.04.2024)
  • justmkr
Отправка сообщений доступна только зарегистрированным/авторизованным пользователям.
Онлайн (за 10 мин.): 1

Голая правда / The Ugly Truth (2009) BDRip 1080p [HEVC] 10 bit от HANNIBAL

HEVC
10 bit
Обложка Голая правда / The Ugly Truth (2009) BDRip 1080p [HEVC] 10 bit от HANNIBAL Год: 2009
Страна: США
Студия: Columbia Pictures, Lakeshore Entertainment, Relativity Media
Жанр: Мелодрама, Комедия
Продолжительность: 01:35:57

Режиссер: Роберт Лукетич
В ролях: Кэтрин Хайгл, Джерард Батлер, Бри Тёрнер, Эрик Винтер, Ник Сирси, Джесси Д. Гойнс, Шерил Хайнс, Джон Майкл Хиггинс, Ной Мэтьюз, Бонни Соммервиль

Описание: Она — успешный телепродюсер со строгими моральными принципами и сексуальная блондинка. Он восходящая звезда нового телешоу и его жизненное кредо — «секс, наркотики и рок-н-ролл», он совсем не признает равенство полов, политкорректность и так далее. В общем настоящий мачо. Вы думаете, у них может что-то получится?


Видео: 1920x800, ~8747 Кбит/сек
Аудио1: AC3, 6 ch, 640 Kbps - РусскийРусский, Дублированный (Лицензия)
Аудио2: AC3, 6 ch, 448 Kbps - АнглийскийАнглийский, Оригинал
Субтитры: Русские, английские

Как за пару секунд удалить ненужные аудиодорожки и субтитры (Внимание! После удаления вы не сможете поддержать раздачу)

Медиаинфо
Общее
Уникальный идентификатор : 112989046254812133563269286499092098319 (0x5500E614F025E0CC9C9C126D0F3D6D0F)
Полное имя : R:\Голая правда. 2009. 1080p. HEVC. 10bit (1).mkv
Формат : Matroska
Версия формата : Version 4 / Version 2
Размер файла : 6,59 Гбайт
Продолжительность : 1 ч. 35 м.
Общий поток : 9838 Кбит/сек
Дата кодирования : UTC 2020-12-14 04:41:08
Программа кодирования : mkvmerge v28.2.0 ('The Awakening') 64-bit
Библиотека кодирования : libebml v1.3.6 + libmatroska v1.4.9
Attachments : poster.jpg

Видео
Идентификатор : 1
Формат : HEVC
Формат/Информация : High Efficiency Video Coding
Идентификатор кодека : V_MPEGH/ISO/HEVC
Продолжительность : 1 ч. 35 м.
Битрейт : 8747 Кбит/сек
Ширина : 1920 пикселей
Высота : 800 пикселей
Соотношение сторон : 2,40:1
Режим частоты кадров : Постоянный
Частота кадров : 23,976 (24000/1001) кадра/сек
Цветовое пространство : YUV
Субдискретизация насыщенности : 4:2:0
Битовая глубина : 10 бит
Бит/(Пиксели*Кадры) : 0.238
Размер потока : 5,86 Гбайт (89%)
Библиотека кодирования : x265 2.8+74-fd517ae68f93:[Windows][GCC 7.3.0][64 bit] 10bit
Настройки программы : cpuid=1111039 / frame-threads=13 / numa-pools=12 / wpp / no-pmode / no-pme / no-psnr / no-ssim / log-level=3 / input-csp=1 / input-res=1920x800 / interlace=0 / total-frames=0 / level-idc=41 / high-tier=1 / uhd-bd=0 / ref=7 / allow-non-conformance / no-repeat-headers / annexb / no-aud / no-hrd / info / hash=0 / no-temporal-layers / no-open-gop / min-keyint=24 / keyint=240 / gop-lookahead=0 / bframes=9 / b-adapt=2 / b-pyramid / bframe-bias=0 / rc-lookahead=40 / lookahead-slices=5 / scenecut=40 / radl=0 / no-intra-refresh / ctu=64 / min-cu-size=8 / rect / amp / max-tu-size=32 / tu-inter-depth=1 / tu-intra-depth=1 / limit-tu=0 / rdoq-level=0 / dynamic-rd=0.00 / no-ssim-rd / signhide / no-tskip / nr-intra=0 / nr-inter=0 / no-constrained-intra / no-strong-intra-smoothing / max-merge=2 / limit-refs=3 / no-limit-modes / me=3 / subme=7 / merange=57 / temporal-mvp / weightp / no-weightb / no-analyze-src-pics / deblock=-2:-2 / no-sao / no-sao-non-deblock / rd=3 / no-early-skip / rskip / no-fast-intra / no-tskip-fast / no-cu-lossless / no-b-intra / no-splitrd-skip / rdpenalty=0 / psy-rd=2.00 / psy-rdoq=0.00 / no-rd-refine / no-lossless / cbqpoffs=0 / crqpoffs=0 / rc=crf / crf=19.0 / qcomp=0.60 / qpstep=4 / stats-write=0 / stats-read=0 / vbv-maxrate=50000 / vbv-bufsize=50000 / vbv-init=0.9 / crf-max=0.0 / crf-min=0.0 / ipratio=1.40 / pbratio=1.30 / aq-mode=1 / aq-strength=1.00 / cutree / zone-count=0 / no-strict-cbr / qg-size=32 / no-rc-grain / qpmax=69 / qpmin=0 / no-const-vbv / sar=1 / overscan=0 / videoformat=5 / range=0 / colorprim=1 / transfer=1 / colormatrix=1 / chromaloc=0 / display-window=0 / max-cll=0,0 / min-luma=0 / max-luma=1023 / log2-max-poc-lsb=8 / vui-timing-info / vui-hrd-info / slices=1 / no-opt-qp-pps / no-opt-ref-list-length-pps / no-multi-pass-opt-rps / scenecut-bias=0.05 / no-opt-cu-delta-qp / no-aq-motion / no-hdr / no-hdr-opt / no-dhdr10-opt / no-idr-recovery-sei / analysis-reuse-level=5 / scale-factor=0 / refine-intra=0 / refine-inter=0 / refine-mv=0 / no-limit-sao / ctu-info=0 / no-lowpass-dct / refine-mv-type=0 / copy-pic=1 / max-ausize-factor=1.0 / no-dynamic-refine / no-single-sei
Default : Да
Forced : Нет
Цветовой диапазон : Limited
Основные цвета : BT.709
Характеристики трансфера : BT.709
Коэффициенты матрицы : BT.709

Аудио #1
Идентификатор : 2
Формат : AC-3
Формат/Информация : Audio Coding 3
Идентификатор кодека : A_AC3
Продолжительность : 1 ч. 35 м.
Вид битрейта : Постоянный
Битрейт : 640 Кбит/сек
Каналы : 6 каналов
Расположение каналов : Front: L C R, Side: L R, LFE
Частота : 48,0 КГц
Частота кадров : 31,250 кадров/сек (1536 SPF)
Битовая глубина : 16 бит
Метод сжатия : С потерями
Размер потока : 439 Мбайт (7%)
Заголовок : Дублированный
Язык : Russian
ServiceKind/String : Complete Main
Default : Да
Forced : Нет

Аудио #2
Идентификатор : 3
Формат : AC-3
Формат/Информация : Audio Coding 3
Идентификатор кодека : A_AC3
Продолжительность : 1 ч. 35 м.
Вид битрейта : Постоянный
Битрейт : 448 Кбит/сек
Каналы : 6 каналов
Расположение каналов : Front: L C R, Side: L R, LFE
Частота : 48,0 КГц
Частота кадров : 31,250 кадров/сек (1536 SPF)
Битовая глубина : 16 бит
Метод сжатия : С потерями
Размер потока : 307 Мбайт (5%)
Заголовок : Оригинал
Язык : English
ServiceKind/String : Complete Main
Default : Нет
Forced : Нет

Текст #1
Идентификатор : 4
Формат : UTF-8
Идентификатор кодека : S_TEXT/UTF8
Идентификатор кодека/Информация : UTF-8 Plain Text
Продолжительность : 1 ч. 30 м.
Битрейт : 129 бит/сек
ElementCount : 1469
Размер потока : 85,8 Кбайт (0%)
Язык : Russian
Default : Нет
Forced : Нет

Текст #2
Идентификатор : 5
Формат : UTF-8
Идентификатор кодека : S_TEXT/UTF8
Идентификатор кодека/Информация : UTF-8 Plain Text
Продолжительность : 1 ч. 30 м.
Битрейт : 91 бит/сек
ElementCount : 1512
Размер потока : 60,8 Кбайт (0%)
Язык : English
Default : Нет
Forced : Нет

Меню
00:00:00.000 : :Chapter 01
00:06:24.592 : :Chapter 02
00:12:32.209 : :Chapter 03
00:15:56.330 : :Chapter 04
00:20:12.419 : :Chapter 05
00:26:04.646 : :Chapter 06
00:32:02.712 : :Chapter 07
00:36:48.789 : :Chapter 08
00:41:46.128 : :Chapter 09
00:49:25.003 : :Chapter 10
00:56:43.358 : :Chapter 11
01:02:33.374 : :Chapter 12
01:08:01.660 : :Chapter 13
01:12:52.659 : :Chapter 14
01:18:49.683 : :Chapter 15
01:23:04.187 : :Chapter 16
Загрузка...Cкриншот1 Голая правда / The Ugly Truth (2009) BDRip 1080p [HEVC] 10 bit от HANNIBALЗагрузка...Cкриншот2 Голая правда / The Ugly Truth (2009) BDRip 1080p [HEVC] 10 bit от HANNIBALЗагрузка...Cкриншот3 Голая правда / The Ugly Truth (2009) BDRip 1080p [HEVC] 10 bit от HANNIBALЗагрузка...Cкриншот4 Голая правда / The Ugly Truth (2009) BDRip 1080p [HEVC] 10 bit от HANNIBAL
Сэмпл Торрент🧲 Магнет

Рейтинги КП и IMDB, кнопки "Позвать в чате" и "Спасибо", а также мультитрекерная статистика доступны только зарегистрированным/авторизованным пользователям!

Файлы: 1
  • Голая правда. 2009. 1080p. HEVC. 10bit (1).mkv   6.59 ГБ
Поблагодарили: 10
Andrewshcka, anton-andreev99, D16T, diesel0000, donadar, FijiMAX, ilyich05, inoy, ko1ob, Nuclear70
HANNIBAL
369006.59 ГБ

Добавление нового комментария

Добавление комментариев доступно только зарегистрированным/авторизованным пользователям.
Аватар не указан
  donadar  
OldGamer писал(а):
ref=7
Аппаратные проигрыватели с этим могут, ага. Проверьте например на ПК тот же самый момент. По идее должно нормально пройти.
Да, после обновления плеера пошло нормально! Сорри за ложную тревогу.
Аватар OldGamer
  OldGamer  
donadar писал(а):
У меня одного видео крашиться?
ref=7
Аппаратные проигрыватели с этим могут, ага. Проверьте например на ПК тот же самый момент. По идее должно нормально пройти.
Аватар не указан
  donadar  
У меня одного видео крашиться?