💬 Мини-чат

Убедительная просьба не обсуждать тут политику.
AdminXuMuK, привет. По тихоньку. Начинает появляться немного свободного времени. В этом месяце вернусь к переделке сайта, которым несколько месяцев не занимался. Надо будет до весны закончить и обновиться.
SpartanecXuMuK, Привет Паш!
XuMuKSpartanec, Лёха, здарова, братишка
OldGamerXuMuK, https://forum.blu-ray.com/showthread.php?t=348907
XuMuKOldGamer, блин, исходник в bdvm. ещё и переупаковывать
XuMuKOldGamer, мне выдаёт только 2013 год релиза диска
OldGamerрано или поздно попадётся, там и посмотрим
OldGamerXuMuK, с форума blu-ray.com переходил по ссылкам на французские обзоры, там коллекционное издание выпустили
XuMuKOldGamer, хотя не факт, походу самопал
XuMuKOldGamer, на caps-a-holic нет такого трансфера. Но видимо есть на блютопии
OldGamerпрошлогодний французский трансфер хвалят по картинке, но в сети не встретился
OldGamerXuMuK, https://rutracker.org/forum/viewtopic.php?t=4986124
XuMuKOldGamer, ссылку хоть кинь
OldGamerXuMuK, я не сохранял исходник
XuMuKOldGamer, сэмпл-то дашь?
  • alexyak
  • serg_98
Отправка сообщений доступна только зарегистрированным/авторизованным пользователям.
Онлайн (за 10 мин.): 2

Джек Ричер / Reacher (2022) [1 сезон] BDRip 1080p [HEVC] 10 bit от OldGamer (RG RIPS CLUB)

HEVC
10 bit
Обложка Джек Ричер / Reacher (2022) [1 сезон] BDRip 1080p [HEVC] 10 bit от OldGamer (RG RIPS CLUB) Год: 2022
Страна: США
Студия: Amazon Studios, Blackjack Films Inc., Paramount Television, Skydance Television
Жанр: Боевик, Триллер, Драма, Криминал
Продолжительность: 06:24:19

Режиссер: Норберто Барба, М. Дж. Бассетт, Сэм Хилл
В ролях: Алан Ричсон, Малкольм Гудвин, Уилла Фицджералд, Хью Томпсон, Кристофер Уэбстер, Брюс МакГилл, Макс Дженкинс, Гэвин Уайт, Лесли Фрэй, Джонатан Кёнсген

Описание: Джек Ричер, бывший майор военной полиции, посещает небольшой городок, где его арестовывают по подозрению в убийстве борца с коррупцией. Когда местная полиция понимает, что этот здоровяк с опасной внешностью совсем не тот, кого они ищут, ему предлагают сотрудничество в поиске настоящих убийц.


Исходник: Blu-Ray Remux 1080p (SiCFoI)
Видео: 1920x960 (2:1), ~9000 Кбит/сек, HEVC (Main10@L.4.1@High)
Аудио1: AC3, 6 ch, 448 Kbps - РусскийРусский, MVO (HDrezka Studio)
Аудио2: AC3, 2 ch, 384 Kbps - РусскийРусский, MVO (LostFilm)
Аудио3: AC3, 6 ch, 640 Kbps - АнглийскийАнглийский
Субтитры: русские (full, forced), английские (SDH)

Как за пару секунд удалить ненужные аудиодорожки и субтитры (Внимание! После удаления вы не сможете поддержать раздачу)

Лог (x265 info)
x265 [info]: frame I: 274, Avg QP:18.49 kb/s: 20030.61
x265 [info]: frame P: 9608, Avg QP:19.45 kb/s: 14902.57
x265 [info]: frame B: 55255, Avg QP:21.69 kb/s: 7917.03
x265 [info]: Weighted P-Frames: Y:7.7% UV:6.2%
x265 [info]: Weighted B-Frames: Y:5.8% UV:4.4%
x265 [info]: consecutive B-frames: 1.8% 2.8% 4.5% 16.3% 9.9% 32.6% 5.6% 5.7% 3.9% 2.8% 3.1% 7.2% 1.2% 0.5% 0.6% 0.6% 1.1%
x265 [info]: encoded 65137 frames in 43973.92s (1.48 fps), 8998.39 kb/s, Avg QP:21.35
Медиаинфо
Общее
Уникальный идентификатор : 30754536748320723523722465398224496492 (0x17231BBB2ED48937B595821786DAA76C)
Полное имя : \\.\Джек.Ричер.Reacher.S01.2022.BDRip-HEVC.1080p\Reacher.S01E04.In.a.Tree.mkv
Формат : Matroska
Версия формата : Version 4
Размер файла : 3,31 Гбайт
Продолжительность : 45 м. 16 с.
Общий поток : 10,5 Мбит/сек
Название фильма : Reacher.S01E04.In.a.Tree
Дата кодирования : UTC 2022-12-06 01:08:38
Программа кодирования : mkvmerge v72.0.0 ('Minuano (Six-eight)') 64-bit
Библиотека кодирования : libebml v1.4.4 + libmatroska v1.7.1

Видео
Идентификатор : 1
Формат : HEVC
Формат/Информация : High Efficiency Video Coding
Профиль формата : Main 10@L4.1@High
Идентификатор кодека : V_MPEGH/ISO/HEVC
Продолжительность : 45 м. 16 с.
Битрейт : 8 999 Кбит/сек
Ширина : 1 920 пикселей
Высота : 960 пикселей
Соотношение сторон : 2,000
Режим частоты кадров : Постоянный
Частота кадров : 23,976 (24000/1001) кадра/сек
Цветовое пространство : YUV
Субдискретизация насыщенности : 4:2:0
Битовая глубина : 10 бит
Бит/(Пиксели*Кадры) : 0.204
Размер потока : 2,85 Гбайт (86%)
Заголовок : Reacher S01E04 / Rip by OldGamer
Библиотека кодирования : x265 3.5+35-e3713124d:[Windows][GCC 11.2.0][64 bit] 10bit
Настройки программы : cpuid=1111039 / frame-threads=4 / numa-pools=16 / wpp / no-pmode / no-pme / no-psnr / no-ssim / log-level=2 / input-csp=1 / input-res=1920x960 / interlace=0 / total-frames=65137 / level-idc=41 / high-tier=1 / uhd-bd=0 / ref=5 / no-allow-non-conformance / no-repeat-headers / annexb / no-aud / no-eob / no-eos / no-hrd / info / hash=0 / no-temporal-layers / open-gop / min-keyint=23 / keyint=240 / gop-lookahead=0 / bframes=16 / b-adapt=2 / b-pyramid / bframe-bias=0 / rc-lookahead=40 / lookahead-slices=0 / scenecut=40 / no-hist-scenecut / radl=0 / no-splice / no-intra-refresh / ctu=32 / min-cu-size=8 / rect / amp / max-tu-size=32 / tu-inter-depth=4 / tu-intra-depth=4 / limit-tu=1 / rdoq-level=2 / dynamic-rd=0.00 / no-ssim-rd / signhide / no-tskip / nr-intra=0 / nr-inter=0 / no-constrained-intra / no-strong-intra-smoothing / max-merge=5 / limit-refs=3 / no-limit-modes / me=3 / subme=7 / merange=57 / temporal-mvp / no-frame-dup / no-hme / weightp / weightb / no-analyze-src-pics / deblock=-2:-2 / no-sao / no-sao-non-deblock / rd=6 / selective-sao=0 / no-early-skip / no-rskip / no-fast-intra / no-tskip-fast / no-cu-lossless / b-intra / no-splitrd-skip / rdpenalty=0 / psy-rd=2.00 / psy-rdoq=1.00 / no-rd-refine / no-lossless / cbqpoffs=0 / crqpoffs=0 / rc=crf / crf=20.7 / qcomp=0.60 / qpstep=4 / stats-write=0 / stats-read=0 / vbv-maxrate=50000 / vbv-bufsize=50000 / vbv-init=0.9 / min-vbv-fullness=50.0 / max-vbv-fullness=80.0 / crf-max=0.0 / crf-min=0.0 / ipratio=1.40 / pbratio=1.30 / aq-mode=1 / aq-strength=1.00 / no-cutree / zone-count=1 / zones: / start-frame=62226 / end-frame=65137 / qp=36 / no-strict-cbr / qg-size=32 / no-rc-grain / qpmax=69 / qpmin=0 / no-const-vbv / sar=1 / overscan=0 / videoformat=5 / range=0 / colorprim=2 / transfer=2 / colormatrix=2 / chromaloc=0 / display-window=0 / cll=0,0 / min-luma=0 / max-luma=1023 / log2-max-poc-lsb=8 / vui-timing-info / vui-hrd-info / slices=1 / no-opt-qp-pps / no-opt-ref-list-length-pps / no-multi-pass-opt-rps / scenecut-bias=0.00 / hist-threshold=0.03 / no-opt-cu-delta-qp / no-aq-motion / no-hdr10 / no-hdr10-opt / no-dhdr10-opt / no-idr-recovery-sei / analysis-reuse-level=0 / analysis-save-reuse-level=0 / analysis-load-reuse-level=0 / scale-factor=0 / refine-intra=0 / refine-inter=0 / refine-mv=1 / refine-ctu-distortion=0 / no-limit-sao / ctu-info=0 / no-lowpass-dct / refine-analysis-type=0 / copy-pic=1 / max-ausize-factor=1.0 / no-dynamic-refine / no-single-sei / no-hevc-aq / no-svt / no-field / qp-adaptation-range=1.00 / scenecut-aware-qp=0conformance-window-offsets / right=0 / bottom=0 / decoder-max-rate=0 / no-vbv-live-multi-pass
Язык : English
Default : Да
Forced : Нет

Аудио #1
Идентификатор : 2
Формат : AC-3
Формат/Информация : Audio Coding 3
Коммерческое название : Dolby Digital
Идентификатор кодека : A_AC3
Продолжительность : 45 м. 16 с.
Вид битрейта : Постоянный
Битрейт : 448 Кбит/сек
Каналы : 6 каналов
Channel layout : L R C LFE Ls Rs
Частота : 48,0 КГц
Частота кадров : 31,250 кадров/сек (1536 SPF)
Метод сжатия : С потерями
Размер потока : 145 Мбайт (4%)
Заголовок : MVO (HDrezka Studio)
Язык : Russian
Service kind : Complete Main
Default : Нет
Forced : Нет

Аудио #2
Идентификатор : 3
Формат : AC-3
Формат/Информация : Audio Coding 3
Коммерческое название : Dolby Digital
Идентификатор кодека : A_AC3
Продолжительность : 45 м. 16 с.
Вид битрейта : Постоянный
Битрейт : 384 Кбит/сек
Каналы : 2 канала
Channel layout : L R
Частота : 48,0 КГц
Частота кадров : 31,250 кадров/сек (1536 SPF)
Метод сжатия : С потерями
Размер потока : 124 Мбайт (4%)
Заголовок : MVO (LostFilm)
Язык : Russian
Service kind : Complete Main
Default : Да
Forced : Нет

Аудио #3
Идентификатор : 4
Формат : AC-3
Формат/Информация : Audio Coding 3
Коммерческое название : Dolby Digital
Идентификатор кодека : A_AC3
Продолжительность : 45 м. 16 с.
Вид битрейта : Постоянный
Битрейт : 640 Кбит/сек
Каналы : 6 каналов
Channel layout : L R C LFE Ls Rs
Частота : 48,0 КГц
Частота кадров : 31,250 кадров/сек (1536 SPF)
Метод сжатия : С потерями
Размер потока : 207 Мбайт (6%)
Язык : English
Service kind : Complete Main
Default : Нет
Forced : Нет

Текст #1
Идентификатор : 5
Формат : UTF-8
Идентификатор кодека : S_TEXT/UTF8
Идентификатор кодека/Информация : UTF-8 Plain Text
Продолжительность : 29 м. 48 с.
Битрейт : 1 бит/сек
Частота кадров : 0,003 кадр/сек
Count of elements : 5
Размер потока : 286 байт (0%)
Заголовок : forced
Язык : Russian
Default : Да
Forced : Нет

Текст #2
Идентификатор : 6
Формат : UTF-8
Идентификатор кодека : S_TEXT/UTF8
Идентификатор кодека/Информация : UTF-8 Plain Text
Продолжительность : 43 м. 53 с.
Битрейт : 109 бит/сек
Частота кадров : 0,214 кадр/сек
Count of elements : 563
Размер потока : 35,3 Кбайт (0%)
Заголовок : full
Язык : Russian
Default : Нет
Forced : Нет

Текст #3
Идентификатор : 7
Формат : UTF-8
Идентификатор кодека : S_TEXT/UTF8
Идентификатор кодека/Информация : UTF-8 Plain Text
Продолжительность : 1 с. 418 мс.
Битрейт : 174 бит/сек
Частота кадров : 1,410 кадр/сек
Count of elements : 2
Размер потока : 31,0 байт (0%)
Заголовок : forced
Язык : English
Default : Нет
Forced : Нет

Текст #4
Идентификатор : 8
Формат : UTF-8
Идентификатор кодека : S_TEXT/UTF8
Идентификатор кодека/Информация : UTF-8 Plain Text
Продолжительность : 44 м. 48 с.
Битрейт : 79 бит/сек
Частота кадров : 0,312 кадр/сек
Count of elements : 840
Размер потока : 26,0 Кбайт (0%)
Заголовок : SDH
Язык : English
Default : Нет
Forced : Нет

Меню
00:00:00.000 : en:Chapter 01
00:01:24.167 : en:Chapter 02
00:10:21.537 : en:Chapter 03
00:18:51.630 : en:Chapter 04
00:27:18.595 : en:Chapter 05
00:36:51.125 : en:Chapter 06
00:43:15.384 : en:Chapter 07
Загрузка...Cкриншот1 Джек Ричер / Reacher (2022) [1 сезон] BDRip 1080p [HEVC] 10 bit от OldGamer (RG RIPS CLUB)Загрузка...Cкриншот2 Джек Ричер / Reacher (2022) [1 сезон] BDRip 1080p [HEVC] 10 bit от OldGamer (RG RIPS CLUB)Загрузка...Cкриншот3 Джек Ричер / Reacher (2022) [1 сезон] BDRip 1080p [HEVC] 10 bit от OldGamer (RG RIPS CLUB)Загрузка...Cкриншот4 Джек Ричер / Reacher (2022) [1 сезон] BDRip 1080p [HEVC] 10 bit от OldGamer (RG RIPS CLUB)
Релиз-группа: RIPS CLUB
Сэмпл Торрент🧲 Магнет

Рейтинги КП и IMDB, кнопки "Позвать в чате" и "Спасибо", а также мультитрекерная статистика доступны только зарегистрированным/авторизованным пользователям!

Файлы: 8
  • Джек.Ричер.Reacher.S01.2022.BDRip-HEVC.1080p
    • Reacher.S01E01.Welcome.to.Margrave.mkv   3.7 ГБ
    • Reacher.S01E02.First.Dance.mkv   3.82 ГБ
    • Reacher.S01E03.Spoonful.mkv   3.36 ГБ
    • Reacher.S01E04.In.a.Tree.mkv   3.31 ГБ
    • Reacher.S01E05.No.Apologies.mkv   3.36 ГБ
    • Reacher.S01E06.Papier.mkv   3.72 ГБ
    • Reacher.S01E07.Reacher.Said.Nothing.mkv   3.4 ГБ
    • Reacher.S01E08.Pie.mkv   3.16 ГБ
Поблагодарили: 11
ancestor87, aquarius, Brooklyn, FFantasy, ilyich05, ko1ob, sergeich, SergKote, slavjanin, SoulBoy, Тренер по Йоге
OldGamer
0121081 (8)  27.82 ГБ

Добавление нового комментария

Добавление комментариев доступно только зарегистрированным/авторизованным пользователям.