Чат

⚫︎
Список изменений сайта - https://rips.club/changelog.html (обновлен 24.05.2024)
  • ancestor87
  • Art1967
  • arwis
  • ExoticDeer
Онлайн (за 10 мин.): 4
  • Tastod: Раздайте, пожалуйста, Загадочная история Бенджамина Баттона / The Curious Case of Benjamin Button (2008) BDRip 1080p [HEVC] 10 bit от Spartanec1308
  • Гл. Админ: Исправил баг, когда после анонса коллекции все анонсы показывались в спойлере, даже если не являлись коллекцией.
  • Гл. Админ: Исправил баг, когда в ЛС не возможно было удалить сообщение.
  • bronsonw200: Гл. Админ, Как по мне, так смотрится приятнее.
  • Гл. Админ: В светлой теме задний фон сделал чуть потемнее, чтобы было не слишком ярко. В темной теме поисковую строку сделал черной (как в светлой теме), чтобы выделялась. Убрал рамки вокруг элементов форм. Прокрутку страницы в начало сделал плавной. ( отредактировано: )
  • Гл. Админ: В ближайшие дни по вечерам начну подправлять дизайн.
  • Гл. Админ: Готово.
  • Гл. Админ: Управление релизами закончил, но не буду выкладывать на ночь глядя. Утром протестирую на локальном компе, и днем выложу.
  • Гл. Админ: Фон баннера релиз-группы сделал прозрачным и перезалил на внешнем хостинге.
  • OldGamer: было бы неплохо
  • Гл. Админ: Управление релизами наверно сегодня закончу.
  • HANNIBAL: Сообщение удалено (удалил: HANNIBAL)
  • HANNIBAL: Гл. Админ, не привычно
  • Гл. Админ: HANNIBAL, хорошего или плохого?
  • HANNIBAL: эт чей-то вы тут натворили с сайтом ;)
  • Гл. Админ: ExoticDeer, просто в будущем будет несколько новостных строчек и они будут автоматически переключаться по кругу, поэтому не хочется статичную. Могу ещё уменьшить частоту, если всё равно будет отвлекать. ( отредактировано: )
  • Гл. Админ: ExoticDeer, уменьшил частоту мигания с 5 сек. до 10 сек.
  • ExoticDeer: Гл. Админ, про мигание, скорее отвлекает, особенно на тёмной теме. статичная хорошо смотрелась
  • Гл. Админ: Winsent, Исправил. Теперь, при просмотре комментариев конкретного пользователя, эта галочка не играет роли. Спасибо, что сообщили.
  • Гл. Админ: Winsent, сначала не поверил своим глазам. Это было оооочень странно. Но кажется теперь понял в чем проблема. Ошибка появляется, если в настройках не установлена галочка "Получать уведомления о всех комментариях". Причем у разных пользователей проявляется по разному - у кого-то ничего не показывается, а у кого-то показывается часть комментариев. Поэтому мне долго не удавалось воспроизвести ошибку. Сейчас исправлю.
Отправка сообщений доступна только зарегистрированным/авторизованным пользователям.

🎥︎Черный ястреб / Black Hawk Down (2001) [Театральная версия] BDRip 1080p [HEVC] 10 bit от Spartanec


Обложка Черный ястреб / Black Hawk Down (2001) [Театральная версия] BDRip 1080p [HEVC] 10 bit от Spartanec
HEVC
10 bit
✂︎Сэмпл⤓︎Торрент🧲︎Магнет$Пожертвования
Год: 2001
Страна: США, Великобритания
Студия: Jerry Bruckheimer Films, Revolution Studios
Жанр: Военный, Боевик, История, Драма
Длительность: 02:24:17

Режиссер: Ридли Скотт
В ролях: Джош Хартнетт, Эрик Бана, Эван МакГрегор, Том Сайзмор, Уиллиам Фичтнер, Сэм Шепард, Ивэн Бремнер, Чарли Хофхеймер, Том Харди, Том Гири, Джейсон Айзэкс, Брайан ван Холт, Джереми Пивен, Орландо Блум, Ким Коутс

Описание: Сомали, 1993 год. Страна вымирает от голода, число жертв превысило триста тысяч человек. Миротворческие силы ООН пытаются восстановить порядок и организовать поставки продовольствия. В помощь им Вашингтон выслал полтысячи человек из элитных подразделений американской армии, знаменитые отряды «Дельта» и армейских рейнджеров. В городе Могадишо хозяйничает и творит беспредел полевой командир Айдид, убивая мирных граждан и отбирая гуманитарную помощь. В определенный момент орлы из Вашингтона решают провести операцию по захвату Айдида в его резиденции. Молодой офицер, только что назначенный взводным; матерый сержант, ведущий колонну машин; казарменный писарь, не нюхавший пороху; экипажи сбитых вертолетов, вынужденных ждать подкрепления и эвакуации; двое солдат, которых забыли взять с собой при смене позиции; генерал, сидящий в штабе и наблюдающий через спутниковую связь, как погибают его солдаты.


Видео: 1920x804, ~9831 Кбит/сек
Аудио1: AC3, 6 ch, 448 Kbps - РусскийРусский, Дублированный (Лицензия)
Аудио2: AC3, 6 ch, 640 Kbps - РусскийРусский, Многоголосый (Карусель)
Аудио3: AC3, 6 ch, 640 Kbps - АнглийскийАнглийский, Оригинал
Субтитры: Русские, английские

Как за несколько секунд удалить ненужные аудиодорожки и субтитры (Внимание! После удаления вы не сможете поддержать раздачу)


Лог (x265 info)x265 [info]: frame I: 2498, Avg QP:17.59 kb/s: 26554.42
x265 [info]: frame P: 49590, Avg QP:19.15 kb/s: 17289.23
x265 [info]: frame B: 154648, Avg QP:21.33 kb/s: 7167.58
x265 [info]: Weighted P-Frames: Y:7.7% UV:6.0%
x265 [info]: Weighted B-Frames: Y:9.2% UV:6.3%

encoded 206736 frames in 136611.01s (1.51 fps), 9829.73 kb/s, Avg QP:20.76
МедиаинфоФормат : Matroska
Версия формата : Version 4
Размер файла : 11,6 Гбайт
Продолжительность : 2 ч. 24 м.
Общий поток : 11,5 Мбит/сек
Название фильма : by Spartanec
Дата кодирования : UTC 2023-01-09 07:02:37
Программа кодирования : mkvmerge v7.0.0 ('Where We Going') 64bit built on Jun 9 2014 15:16:27
Библиотека кодирования : libebml v1.3.0 + libmatroska v1.4.1
Обложка : Yes
Attachments : cover.jpg

Видео
Идентификатор : 1
Формат : HEVC
Формат/Информация : High Efficiency Video Coding
Профиль формата : Main 10@L4.1@High
Идентификатор кодека : V_MPEGH/ISO/HEVC
Продолжительность : 2 ч. 23 м.
Битрейт : 9 831 Кбит/сек
Ширина : 1 920 пикселей
Высота : 804 пикселя
Соотношение сторон : 2,40:1
Режим частоты кадров : Постоянный
Частота кадров : 23,976 (23976/1000) кадра/сек
Частота кадров в оригинале : 23,976 (24000/1001) кадра/сек
Цветовое пространство : YUV
Субдискретизация насыщенности : 4:2:0
Битовая глубина : 10 бит
Бит/(Пиксели*Кадры) : 0.266
Размер потока : 9,87 Гбайт (85%)
Заголовок : Spartanec
Библиотека кодирования : x265 3.5+70-4da1198a9:[Windows][GCC 12.2.0][64 bit] 10bit
Настройки программы : cpuid=1111039 / frame-threads=4 / numa-pools=24 / wpp / no-pmode / no-pme / no-psnr / no-ssim / log-level=2 / input-csp=1 / input-res=1920x804 / interlace=0 / total-frames=206736 / level-idc=41 / high-tier=1 / uhd-bd=0 / ref=5 / no-allow-non-conformance / no-repeat-headers / annexb / no-aud / no-eob / no-eos / no-hrd / info / hash=0 / no-temporal-layers / open-gop / min-keyint=23 / keyint=240 / gop-lookahead=0 / bframes=16 / b-adapt=2 / b-pyramid / bframe-bias=0 / rc-lookahead=60 / lookahead-slices=1 / scenecut=40 / no-hist-scenecut / radl=0 / no-splice / no-intra-refresh / ctu=32 / min-cu-size=8 / rect / amp / max-tu-size=32 / tu-inter-depth=4 / tu-intra-depth=4 / limit-tu=1 / rdoq-level=1 / dynamic-rd=0.00 / no-ssim-rd / signhide / no-tskip / nr-intra=0 / nr-inter=0 / no-constrained-intra / no-strong-intra-smoothing / max-merge=5 / limit-refs=0 / no-limit-modes / me=3 / subme=7 / merange=57 / temporal-mvp / no-frame-dup / no-hme / weightp / weightb / no-analyze-src-pics / deblock=-2:-2 / no-sao / no-sao-non-deblock / rd=6 / selective-sao=0 / no-early-skip / no-rskip / no-fast-intra / no-tskip-fast / no-cu-lossless / b-intra / no-splitrd-skip / rdpenalty=0 / psy-rd=2.00 / psy-rdoq=1.00 / no-rd-refine / no-lossless / cbqpoffs=0 / crqpoffs=0 / rc=crf / crf=19.7 / qcomp=0.70 / qpstep=4 / stats-write=0 / stats-read=0 / vbv-maxrate=50000 / vbv-bufsize=50000 / vbv-init=0.9 / min-vbv-fullness=50.0 / max-vbv-fullness=80.0 / crf-max=0.0 / crf-min=0.0 / ipratio=1.40 / pbratio=1.30 / aq-mode=2 / aq-strength=1.00 / no-cutree / zone-count=0 / no-strict-cbr / qg-size=32 / no-rc-grain / qpmax=69 / qpmin=0 / no-const-vbv / sar=1 / overscan=0 / videoformat=5 / range=0 / colorprim=1 / transfer=1 / colormatrix=1 / chromaloc=0 / display-window=0 / cll=0,0 / min-luma=0 / max-luma=1023 / log2-max-poc-lsb=8 / vui-timing-info / vui-hrd-info / slices=1 / no-opt-qp-pps / no-opt-ref-list-length-pps / no-multi-pass-opt-rps / scenecut-bias=0.05 / no-opt-cu-delta-qp / no-aq-motion / no-sbrc / no-hdr10 / no-hdr10-opt / no-dhdr10-opt / no-idr-recovery-sei / analysis-reuse-level=0 / analysis-save-reuse-level=0 / analysis-load-reuse-level=0 / scale-factor=0 / refine-intra=0 / refine-inter=0 / refine-mv=0 / refine-ctu-distortion=0 / no-limit-sao / ctu-info=0 / no-lowpass-dct / refine-analysis-type=0 / copy-pic=1 / max-ausize-factor=1.0 / no-dynamic-refine / no-single-sei / no-hevc-aq / no-svt / no-field / qp-adaptation-range=1.00 / scenecut-aware-qp=0conformance-window-offsets / right=0 / bottom=0 / decoder-max-rate=0 / no-vbv-live-multi-pass / no-mcstf
Язык : English
Default : Да
Forced : Нет
Цветовой диапазон : Limited
Основные цвета : BT.709
Характеристики трансфера : BT.709
Коэффициенты матрицы : BT.709

Аудио #1
Идентификатор : 2
Формат : AC-3
Формат/Информация : Audio Coding 3
Коммерческое название : Dolby Digital
Идентификатор кодека : A_AC3
Продолжительность : 2 ч. 24 м.
Вид битрейта : Постоянный
Битрейт : 448 Кбит/сек
Каналы : 6 каналов
Channel layout : L R C LFE Ls Rs
Частота : 48,0 КГц
Частота кадров : 31,250 кадров/сек (1536 SPF)
Метод сжатия : С потерями
Размер потока : 462 Мбайт (4%)
Заголовок : Дубляж
Язык : Russian
Service kind : Complete Main
Default : Да
Forced : Нет

Аудио #2
Идентификатор : 3
Формат : AC-3
Формат/Информация : Audio Coding 3
Коммерческое название : Dolby Digital
Идентификатор кодека : A_AC3
Продолжительность : 2 ч. 24 м.
Вид битрейта : Постоянный
Битрейт : 640 Кбит/сек
Каналы : 6 каналов
Channel layout : L R C LFE Ls Rs
Частота : 48,0 КГц
Частота кадров : 31,250 кадров/сек (1536 SPF)
Метод сжатия : С потерями
Размер потока : 660 Мбайт (6%)
Заголовок : Многоголосый закадровый, Карусель
Язык : Russian
Service kind : Complete Main
Default : Нет
Forced : Нет

Аудио #3
Идентификатор : 4
Формат : AC-3
Формат/Информация : Audio Coding 3
Коммерческое название : Dolby Digital
Идентификатор кодека : A_AC3
Продолжительность : 2 ч. 24 м.
Вид битрейта : Постоянный
Битрейт : 640 Кбит/сек
Каналы : 6 каналов
Channel layout : L R C LFE Ls Rs
Частота : 48,0 КГц
Частота кадров : 31,250 кадров/сек (1536 SPF)
Метод сжатия : С потерями
Размер потока : 660 Мбайт (6%)
Заголовок : Оригинал
Язык : English
Service kind : Complete Main
Default : Нет
Forced : Нет

Текст #1
Идентификатор : 5
Формат : UTF-8
Идентификатор кодека : S_TEXT/UTF8
Идентификатор кодека/Информация : UTF-8 Plain Text
Продолжительность : 2 ч. 18 м.
Битрейт : 73 бит/сек
Частота кадров : 0,176 кадр/сек
Count of elements : 1465
Размер потока : 75,0 Кбайт (0%)
Язык : Russian
Default : Да
Forced : Нет

Текст #2
Идентификатор : 6
Формат : UTF-8
Идентификатор кодека : S_TEXT/UTF8
Идентификатор кодека/Информация : UTF-8 Plain Text
Продолжительность : 2 ч. 12 м.
Битрейт : 47 бит/сек
Частота кадров : 0,178 кадр/сек
Count of elements : 1409
Размер потока : 46,2 Кбайт (0%)
Язык : English
Default : Нет
Forced : Нет
Загрузка...Cкриншот1 Черный ястреб / Black Hawk Down (2001) [Театральная версия] BDRip 1080p [HEVC] 10 bit от SpartanecЗагрузка...Cкриншот2 Черный ястреб / Black Hawk Down (2001) [Театральная версия] BDRip 1080p [HEVC] 10 bit от SpartanecЗагрузка...Cкриншот3 Черный ястреб / Black Hawk Down (2001) [Театральная версия] BDRip 1080p [HEVC] 10 bit от SpartanecЗагрузка...Cкриншот4 Черный ястреб / Black Hawk Down (2001) [Театральная версия] BDRip 1080p [HEVC] 10 bit от Spartanec
Поблагодарили: 7aquarius, bronsonw200, Brooklyn, D16T, ilyich05, Nuclear70, OldGamer
Файлы: 1
  • Черный ястреб (2001) BDRip 1080p [HEVC] 10bit by Spartanec.mkv

Рейтинги КП и IMDB, кнопки "Раздайте, пожалуйста" и "Спасибо", а также мультитрекерная статистика доступны только зарегистрированным/авторизованным пользователям!

Spartanec
0086011.61 ГБ

💬︎ Комментарии

Добавление комментариев доступно только зарегистрированным/авторизованным пользователям.