Чат

⚫︎
Список изменений сайта - https://rips.club/changelog.html (обновлен 24.05.2024)
  • Winsent
Онлайн (за 10 мин.): 1
  • Antilord90: Может кто переделает "Секс по дружбе" телики не воспроизводят!
  • Гл. Админ: Niflung, раздаю
  • VIS: Раздайте, пожалуйста, Большое путешествие / The Wild (2006) BDRip 1080p [HEVC] 10 bit от Мичман
  • Niflung: Раздайте, пожалуйста, Тихое место: Дилогия / A Quiet Place: Dilogy (2018-2020) UHD-BDRip 1080p [HEVC] 10 bit [HDR] от Mr. Fox
  • Antilord90: Сообщение удалено (удалил: Antilord90)
  • Niflung: Гл. Админ, Ладно, буду качать 10 bit версию)
  • Гл. Админ: Niflung, у меня только 10-битная версия
  • HANNIBAL: Гл. Админ, все норм раздача идет
  • Niflung: Раздайте, пожалуйста, Берегись автомобиля (1966) [Цветная версия] BDRip 1080p [HEVC] 8 bit от ADVOKAT69
  • Гл. Админ: HANNIBAL, Я удалил раздачу, которую заливал я. А другую заливал ты, и она была как на руторе. Теперь не понятно на что ты перезалил (в чем разница по сравнению с предыдущей, т.е. руторовской), потому что сидов нет. По моему ты не исправил, а сломал ) ( отредактировано: )
  • Гл. Админ: OldGamer, вообще задумка была сделать цветовую дифференциацию как в фильме Кин-дза-дза!, но поскольку желтый ник лучше подходит для випов, то немного не получилось.
  • Гл. Админ: HANNIBAL, их 2. Что там нужно исправлять?
  • Гл. Админ: HANNIBAL, Я думаю в добавок к зеленой могут появиться и другие цвета. ( отредактировано: )
  • HANNIBAL: Гл. Админ, и исправь раздачу Голая правда
  • HANNIBAL: Гл. Админ, не пора убрать с посторов эту зеленую надпись )))
  • HANNIBAL: Сообщение удалено (удалил: HANNIBAL)
  • Гл. Админ: HANNIBAL, админов теперь 2 ( отредактировано: )
  • HANNIBAL: админ привет
  • Antilord90: Раздайте, пожалуйста, Мальчикам это нравится / The House Bunny (2008) BDRip 1080p [HEVC] 10 bit от -Star-Lord- (RG RIPS CLUB)
  • Гл. Админ: Продлил доменное имя (адрес сайта) на год. Что-то он подорожал (24 евро вместо прежних 12). Ещё раз спасибо всем, кто поддерживает финансово. ( отредактировано: )
Отправка сообщений доступна только зарегистрированным/авторизованным пользователям.

🎤︎Tarja Turunen - Best Of Living The Dream Circus Life (2022) BDRip 1080p [HEVC] 10 bit от OldGamer (RG RIPS CLUB)


Обложка Tarja Turunen - Best Of Living The Dream Circus Life (2022) BDRip 1080p [HEVC] 10 bit от OldGamer (RG RIPS CLUB)
HEVC
10 bit
✂︎Сэмпл⤓︎Торрент🧲︎Магнет$Пожертвования

При перезаливке на другие сайты просьба указать автора и релиз-группу.


Год: 2022
Страна:
Жанр: Музыка
Длительность: 01:53:10


Описание: Blu-ray with unreleased "Circus Life" full concert: Live January 23rd, 2020, Circus Metropolitan, Bucharest, Romania.


Треклист1 Mystique Voyage
2 500 Letters
3 Naiad
4 Diva
5 You And I
6 Love To Hate
7 Demons In You
8 Never Enough
9 Falling Awake
10 I Feel Immortal
11 I Walk Alone
12 Victim Of Ritual
13 Innocence
14 Die Alive
15 Tears In Rain
16 Dead Promises
17 Until My Last Breath
18 Shadow Play


Релиз-группа: RIPS CLUB
Исходник: Blu-Ray Remux 1080p (rutracker)
Видео: 1920x1080 (16:9), 5871 Кбит/сек, HEVC (Main10@L.4.1@High)
Аудио1: DTS-HD MA, 6 ch, 2199 Kbps - АнглийскийАнглийский
Аудио2: PCM, 2 ch, 1536 Kbps - АнглийскийАнглийский
Субтитры: английские (speech between songs)

Как за несколько секунд удалить ненужные аудиодорожки и субтитры (Внимание! После удаления вы не сможете поддержать раздачу)


Лог (x265 info)x265 [info]: frame I: 680, Avg QP:15.85 kb/s: 16223.60
x265 [info]: frame P: 39337, Avg QP:17.33 kb/s: 10919.84
x265 [info]: frame B: 122802, Avg QP:19.73 kb/s: 4195.06
x265 [info]: Weighted P-Frames: Y:19.6% UV:17.3%
x265 [info]: Weighted B-Frames: Y:25.8% UV:20.3%
x265 [info]: encoded 162819 frames in 130190.02s (1.25 fps), 5870.00 kb/s, Avg QP:19.14
МедиаинфоОбщее
Уникальный идентификатор : 150213388524059940838471222377218655969 (0x71020BDA5BC5D6EE8C82820EC42D46E1)
Полное имя : \\.\Tarja.Turunen.Best.Of.Living.The.Dream.Circus.Life.2020.BDRip-HEVC.1080p.mkv
Формат : Matroska
Версия формата : Version 4
Размер файла : 7,60 Гбайт
Продолжительность : 1 ч. 53 м.
Режим общего битрейта : Переменный
Общий поток : 9 609 Кбит/сек
Дата кодирования : UTC 2023-01-27 13:46:47
Программа кодирования : mkvmerge v72.0.0 ('Minuano (Six-eight)') 64-bit
Библиотека кодирования : libebml v1.4.4 + libmatroska v1.7.1
Обложка : Yes
Attachments : cover.jpg

Видео
Идентификатор : 1
Формат : HEVC
Формат/Информация : High Efficiency Video Coding
Профиль формата : Main 10@L4.1@High
Идентификатор кодека : V_MPEGH/ISO/HEVC
Продолжительность : 1 ч. 53 м.
Битрейт : 5 871 Кбит/сек
Ширина : 1 920 пикселей
Высота : 1 080 пикселей
Соотношение сторон : 16:9
Режим частоты кадров : Постоянный
Частота кадров : 23,976 (24000/1001) кадра/сек
Цветовое пространство : YUV
Субдискретизация насыщенности : 4:2:0
Битовая глубина : 10 бит
Бит/(Пиксели*Кадры) : 0.118
Размер потока : 4,64 Гбайт (61%)
Библиотека кодирования : x265 3.5+84-5d8f20917:[Windows][GCC 12.2.0][64 bit] 10bit
Настройки программы : cpuid=1111039 / frame-threads=3 / numa-pools=8 / wpp / no-pmode / no-pme / no-psnr / no-ssim / log-level=2 / input-csp=1 / input-res=1920x1080 / interlace=0 / total-frames=162819 / level-idc=41 / high-tier=1 / uhd-bd=0 / ref=5 / no-allow-non-conformance / no-repeat-headers / annexb / no-aud / no-eob / no-eos / no-hrd / info / hash=0 / temporal-layers=0 / open-gop / min-keyint=23 / keyint=240 / gop-lookahead=0 / bframes=16 / b-adapt=2 / b-pyramid / bframe-bias=0 / rc-lookahead=40 / lookahead-slices=0 / scenecut=40 / no-hist-scenecut / radl=0 / no-splice / no-intra-refresh / ctu=32 / min-cu-size=8 / rect / amp / max-tu-size=32 / tu-inter-depth=4 / tu-intra-depth=4 / limit-tu=1 / rdoq-level=2 / dynamic-rd=0.00 / no-ssim-rd / signhide / no-tskip / nr-intra=0 / nr-inter=0 / no-constrained-intra / no-strong-intra-smoothing / max-merge=5 / limit-refs=3 / no-limit-modes / me=3 / subme=7 / merange=57 / temporal-mvp / no-frame-dup / no-hme / weightp / weightb / no-analyze-src-pics / deblock=-2:-2 / no-sao / no-sao-non-deblock / rd=6 / selective-sao=0 / no-early-skip / no-rskip / no-fast-intra / no-tskip-fast / no-cu-lossless / b-intra / no-splitrd-skip / rdpenalty=0 / psy-rd=2.00 / psy-rdoq=1.00 / no-rd-refine / no-lossless / cbqpoffs=0 / crqpoffs=0 / rc=crf / crf=21.0 / qcomp=0.70 / qpstep=4 / stats-write=0 / stats-read=0 / vbv-maxrate=50000 / vbv-bufsize=50000 / vbv-init=0.9 / min-vbv-fullness=50.0 / max-vbv-fullness=80.0 / crf-max=0.0 / crf-min=0.0 / ipratio=1.40 / pbratio=1.30 / aq-mode=1 / aq-strength=1.00 / no-cutree / zone-count=0 / no-strict-cbr / qg-size=32 / no-rc-grain / qpmax=69 / qpmin=0 / no-const-vbv / sar=1 / overscan=0 / videoformat=5 / range=0 / colorprim=2 / transfer=2 / colormatrix=2 / chromaloc=0 / display-window=0 / cll=0,0 / min-luma=0 / max-luma=1023 / log2-max-poc-lsb=8 / vui-timing-info / vui-hrd-info / slices=1 / no-opt-qp-pps / no-opt-ref-list-length-pps / no-multi-pass-opt-rps / scenecut-bias=0.00 / no-opt-cu-delta-qp / no-aq-motion / no-hdr10 / no-hdr10-opt / no-dhdr10-opt / no-idr-recovery-sei / analysis-reuse-level=0 / analysis-save-reuse-level=0 / analysis-load-reuse-level=0 / scale-factor=0 / refine-intra=0 / refine-inter=0 / refine-mv=1 / refine-ctu-distortion=0 / no-limit-sao / ctu-info=0 / no-lowpass-dct / refine-analysis-type=0 / copy-pic=1 / max-ausize-factor=1.0 / no-dynamic-refine / no-single-sei / no-hevc-aq / no-svt / no-field / qp-adaptation-range=1.00 / scenecut-aware-qp=0conformance-window-offsets / right=0 / bottom=0 / decoder-max-rate=0 / no-vbv-live-multi-pass / no-mcstf / no-sbrc
Язык : English
Default : Да
Forced : Нет

Аудио #1
Идентификатор : 2
ID in the original source medium : 4353 (0x1101)
Формат : DTS XLL
Формат/Информация : Digital Theater Systems
Коммерческое название : DTS-HD Master Audio
Идентификатор кодека : A_DTS
Продолжительность : 1 ч. 53 м.
Вид битрейта : Переменный
Битрейт : 2 199 Кбит/сек
Каналы : 6 каналов
Channel layout : C L R Ls Rs LFE
Частота : 48,0 КГц
Частота кадров : 93,750 кадра/сек (512 SPF)
Битовая глубина : 16 бит
Метод сжатия : Без потерь
Размер потока : 1,74 Гбайт (23%)
Заголовок : DTS-HD MA 5.1
Язык : English
Default : Да
Forced : Нет
Носитель оригинала : Blu-ray

Аудио #2
Идентификатор : 3
ID in the original source medium : 4352 (0x1100)
Формат : PCM
Настройки формата : Little / Signed
Идентификатор кодека : A_PCM/INT/LIT
Продолжительность : 1 ч. 53 м.
Вид битрейта : Постоянный
Битрейт : 1 536 Кбит/сек
Каналы : 2 канала
Частота : 48,0 КГц
Частота кадров : 30,000 кадров/сек (1600 SPF)
Битовая глубина : 16 бит
Размер потока : 1,21 Гбайт (16%)
Заголовок : PCM 2.0
Язык : English
Default : Нет
Forced : Нет
Носитель оригинала : Blu-ray

Текст
Идентификатор : 4
Формат : UTF-8
Идентификатор кодека : S_TEXT/UTF8
Идентификатор кодека/Информация : UTF-8 Plain Text
Продолжительность : 1 ч. 41 м.
Битрейт : 2 бит/сек
Частота кадров : 0,013 кадр/сек
Count of elements : 81
Размер потока : 2,13 Кбайт (0%)
Заголовок : speech between songs
Язык : English
Default : Нет
Forced : Нет

Меню
00:00:00.000 : en:Prologue
00:01:09.536 : en:Mystique Voyage
00:07:15.568 : en:500 Letters
00:12:25.010 : en:Naiad
00:20:11.109 : en:Diva
00:26:09.868 : en:You And I
00:30:42.640 : en:Love To Hate
00:36:47.939 : en:Demons In You
00:41:43.100 : en:Never Enough
00:48:02.246 : en:Falling Awake
00:53:25.135 : en:I Feel Immortal
00:59:13.716 : en:I Walk Alone
01:03:51.360 : en:Victim Of Ritual
01:10:14.443 : en:Innocence
01:17:43.458 : en:Die Alive
01:23:05.880 : en:Tears In Rain
01:30:21.682 : en:Dead Promises
01:36:30.718 : en:Until My Last Breath
01:42:47.127 : en:Shadow Play
Загрузка...Cкриншот1 Tarja Turunen - Best Of Living The Dream Circus Life (2022) BDRip 1080p [HEVC] 10 bit от OldGamer (RG RIPS CLUB)Загрузка...Cкриншот2 Tarja Turunen - Best Of Living The Dream Circus Life (2022) BDRip 1080p [HEVC] 10 bit от OldGamer (RG RIPS CLUB)Загрузка...Cкриншот3 Tarja Turunen - Best Of Living The Dream Circus Life (2022) BDRip 1080p [HEVC] 10 bit от OldGamer (RG RIPS CLUB)Загрузка...Cкриншот4 Tarja Turunen - Best Of Living The Dream Circus Life (2022) BDRip 1080p [HEVC] 10 bit от OldGamer (RG RIPS CLUB)
Поблагодарили: 11Brooklyn, cannabisonair, cdmitry, Elico1977, ilyich05, Kilop77, nata, Nuclear70, Tony, VIKING, zmeii
Файлы: 1
  • Tarja.Turunen.Best.Of.Living.The.Dream.Circus.Life.2020.BDRip-HEVC.1080p.mkv

Рейтинги КП и IMDB, кнопки "Раздайте, пожалуйста" и "Спасибо", а также мультитрекерная статистика доступны только зарегистрированным/авторизованным пользователям!

OldGamer
1022417.6 ГБ

💬︎ Комментарии

Добавление комментариев доступно только зарегистрированным/авторизованным пользователям.

Всего: 1
Аватар не указан
Tony
Best Voice!👍