Чат

⚫︎
Список изменений сайта - https://rips.club/changelog.html (обновлен 24.05.2024)
  • arwis
Онлайн (за 10 мин.): 1
Отправка сообщений доступна только зарегистрированным/авторизованным пользователям.

🎥︎🎥︎Совместная поездка: Дилогия / Ride Along: Dilogy (2013-2015) BDRip 1080p [HEVC] 10 bit от OldGamer (RG RIPS CLUB)


Обложка Совместная поездка: Дилогия / Ride Along: Dilogy (2013-2015) BDRip 1080p [HEVC] 10 bit от OldGamer (RG RIPS CLUB)
HEVC
10 bit
⤓︎Торрент🧲︎Магнет$Пожертвования

При перезаливке на другие сайты просьба указать автора и релиз-группу.


Год: 2013-2015
Страна: США
Жанр: Боевик, Комедия, Криминал


Релиз-группа: RIPS CLUB
1. Совместная поездка / Ride Along (2013) BDRip 1080p [HEVC] 10 bit от OldGamer
Обложка Совместная поездка / Ride Along (2013) BDRip 1080p [HEVC] 10 bit от OldGamer
HEVC
10 bit
✂︎Сэмпл
Год: 2013
Страна: США
Студия: Cube Vision, LBI Entertainment, Rainforest Films, Relativity Media, Universal Pictures
Жанр: Боевик, Комедия, Криминал
Длительность: 01:39:39

Режиссер: Тим Стори
В ролях: Айс Кьюб, Кевин Харт, Джон Легуизамо, Брюс МакГилл, Тика Самптер, Брайан Коллен, Лоренс Фишбёрн, Драгош Букур, Гари Оуэн, Джейкоб Латимор

Описание: Охранник Бен отправляется вместе со своим шурином Джеймсом в патруль по Атланте, чтобы доказать, что он достоин жениться на Анджеле, сестре Джеймса.


Исходник: Blu-Ray Remux 1080p (FraMeSToR)
Видео: 1920x800 (2.40:1), 6798 Кбит/сек, HEVC (Main10@L.4.1@High)
Аудио1: AC3, 6 ch, 640 Kbps - РусскийРусский, DUB
Аудио2: AC3, 6 ch, 640 Kbps - АнглийскийАнглийский
Субтитры: русские (full, forced), английские (SDH)

Как за несколько секунд удалить ненужные аудиодорожки и субтитры (Внимание! После удаления вы не сможете поддержать раздачу)


Лог (x265 info)x265 [info]: frame I: 602, Avg QP:17.10 kb/s: 17911.12
x265 [info]: frame P: 26207, Avg QP:18.70 kb/s: 11898.85
x265 [info]: frame B: 116542, Avg QP:20.46 kb/s: 5592.53
x265 [info]: Weighted P-Frames: Y:5.2% UV:4.5%
x265 [info]: Weighted B-Frames: Y:4.3% UV:3.6%
x265 [info]: encoded 143351 frames in 95162.41s (1.51 fps), 6797.16 kb/s, Avg QP:20.12
МедиаинфоОбщее
Уникальный идентификатор : 140105449420262470136021773777659883728 (0x696753FA7F3DF238AF6A2EADF7B5F0D0)
Полное имя : \\.\Совместная.поездка.Ride.Along.2013.BDRip-HEVC.1080p.mkv
Формат : Matroska
Версия формата : Version 4
Размер файла : 5,62 Гбайт
Продолжительность : 1 ч. 39 м.
Общий поток : 8 080 Кбит/сек
Дата кодирования : UTC 2023-02-20 00:58:38
Программа кодирования : mkvmerge v74.0.0 ('You Oughta Know') 64-bit
Библиотека кодирования : libebml v1.4.4 + libmatroska v1.7.1

Видео
Идентификатор : 1
Формат : HEVC
Формат/Информация : High Efficiency Video Coding
Профиль формата : Main 10@L4.1@High
Идентификатор кодека : V_MPEGH/ISO/HEVC
Продолжительность : 1 ч. 39 м.
Битрейт : 6 798 Кбит/сек
Ширина : 1 920 пикселей
Высота : 800 пикселей
Соотношение сторон : 2,40:1
Режим частоты кадров : Постоянный
Частота кадров : 23,976 (24000/1001) кадра/сек
Цветовое пространство : YUV
Субдискретизация насыщенности : 4:2:0
Битовая глубина : 10 бит
Бит/(Пиксели*Кадры) : 0.185
Размер потока : 4,73 Гбайт (84%)
Заголовок : Ride Along / Rip by OldGamer
Библиотека кодирования : x265 3.5+86-6da609e41:[Windows][GCC 12.2.0][64 bit] 10bit
Настройки программы : cpuid=1111039 / frame-threads=3 / numa-pools=8 / wpp / no-pmode / no-pme / no-psnr / no-ssim / log-level=2 / input-csp=1 / input-res=1920x800 / interlace=0 / total-frames=143351 / level-idc=41 / high-tier=1 / uhd-bd=0 / ref=5 / no-allow-non-conformance / no-repeat-headers / annexb / no-aud / no-eob / no-eos / no-hrd / info / hash=0 / temporal-layers=0 / open-gop / min-keyint=23 / keyint=240 / gop-lookahead=0 / bframes=16 / b-adapt=2 / b-pyramid / bframe-bias=0 / rc-lookahead=40 / lookahead-slices=0 / scenecut=40 / no-hist-scenecut / radl=0 / no-splice / no-intra-refresh / ctu=32 / min-cu-size=8 / rect / amp / max-tu-size=32 / tu-inter-depth=4 / tu-intra-depth=4 / limit-tu=1 / rdoq-level=2 / dynamic-rd=0.00 / no-ssim-rd / signhide / no-tskip / nr-intra=0 / nr-inter=0 / no-constrained-intra / no-strong-intra-smoothing / max-merge=5 / limit-refs=3 / no-limit-modes / me=3 / subme=7 / merange=57 / temporal-mvp / no-frame-dup / no-hme / weightp / weightb / no-analyze-src-pics / deblock=-2:-2 / no-sao / no-sao-non-deblock / rd=6 / selective-sao=0 / no-early-skip / no-rskip / no-fast-intra / no-tskip-fast / no-cu-lossless / b-intra / no-splitrd-skip / rdpenalty=0 / psy-rd=2.00 / psy-rdoq=1.00 / no-rd-refine / no-lossless / cbqpoffs=0 / crqpoffs=0 / rc=crf / crf=20.0 / qcomp=0.70 / qpstep=4 / stats-write=0 / stats-read=0 / vbv-maxrate=50000 / vbv-bufsize=50000 / vbv-init=0.9 / min-vbv-fullness=50.0 / max-vbv-fullness=80.0 / crf-max=0.0 / crf-min=0.0 / ipratio=1.40 / pbratio=1.30 / aq-mode=1 / aq-strength=1.00 / no-cutree / zone-count=1 / zones: / start-frame=137318 / end-frame=143351 / qp=36 / no-strict-cbr / qg-size=32 / no-rc-grain / qpmax=69 / qpmin=0 / no-const-vbv / sar=1 / overscan=0 / videoformat=5 / range=0 / colorprim=2 / transfer=2 / colormatrix=2 / chromaloc=0 / display-window=0 / cll=0,0 / min-luma=0 / max-luma=1023 / log2-max-poc-lsb=8 / vui-timing-info / vui-hrd-info / slices=1 / no-opt-qp-pps / no-opt-ref-list-length-pps / no-multi-pass-opt-rps / scenecut-bias=0.00 / no-opt-cu-delta-qp / no-aq-motion / no-hdr10 / no-hdr10-opt / no-dhdr10-opt / no-idr-recovery-sei / analysis-reuse-level=0 / analysis-save-reuse-level=0 / analysis-load-reuse-level=0 / scale-factor=0 / refine-intra=0 / refine-inter=0 / refine-mv=1 / refine-ctu-distortion=0 / no-limit-sao / ctu-info=0 / no-lowpass-dct / refine-analysis-type=0 / copy-pic=1 / max-ausize-factor=1.0 / no-dynamic-refine / no-single-sei / no-hevc-aq / no-svt / no-field / qp-adaptation-range=1.00 / scenecut-aware-qp=0conformance-window-offsets / right=0 / bottom=0 / decoder-max-rate=0 / no-vbv-live-multi-pass / no-mcstf / no-sbrc
Язык : English
Default : Да
Forced : Нет

Аудио #1
Идентификатор : 2
Формат : AC-3
Формат/Информация : Audio Coding 3
Коммерческое название : Dolby Digital
Идентификатор кодека : A_AC3
Продолжительность : 1 ч. 39 м.
Вид битрейта : Постоянный
Битрейт : 640 Кбит/сек
Каналы : 6 каналов
Channel layout : L R C LFE Ls Rs
Частота : 48,0 КГц
Частота кадров : 31,250 кадров/сек (1536 SPF)
Метод сжатия : С потерями
Размер потока : 456 Мбайт (8%)
Заголовок : DUB (Blu-Ray CEE)
Язык : Russian
Service kind : Complete Main
Default : Да
Forced : Нет

Аудио #2
Идентификатор : 3
Формат : AC-3
Формат/Информация : Audio Coding 3
Коммерческое название : Dolby Digital
Идентификатор кодека : A_AC3
Продолжительность : 1 ч. 39 м.
Вид битрейта : Постоянный
Битрейт : 640 Кбит/сек
Каналы : 6 каналов
Channel layout : L R C LFE Ls Rs
Частота : 48,0 КГц
Частота кадров : 31,250 кадров/сек (1536 SPF)
Метод сжатия : С потерями
Размер потока : 456 Мбайт (8%)
Язык : English
Service kind : Complete Main
Default : Нет
Forced : Нет

Текст #1
Идентификатор : 4
Формат : UTF-8
Идентификатор кодека : S_TEXT/UTF8
Идентификатор кодека/Информация : UTF-8 Plain Text
Продолжительность : 1 ч. 21 м.
Битрейт : 0 бит/сек
Частота кадров : 0,002 кадр/сек
Count of elements : 9
Размер потока : 345 байт (0%)
Заголовок : Forced
Язык : Russian
Default : Да
Forced : Нет

Текст #2
Идентификатор : 5
Формат : UTF-8
Идентификатор кодека : S_TEXT/UTF8
Идентификатор кодека/Информация : UTF-8 Plain Text
Продолжительность : 1 ч. 35 м.
Битрейт : 153 бит/сек
Частота кадров : 0,373 кадр/сек
Count of elements : 2126
Размер потока : 107 Кбайт (0%)
Заголовок : Full
Язык : Russian
Default : Нет
Forced : Нет

Текст #3
Идентификатор : 6
Формат : UTF-8
Идентификатор кодека : S_TEXT/UTF8
Идентификатор кодека/Информация : UTF-8 Plain Text
Продолжительность : 1 ч. 35 м.
Битрейт : 106 бит/сек
Частота кадров : 0,402 кадр/сек
Count of elements : 2293
Размер потока : 74,2 Кбайт (0%)
Язык : English
Default : Нет
Forced : Нет

Текст #4
Идентификатор : 7
Формат : UTF-8
Идентификатор кодека : S_TEXT/UTF8
Идентификатор кодека/Информация : UTF-8 Plain Text
Продолжительность : 1 ч. 35 м.
Битрейт : 109 бит/сек
Частота кадров : 0,417 кадр/сек
Count of elements : 2380
Размер потока : 76,2 Кбайт (0%)
Заголовок : SDH
Язык : English
Default : Нет
Forced : Нет

Меню
00:00:00.000 : en: Chapter 1
00:05:09.184 : en: Chapter 2
00:10:37.387 : en: Chapter 3
00:14:40.922 : en: Chapter 4
00:19:46.435 : en: Chapter 5
00:25:03.419 : en: Chapter 6
00:31:16.750 : en: Chapter 7
00:35:46.394 : en: Chapter 8
00:40:51.658 : en: Chapter 9
00:44:31.085 : en: Chapter 10
00:50:40.162 : en: Chapter 11
00:54:49.995 : en: Chapter 12
01:00:00.931 : en: Chapter 13
01:06:13.136 : en: Chapter 14
01:11:47.303 : en: Chapter 15
01:18:44.553 : en: Chapter 16
01:22:53.594 : en: Chapter 17
01:26:27.974 : en: Chapter 18
01:30:09.279 : en: Chapter 19
01:35:27.347 : en: Chapter 20
Загрузка...Cкриншот1 Совместная поездка / Ride Along (2013) BDRip 1080p [HEVC] 10 bit от OldGamerЗагрузка...Cкриншот2 Совместная поездка / Ride Along (2013) BDRip 1080p [HEVC] 10 bit от OldGamerЗагрузка...Cкриншот3 Совместная поездка / Ride Along (2013) BDRip 1080p [HEVC] 10 bit от OldGamerЗагрузка...Cкриншот4 Совместная поездка / Ride Along (2013) BDRip 1080p [HEVC] 10 bit от OldGamer
2. Миссия в Майами / Ride Along 2 (2015) BDRip 1080p [HEVC] 10 bit от OldGamer
Обложка Миссия в Майами / Ride Along 2 (2015) BDRip 1080p [HEVC] 10 bit от OldGamer
HEVC
10 bit
✂︎Сэмпл
Год: 2015
Страна: США
Студия: Cube Vision, Universal Pictures, Will Packer Productions
Жанр: Боевик, Комедия, Криминал
Длительность: 01:41:30

Режиссер: Тим Стори
В ролях: Айс Кьюб, Кевин Харт, Тика Самптер, Бенджамин Брэтт, Оливия Манн, Кен Жонг, Брюс МакГилл, Майкл Эдвард Роуз, Шерри Шеперд, Артуро дель Пуэрто

Описание: Накануне собственной свадьбы Бен отправляется с братом своей будущей жены, крутым полицейским Джеймсом, в Майами, чтобы схватить наркодельца.


Исходник: Blu-Ray Remux 1080p (rutracker)
Видео: 1920x800 (2.40:1), 4810 Кбит/сек, HEVC (Main10@L.4.1@High)
Аудио1: AC3, 6 ch, 640 Kbps - РусскийРусский, DUB
Аудио2: AC3, 6 ch, 640 Kbps - АнглийскийАнглийский
Субтитры: русские (full, forced), украинские, английские (SDH)

Как за несколько секунд удалить ненужные аудиодорожки и субтитры (Внимание! После удаления вы не сможете поддержать раздачу)


Лог (x265 info)x265 [info]: frame I: 611, Avg QP:17.06 kb/s: 13824.93
x265 [info]: frame P: 31708, Avg QP:18.74 kb/s: 9393.54
x265 [info]: frame B: 113696, Avg QP:20.67 kb/s: 3482.83
x265 [info]: Weighted P-Frames: Y:3.7% UV:3.1%
x265 [info]: Weighted B-Frames: Y:3.4% UV:2.7%
x265 [info]: encoded 146015 frames in 90508.40s (1.61 fps), 4809.65 kb/s, Avg QP:20.23
МедиаинфоОбщее
Уникальный идентификатор : 208189147786280882016904352851839698531 (0x9C9FC579472CA0225D20F6E137044663)
Полное имя : \\.\Миссия.в.Майами.Ride.Along.2.2015.BDRip-HEVC.1080p.mkv
Формат : Matroska
Версия формата : Version 4
Размер файла : 4,32 Гбайт
Продолжительность : 1 ч. 41 м.
Общий поток : 6 094 Кбит/сек
Дата кодирования : UTC 2023-02-21 00:57:27
Программа кодирования : mkvmerge v74.0.0 ('You Oughta Know') 64-bit
Библиотека кодирования : libebml v1.4.4 + libmatroska v1.7.1
Обложка : Yes
Attachments : cover.jpg

Видео
Идентификатор : 1
Формат : HEVC
Формат/Информация : High Efficiency Video Coding
Профиль формата : Main 10@L4.1@High
Идентификатор кодека : V_MPEGH/ISO/HEVC
Продолжительность : 1 ч. 41 м.
Битрейт : 4 810 Кбит/сек
Ширина : 1 920 пикселей
Высота : 800 пикселей
Соотношение сторон : 2,40:1
Режим частоты кадров : Постоянный
Частота кадров : 23,976 (24000/1001) кадра/сек
Цветовое пространство : YUV
Субдискретизация насыщенности : 4:2:0
Битовая глубина : 10 бит
Бит/(Пиксели*Кадры) : 0.131
Размер потока : 3,41 Гбайт (79%)
Заголовок : Ride Along 2 / Rip by OldGamer
Библиотека кодирования : x265 3.5+86-6da609e41:[Windows][GCC 12.2.0][64 bit] 10bit
Настройки программы : cpuid=1111039 / frame-threads=3 / numa-pools=8 / wpp / no-pmode / no-pme / no-psnr / no-ssim / log-level=2 / input-csp=1 / input-res=1920x800 / interlace=0 / total-frames=146015 / level-idc=41 / high-tier=1 / uhd-bd=0 / ref=5 / no-allow-non-conformance / no-repeat-headers / annexb / no-aud / no-eob / no-eos / no-hrd / info / hash=0 / temporal-layers=0 / open-gop / min-keyint=23 / keyint=240 / gop-lookahead=0 / bframes=16 / b-adapt=2 / b-pyramid / bframe-bias=0 / rc-lookahead=40 / lookahead-slices=0 / scenecut=40 / no-hist-scenecut / radl=0 / no-splice / no-intra-refresh / ctu=32 / min-cu-size=8 / rect / amp / max-tu-size=32 / tu-inter-depth=4 / tu-intra-depth=4 / limit-tu=1 / rdoq-level=2 / dynamic-rd=0.00 / no-ssim-rd / signhide / no-tskip / nr-intra=0 / nr-inter=0 / no-constrained-intra / no-strong-intra-smoothing / max-merge=5 / limit-refs=3 / no-limit-modes / me=3 / subme=7 / merange=57 / temporal-mvp / no-frame-dup / no-hme / weightp / weightb / no-analyze-src-pics / deblock=-2:-2 / no-sao / no-sao-non-deblock / rd=6 / selective-sao=0 / no-early-skip / no-rskip / no-fast-intra / no-tskip-fast / no-cu-lossless / b-intra / no-splitrd-skip / rdpenalty=0 / psy-rd=2.00 / psy-rdoq=1.00 / no-rd-refine / no-lossless / cbqpoffs=0 / crqpoffs=0 / rc=crf / crf=20.0 / qcomp=0.70 / qpstep=4 / stats-write=0 / stats-read=0 / vbv-maxrate=50000 / vbv-bufsize=50000 / vbv-init=0.9 / min-vbv-fullness=50.0 / max-vbv-fullness=80.0 / crf-max=0.0 / crf-min=0.0 / ipratio=1.40 / pbratio=1.30 / aq-mode=1 / aq-strength=1.00 / no-cutree / zone-count=1 / zones: / start-frame=139462 / end-frame=146015 / qp=36 / no-strict-cbr / qg-size=32 / no-rc-grain / qpmax=69 / qpmin=0 / no-const-vbv / sar=1 / overscan=0 / videoformat=5 / range=0 / colorprim=2 / transfer=2 / colormatrix=2 / chromaloc=0 / display-window=0 / cll=0,0 / min-luma=0 / max-luma=1023 / log2-max-poc-lsb=8 / vui-timing-info / vui-hrd-info / slices=1 / no-opt-qp-pps / no-opt-ref-list-length-pps / no-multi-pass-opt-rps / scenecut-bias=0.00 / no-opt-cu-delta-qp / no-aq-motion / no-hdr10 / no-hdr10-opt / no-dhdr10-opt / no-idr-recovery-sei / analysis-reuse-level=0 / analysis-save-reuse-level=0 / analysis-load-reuse-level=0 / scale-factor=0 / refine-intra=0 / refine-inter=0 / refine-mv=1 / refine-ctu-distortion=0 / no-limit-sao / ctu-info=0 / no-lowpass-dct / refine-analysis-type=0 / copy-pic=1 / max-ausize-factor=1.0 / no-dynamic-refine / no-single-sei / no-hevc-aq / no-svt / no-field / qp-adaptation-range=1.00 / scenecut-aware-qp=0conformance-window-offsets / right=0 / bottom=0 / decoder-max-rate=0 / no-vbv-live-multi-pass / no-mcstf / no-sbrc
Язык : English
Default : Да
Forced : Нет

Аудио #1
Идентификатор : 2
Формат : AC-3
Формат/Информация : Audio Coding 3
Коммерческое название : Dolby Digital
Идентификатор кодека : A_AC3
Продолжительность : 1 ч. 41 м.
Вид битрейта : Постоянный
Битрейт : 640 Кбит/сек
Каналы : 6 каналов
Channel layout : L R C LFE Ls Rs
Частота : 48,0 КГц
Частота кадров : 31,250 кадров/сек (1536 SPF)
Метод сжатия : С потерями
Размер потока : 465 Мбайт (11%)
Язык : Russian
Service kind : Complete Main
Default : Да
Forced : Нет

Аудио #2
Идентификатор : 3
Формат : AC-3
Формат/Информация : Audio Coding 3
Коммерческое название : Dolby Digital
Идентификатор кодека : A_AC3
Продолжительность : 1 ч. 41 м.
Вид битрейта : Постоянный
Битрейт : 640 Кбит/сек
Каналы : 6 каналов
Channel layout : L R C LFE Ls Rs
Частота : 48,0 КГц
Частота кадров : 31,250 кадров/сек (1536 SPF)
Метод сжатия : С потерями
Размер потока : 465 Мбайт (11%)
Язык : English
Service kind : Complete Main
Default : Нет
Forced : Нет

Текст #1
Идентификатор : 4
Формат : UTF-8
Идентификатор кодека : S_TEXT/UTF8
Идентификатор кодека/Информация : UTF-8 Plain Text
Продолжительность : 1 ч. 14 м.
Битрейт : 1 бит/сек
Частота кадров : 0,003 кадр/сек
Count of elements : 13
Размер потока : 653 байт (0%)
Заголовок : forced
Язык : Russian
Default : Да
Forced : Нет

Текст #2
Идентификатор : 5
Формат : UTF-8
Идентификатор кодека : S_TEXT/UTF8
Идентификатор кодека/Информация : UTF-8 Plain Text
Продолжительность : 1 ч. 36 м.
Битрейт : 141 бит/сек
Частота кадров : 0,352 кадр/сек
Count of elements : 2033
Размер потока : 99,6 Кбайт (0%)
Язык : Russian
Default : Нет
Forced : Нет

Текст #3
Идентификатор : 6
Формат : UTF-8
Идентификатор кодека : S_TEXT/UTF8
Идентификатор кодека/Информация : UTF-8 Plain Text
Продолжительность : 1 ч. 40 м.
Битрейт : 140 бит/сек
Частота кадров : 0,336 кадр/сек
Count of elements : 2033
Размер потока : 104 Кбайт (0%)
Язык : Ukrainian
Default : Нет
Forced : Нет

Текст #4
Идентификатор : 7
Формат : UTF-8
Идентификатор кодека : S_TEXT/UTF8
Идентификатор кодека/Информация : UTF-8 Plain Text
Продолжительность : 1 ч. 36 м.
Битрейт : 101 бит/сек
Частота кадров : 0,401 кадр/сек
Count of elements : 2312
Размер потока : 71,7 Кбайт (0%)
Заголовок : SDH
Язык : English
Default : Нет
Forced : Нет

Меню
00:00:00.000 : en:Chapter 01
00:03:29.375 : en:Chapter 02
00:10:26.709 : en:Chapter 03
00:14:00.089 : en:Chapter 04
00:17:21.040 : en:Chapter 05
00:22:33.268 : en:Chapter 06
00:27:48.875 : en:Chapter 07
00:34:33.529 : en:Chapter 08
00:39:25.905 : en:Chapter 09
00:42:26.001 : en:Chapter 10
00:46:06.013 : en:Chapter 11
00:50:51.173 : en:Chapter 12
00:56:40.772 : en:Chapter 13
01:00:04.726 : en:Chapter 14
01:06:57.680 : en:Chapter 15
01:13:09.051 : en:Chapter 16
01:19:35.395 : en:Chapter 17
01:23:06.731 : en:Chapter 18
01:31:20.141 : en:Chapter 19
01:36:58.813 : en:Chapter 20
Загрузка...Cкриншот1 Миссия в Майами / Ride Along 2 (2015) BDRip 1080p [HEVC] 10 bit от OldGamerЗагрузка...Cкриншот2 Миссия в Майами / Ride Along 2 (2015) BDRip 1080p [HEVC] 10 bit от OldGamerЗагрузка...Cкриншот3 Миссия в Майами / Ride Along 2 (2015) BDRip 1080p [HEVC] 10 bit от OldGamerЗагрузка...Cкриншот4 Миссия в Майами / Ride Along 2 (2015) BDRip 1080p [HEVC] 10 bit от OldGamer

Поблагодарили: 12and50, Brooklyn, denisptp4, ilyich05, IRIT, ivan_1965, kaif2, Kiran, Nuclear70, Redman, SergKote, Tastod
Файлы: 2
  • Ride Along
    • 4.32 ГБМиссия.в.Майами.Ride.Along.2.2015.BDRip-HEVC.1080p.mkv
    • 5.62 ГБСовместная.поездка.Ride.Along.2013.BDRip-HEVC.1080p.mkv

Рейтинги КП и IMDB, кнопки "Раздайте, пожалуйста" и "Спасибо", а также мультитрекерная статистика доступны только зарегистрированным/авторизованным пользователям!

OldGamer
401170(2) 9.94 ГБ

💬︎ Комментарии

Добавление комментариев доступно только зарегистрированным/авторизованным пользователям.