Чат

⚫︎
Список изменений сайта - https://rips.club/changelog.html (обновлен 24.05.2024)
  • OldGamer
  • Kristina
  • sabretooth
  • Winsent
Онлайн (за 10 мин.): 4
  • Antilord90: Может кто переделает "Секс по дружбе" телики не воспроизводят!
  • Гл. Админ: Niflung, раздаю
  • VIS: Раздайте, пожалуйста, Большое путешествие / The Wild (2006) BDRip 1080p [HEVC] 10 bit от Мичман
  • Niflung: Раздайте, пожалуйста, Тихое место: Дилогия / A Quiet Place: Dilogy (2018-2020) UHD-BDRip 1080p [HEVC] 10 bit [HDR] от Mr. Fox
  • Antilord90: Сообщение удалено (удалил: Antilord90)
  • Niflung: Гл. Админ, Ладно, буду качать 10 bit версию)
  • Гл. Админ: Niflung, у меня только 10-битная версия
  • HANNIBAL: Гл. Админ, все норм раздача идет
  • Niflung: Раздайте, пожалуйста, Берегись автомобиля (1966) [Цветная версия] BDRip 1080p [HEVC] 8 bit от ADVOKAT69
  • Гл. Админ: HANNIBAL, Я удалил раздачу, которую заливал я. А другую заливал ты, и она была как на руторе. Теперь не понятно на что ты перезалил (в чем разница по сравнению с предыдущей, т.е. руторовской), потому что сидов нет. По моему ты не исправил, а сломал ) ( отредактировано: )
  • Гл. Админ: OldGamer, вообще задумка была сделать цветовую дифференциацию как в фильме Кин-дза-дза!, но поскольку желтый ник лучше подходит для випов, то немного не получилось.
  • Гл. Админ: HANNIBAL, их 2. Что там нужно исправлять?
  • Гл. Админ: HANNIBAL, Я думаю в добавок к зеленой могут появиться и другие цвета. ( отредактировано: )
  • HANNIBAL: Гл. Админ, и исправь раздачу Голая правда
  • HANNIBAL: Гл. Админ, не пора убрать с посторов эту зеленую надпись )))
  • HANNIBAL: Сообщение удалено (удалил: HANNIBAL)
  • Гл. Админ: HANNIBAL, админов теперь 2 ( отредактировано: )
  • HANNIBAL: админ привет
  • Antilord90: Раздайте, пожалуйста, Мальчикам это нравится / The House Bunny (2008) BDRip 1080p [HEVC] 10 bit от -Star-Lord- (RG RIPS CLUB)
  • Гл. Админ: Продлил доменное имя (адрес сайта) на год. Что-то он подорожал (24 евро вместо прежних 12). Ещё раз спасибо всем, кто поддерживает финансово. ( отредактировано: )
Отправка сообщений доступна только зарегистрированным/авторизованным пользователям.

🎥︎📺︎Пацаны / The Boys (2022) [3 сезон] BDRip 1080p [HEVC] 10 bit от OldGamer (RG RIPS CLUB)


Обложка Пацаны / The Boys (2022) [3 сезон] BDRip 1080p [HEVC] 10 bit от OldGamer (RG RIPS CLUB)
HEVC
10 bit
✂︎Сэмпл⤓︎Торрент🧲︎Магнет$Пожертвования

При перезаливке на другие сайты просьба указать автора и релиз-группу.


Год: 2022
Страна: США
Студия: Amazon Studios, Original Film, Point Grey Pictures, Sony Pictures Television
Жанр: Фантастика, Боевик, Драма, Криминал
Длительность: 08:01:43

Режиссер: Филип Сгриккиа, Сара Бойд, Стефан Шварц
В ролях: Карл Урбан, Джек Куэйд, Энтони Старр, Эрин Мориарти, Джесси Ашер, Лас Алонсо, Чейс Кроуфорд, Томер Капон, Карен Фукухара, Нэйтан Митчелл

Описание: Действие происходит через год после событий предыдущего сезона, и история рассказывает о титулованных "Пацанах", которые теперь работают в Бюро по делам супергероев Виктории Ньюман, чтобы задерживать проблемных Суперов, будучи в мире с "Семёркой". Однако конфликт возобновляется, как только Билли "Мясник" Бутчер начинает расследовать правду о смерти Солдатика, одного из первых американских супергероев "Vought", в надежде навсегда убить Патриота. Тем временем психическая стабильность Патриота начинает ухудшаться, поскольку "Vought" пытается ограничить его власть, в то время как другие члены "Семёрки", такие как Звезда и Королева Мэйв, помогают "Пацанам" в их заговоре против него.


Релиз-группа: RIPS CLUB
Исходник: Blu-Ray Remux 1080p (SiCFoI)
Видео: 1920x804 (2.40:1), 4400-6891 Кбит/сек, HEVC (Main10@L.4.1@High)
Аудио1: AC3, 2 ch, 384 Kbps - РусскийРусский, DUB (Red Head Sound, без цензуры)
Аудио2: AC3, 6 ch, 640 Kbps - РусскийРусский, MVO (NewStudio, без цензуры)
Аудио3: AC3, 6 ch, 448 Kbps - РусскийРусский, MVO (HDrezka Studio, без цензуры)
Аудио4: AC3, 6 ch, 448 Kbps - РусскийРусский, MVO (Jaskier, без цензуры)
Аудио5: AC3, 6 ch, 384 Kbps - РусскийРусский, MVO (AlexFilm, без цензуры)
Аудио6: AC3, 2 ch, 384 Kbps - РусскийРусский, MVO (LostFilm)
Аудио7: AC3, 6 ch, 640 Kbps - АнглийскийАнглийский
Субтитры: русские (full, forced), английские (forced, SDH)

Как за несколько секунд удалить ненужные аудиодорожки и субтитры (Внимание! После удаления вы не сможете поддержать раздачу)


Лог (x265 info)x265 [info]: frame I: 362, Avg QP:18.04 kb/s: 15580.21
x265 [info]: frame P: 12193, Avg QP:19.08 kb/s: 10969.63
x265 [info]: frame B: 73475, Avg QP:21.71 kb/s: 5489.71
x265 [info]: Weighted P-Frames: Y:3.3% UV:2.5%
x265 [info]: Weighted B-Frames: Y:2.7% UV:1.7%
x265 [info]: encoded 86030 frames in 46534.29s (1.85 fps), 6308.83 kb/s, Avg QP:21.32
МедиаинфоОбщее
Уникальный идентификатор : 60989988724230172762278688442572192439 (0x2DE23E9B6E3EF7169FB1A88B0FADBAB7)
Полное имя : \\.\The.Boys.S03E05.The.Last.Time.to.Look.on.this.World.of.Lies.mkv
Формат : Matroska
Версия формата : Version 4
Размер файла : 4,03 Гбайт
Продолжительность : 59 м. 48 с.
Общий поток : 9 641 Кбит/сек
Дата кодирования : UTC 2023-03-14 14:45:17
Программа кодирования : mkvmerge v74.0.0 ('You Oughta Know') 64-bit
Библиотека кодирования : libebml v1.4.4 + libmatroska v1.7.1

Видео
Идентификатор : 1
Формат : HEVC
Формат/Информация : High Efficiency Video Coding
Профиль формата : Main 10@L4.1@High
Идентификатор кодека : V_MPEGH/ISO/HEVC
Продолжительность : 59 м. 48 с.
Битрейт : 6 310 Кбит/сек
Ширина : 1 920 пикселей
Высота : 804 пикселя
Соотношение сторон : 2,40:1
Режим частоты кадров : Постоянный
Частота кадров : 23,976 (24000/1001) кадра/сек
Цветовое пространство : YUV
Субдискретизация насыщенности : 4:2:0
Битовая глубина : 10 бит
Бит/(Пиксели*Кадры) : 0.170
Размер потока : 2,64 Гбайт (65%)
Заголовок : The Boys S03E05 / Rip by OldGamer
Библиотека кодирования : x265 3.5+86-6da609e41:[Windows][GCC 12.2.0][64 bit] 10bit
Настройки программы : cpuid=1111039 / frame-threads=4 / numa-pools=16 / wpp / no-pmode / no-pme / no-psnr / no-ssim / log-level=2 / input-csp=1 / input-res=1920x804 / interlace=0 / total-frames=86030 / level-idc=41 / high-tier=1 / uhd-bd=0 / ref=5 / no-allow-non-conformance / no-repeat-headers / annexb / no-aud / no-eob / no-eos / no-hrd / info / hash=0 / temporal-layers=0 / open-gop / min-keyint=23 / keyint=240 / gop-lookahead=0 / bframes=16 / b-adapt=2 / b-pyramid / bframe-bias=0 / rc-lookahead=40 / lookahead-slices=0 / scenecut=40 / no-hist-scenecut / radl=0 / no-splice / no-intra-refresh / ctu=32 / min-cu-size=8 / rect / amp / max-tu-size=32 / tu-inter-depth=4 / tu-intra-depth=4 / limit-tu=1 / rdoq-level=2 / dynamic-rd=0.00 / no-ssim-rd / signhide / no-tskip / nr-intra=0 / nr-inter=0 / no-constrained-intra / no-strong-intra-smoothing / max-merge=5 / limit-refs=3 / no-limit-modes / me=3 / subme=7 / merange=57 / temporal-mvp / no-frame-dup / no-hme / weightp / weightb / no-analyze-src-pics / deblock=-2:-2 / no-sao / no-sao-non-deblock / rd=6 / selective-sao=0 / no-early-skip / no-rskip / no-fast-intra / no-tskip-fast / no-cu-lossless / b-intra / no-splitrd-skip / rdpenalty=0 / psy-rd=2.00 / psy-rdoq=1.00 / no-rd-refine / no-lossless / cbqpoffs=0 / crqpoffs=0 / rc=crf / crf=20.2 / qcomp=0.70 / qpstep=4 / stats-write=0 / stats-read=0 / vbv-maxrate=50000 / vbv-bufsize=50000 / vbv-init=0.9 / min-vbv-fullness=50.0 / max-vbv-fullness=80.0 / crf-max=0.0 / crf-min=0.0 / ipratio=1.40 / pbratio=1.30 / aq-mode=1 / aq-strength=0.70 / no-cutree / zone-count=1 / zones: / start-frame=82341 / end-frame=86030 / qp=36 / no-strict-cbr / qg-size=32 / no-rc-grain / qpmax=69 / qpmin=0 / no-const-vbv / sar=1 / overscan=0 / videoformat=5 / range=0 / colorprim=2 / transfer=2 / colormatrix=2 / chromaloc=0 / display-window=0 / cll=0,0 / min-luma=0 / max-luma=1023 / log2-max-poc-lsb=8 / vui-timing-info / vui-hrd-info / slices=1 / no-opt-qp-pps / no-opt-ref-list-length-pps / no-multi-pass-opt-rps / scenecut-bias=0.00 / no-opt-cu-delta-qp / no-aq-motion / no-hdr10 / no-hdr10-opt / no-dhdr10-opt / no-idr-recovery-sei / analysis-reuse-level=0 / analysis-save-reuse-level=0 / analysis-load-reuse-level=0 / scale-factor=0 / refine-intra=0 / refine-inter=0 / refine-mv=1 / refine-ctu-distortion=0 / no-limit-sao / ctu-info=0 / no-lowpass-dct / refine-analysis-type=0 / copy-pic=1 / max-ausize-factor=1.0 / no-dynamic-refine / no-single-sei / no-hevc-aq / no-svt / no-field / qp-adaptation-range=1.00 / scenecut-aware-qp=0conformance-window-offsets / right=0 / bottom=0 / decoder-max-rate=0 / no-vbv-live-multi-pass / no-mcstf / no-sbrc
Язык : English
Default : Да
Forced : Нет

Аудио #1
Идентификатор : 2
Формат : AC-3
Формат/Информация : Audio Coding 3
Коммерческое название : Dolby Digital
Идентификатор кодека : A_AC3
Продолжительность : 59 м. 48 с.
Вид битрейта : Постоянный
Битрейт : 384 Кбит/сек
Каналы : 2 канала
Channel layout : L R
Частота : 48,0 КГц
Частота кадров : 31,250 кадров/сек (1536 SPF)
Метод сжатия : С потерями
Размер потока : 164 Мбайт (4%)
Заголовок : DUB (Red Head Sound, без цензуры)
Язык : Russian
Service kind : Complete Main
Default : Нет
Forced : Нет

Аудио #2
Идентификатор : 3
Формат : AC-3
Формат/Информация : Audio Coding 3
Коммерческое название : Dolby Digital
Идентификатор кодека : A_AC3
Продолжительность : 59 м. 46 с.
Вид битрейта : Постоянный
Битрейт : 640 Кбит/сек
Каналы : 6 каналов
Channel layout : L R C LFE Ls Rs
Частота : 48,0 КГц
Частота кадров : 31,250 кадров/сек (1536 SPF)
Метод сжатия : С потерями
Размер потока : 274 Мбайт (7%)
Заголовок : MVO (NewStudio, без цензуры)
Язык : Russian
Service kind : Complete Main
Default : Нет
Forced : Нет

Аудио #3
Идентификатор : 4
Формат : AC-3
Формат/Информация : Audio Coding 3
Коммерческое название : Dolby Digital
Идентификатор кодека : A_AC3
Продолжительность : 59 м. 48 с.
Вид битрейта : Постоянный
Битрейт : 448 Кбит/сек
Каналы : 6 каналов
Channel layout : L R C LFE Ls Rs
Частота : 48,0 КГц
Частота кадров : 31,250 кадров/сек (1536 SPF)
Метод сжатия : С потерями
Размер потока : 192 Мбайт (5%)
Заголовок : MVO (HDrezka Studio, без цензуры)
Язык : Russian
Service kind : Complete Main
Default : Нет
Forced : Нет

Аудио #4
Идентификатор : 5
Формат : AC-3
Формат/Информация : Audio Coding 3
Коммерческое название : Dolby Digital
Идентификатор кодека : A_AC3
Продолжительность : 59 м. 46 с.
Вид битрейта : Постоянный
Битрейт : 448 Кбит/сек
Каналы : 6 каналов
Channel layout : L R C LFE Ls Rs
Частота : 48,0 КГц
Частота кадров : 31,250 кадров/сек (1536 SPF)
Метод сжатия : С потерями
Размер потока : 192 Мбайт (5%)
Заголовок : MVO (Jaskier, без цензуры)
Язык : Russian
Service kind : Complete Main
Default : Нет
Forced : Нет

Аудио #5
Идентификатор : 6
Формат : AC-3
Формат/Информация : Audio Coding 3
Коммерческое название : Dolby Digital
Идентификатор кодека : A_AC3
Продолжительность : 59 м. 48 с.
Вид битрейта : Постоянный
Битрейт : 384 Кбит/сек
Каналы : 6 каналов
Channel layout : L R C LFE Ls Rs
Частота : 48,0 КГц
Частота кадров : 31,250 кадров/сек (1536 SPF)
Метод сжатия : С потерями
Размер потока : 164 Мбайт (4%)
Заголовок : MVO (AlexFilm, без цензуры)
Язык : Russian
Service kind : Complete Main
Default : Нет
Forced : Нет

Аудио #6
Идентификатор : 7
Формат : AC-3
Формат/Информация : Audio Coding 3
Коммерческое название : Dolby Digital
Идентификатор кодека : A_AC3
Продолжительность : 59 м. 48 с.
Вид битрейта : Постоянный
Битрейт : 384 Кбит/сек
Каналы : 2 канала
Channel layout : L R
Частота : 48,0 КГц
Частота кадров : 31,250 кадров/сек (1536 SPF)
Метод сжатия : С потерями
Размер потока : 164 Мбайт (4%)
Заголовок : MVO (LostFilm)
Язык : Russian
Service kind : Complete Main
Default : Да
Forced : Нет

Аудио #7
Идентификатор : 8
Формат : AC-3
Формат/Информация : Audio Coding 3
Коммерческое название : Dolby Digital
Идентификатор кодека : A_AC3
Продолжительность : 59 м. 48 с.
Вид битрейта : Постоянный
Битрейт : 640 Кбит/сек
Каналы : 6 каналов
Channel layout : L R C LFE Ls Rs
Частота : 48,0 КГц
Частота кадров : 31,250 кадров/сек (1536 SPF)
Метод сжатия : С потерями
Размер потока : 274 Мбайт (7%)
Язык : English
Service kind : Complete Main
Default : Нет
Forced : Нет

Текст #1
Идентификатор : 9
Формат : UTF-8
Идентификатор кодека : S_TEXT/UTF8
Идентификатор кодека/Информация : UTF-8 Plain Text
Продолжительность : 57 м. 21 с.
Битрейт : 7 бит/сек
Частота кадров : 0,019 кадр/сек
Count of elements : 65
Размер потока : 3,18 Кбайт (0%)
Заголовок : forced
Язык : Russian
Default : Да
Forced : Нет

Текст #2
Идентификатор : 10
Формат : UTF-8
Идентификатор кодека : S_TEXT/UTF8
Идентификатор кодека/Информация : UTF-8 Plain Text
Продолжительность : 59 м. 26 с.
Битрейт : 96 бит/сек
Частота кадров : 0,239 кадр/сек
Count of elements : 853
Размер потока : 42,0 Кбайт (0%)
Заголовок : full
Язык : Russian
Default : Нет
Forced : Нет

Текст #3
Идентификатор : 11
Формат : UTF-8
Идентификатор кодека : S_TEXT/UTF8
Идентификатор кодека/Информация : UTF-8 Plain Text
Продолжительность : 17 м. 30 с.
Битрейт : 3 бит/сек
Частота кадров : 0,014 кадр/сек
Count of elements : 15
Размер потока : 426 байт (0%)
Заголовок : forced
Язык : English
Default : Нет
Forced : Нет

Текст #4
Идентификатор : 12
Формат : UTF-8
Идентификатор кодека : S_TEXT/UTF8
Идентификатор кодека/Информация : UTF-8 Plain Text
Продолжительность : 59 м. 22 с.
Битрейт : 78 бит/сек
Частота кадров : 0,319 кадр/сек
Count of elements : 1137
Размер потока : 34,3 Кбайт (0%)
Заголовок : SDH
Язык : English
Default : Нет
Forced : Нет

Меню
00:00:00.000 : en:Chapter 01
00:10:31.672 : en:Chapter 02
00:20:37.694 : en:Chapter 03
00:30:42.841 : en:Chapter 04
00:39:31.369 : en:Chapter 05
00:46:33.415 : en:Chapter 06
Загрузка...Cкриншот1 Пацаны / The Boys (2022) [3 сезон] BDRip 1080p [HEVC] 10 bit от OldGamer (RG RIPS CLUB)Загрузка...Cкриншот2 Пацаны / The Boys (2022) [3 сезон] BDRip 1080p [HEVC] 10 bit от OldGamer (RG RIPS CLUB)Загрузка...Cкриншот3 Пацаны / The Boys (2022) [3 сезон] BDRip 1080p [HEVC] 10 bit от OldGamer (RG RIPS CLUB)Загрузка...Cкриншот4 Пацаны / The Boys (2022) [3 сезон] BDRip 1080p [HEVC] 10 bit от OldGamer (RG RIPS CLUB)
Поблагодарили: 8AndresUA, Brooklyn, Elico1977, ilyich05, OceanUla, Rezident, sabretooth, Святогуб
Файлы: 8
  • Пацаны.The.Boys.S03.BDRip-HEVC.1080p
    • 4.05 ГБThe.Boys.S03E01.Payback.mkv
    • 4.02 ГБThe.Boys.S03E02.The.Only.Man.In.The.Sky.mkv
    • 4.23 ГБThe.Boys.S03E03.Barbary.Coast.mkv
    • 4.29 ГБThe.Boys.S03E04.Glorious.Five.Year.Plan.mkv
    • 4.03 ГБThe.Boys.S03E05.The.Last.Time.to.Look.on.this.World.of.Lies.mkv
    • 3.19 ГБThe.Boys.S03E06.Herogasm.mkv
    • 4.12 ГБThe.Boys.S03E07.Here.Comes.a.Candle.to.Light.You.to.Bed.mkv
    • 3.72 ГБThe.Boys.S03E08.The.Instant.White Hot.Wild.mkv

Рейтинги КП и IMDB, кнопки "Раздайте, пожалуйста" и "Спасибо", а также мультитрекерная статистика доступны только зарегистрированным/авторизованным пользователям!

OldGamer
12311220(8) 31.64 ГБ

💬︎ Комментарии

Добавление комментариев доступно только зарегистрированным/авторизованным пользователям.