Чат

⚫︎
Список изменений сайта - https://rips.club/changelog.html (обновлен 24.05.2024)
    Онлайн (за 10 мин.): 0
    Отправка сообщений доступна только зарегистрированным/авторизованным пользователям.

    🎥︎📺︎Живая мишень / Human Target (2010) [1 сезон] BDRip 1080p [HEVC] 10 bit от OldGamer (RG RIPS CLUB)


    Обложка Живая мишень / Human Target (2010) [1 сезон] BDRip 1080p [HEVC] 10 bit от OldGamer (RG RIPS CLUB)
    HEVC
    10 bit
    ✂︎Сэмпл⤓︎Торрент🧲︎Магнет$Пожертвования

    При перезаливке на другие сайты просьба указать автора и релиз-группу.


    Год: 2010
    Страна: США
    Студия: Bonanza Productions, DC Entertainment, Human Target Films, Warner Bros. Television, Wonderland Sound and Vision
    Жанр: Боевик, Триллер, Драма, Криминал
    Длительность: 08:42:14

    Режиссер: Стив Бойум, Пол А. Эдвардс, Питер Лоэр
    В ролях: Марк Вэлли, Чи МакБрайд, Джеки Эрл Хейли, Индира Варма, Джанет Монтгомери, Ленни Джеймс, Эммануэль Вожье, Леонор Варела, Отем Ризер, Тони Хейл

    Описание: Только храбрый и самоотверженный человек может стать живой мишенью для того, чтобы спасти жизнь другому. Human Target - основанная на одноименном комиксе экшн-драма, главный герой которой - Кристофер Чэнс, единственный в своем роде частный охранник. Называть его можно как угодно - защитником, охранником или телохранителем, но для Чэнса главное одно - спасти жизнь своего клиента. Когда угрозу убийства невозможно ликвидировать стандартными методами, Чэнс полностью вливается в жизнь клиента и становится мишенью для убийцы. Если менеджеру корпорации угрожает уволенный подчинённый, Чэнс становится аудитором корпорации. Если президенту банка сообщили о намечающейся краже, Чэнс станет банковским клерком. В каждом деле Кристоферу помогают его бизнес-партнер Уинстон и фрилансер Герреро. В каждом деле Кристофер становится на линию огня и пытается спасти клиента, раскрывая тайны заговора. Во время каждого дела мы немного узнаём и о самом Чэнсе. Знает ли кто-нибудь, кто такой этот Кристофер Чэнс, и какие секреты похоронены у него в прошлом? Что заставляет его каждый раз становиться живой мишенью?


    Релиз-группа: RIPS CLUB
    Исходник: Blu-Ray Remux 1080p (rutracker)
    Видео: 1920x1080 (16:9), 5047-8131 Кбит/сек, HEVC (Main10@L.4.1@High)
    Аудио1: AC3, 6 ch, 640 Kbps - РусскийРусский, MVO (LostFilm)
    Аудио2: AC3, 6 ch, 640 Kbps - РусскийРусский, MVO (NovaFilm)
    Аудио3: AC3, 6 ch, 640 Kbps - АнглийскийАнглийский
    Субтитры: русские (full, forced), английские

    Как за несколько секунд удалить ненужные аудиодорожки и субтитры (Внимание! После удаления вы не сможете поддержать раздачу)


    Лог (x265 info)x265 [info]: frame I: 275, Avg QP:17.97 kb/s: 12479.46
    x265 [info]: frame P: 12731, Avg QP:19.18 kb/s: 10820.99
    x265 [info]: frame B: 50114, Avg QP:21.44 kb/s: 4398.32
    x265 [info]: Weighted P-Frames: Y:3.8% UV:3.1%
    x265 [info]: Weighted B-Frames: Y:3.7% UV:2.6%
    x265 [info]: encoded 63120 frames in 44922.35s (1.41 fps), 5728.95 kb/s, Avg QP:20.97
    МедиаинфоОбщее
    Уникальный идентификатор : 331634341244993228241459305398217885613 (0xF97E736A30BD4F2269D0B4743CD647AD)
    Полное имя : \\.\Human.Target.S01E03.Embassy.Row.mkv
    Формат : Matroska
    Версия формата : Version 4
    Размер файла : 2,35 Гбайт
    Продолжительность : 43 м. 52 с.
    Общий поток : 7 652 Кбит/сек
    Дата кодирования : UTC 2023-03-19 10:59:45
    Программа кодирования : mkvmerge v74.0.0 ('You Oughta Know') 64-bit
    Библиотека кодирования : libebml v1.4.4 + libmatroska v1.7.1

    Видео
    Идентификатор : 1
    Формат : HEVC
    Формат/Информация : High Efficiency Video Coding
    Профиль формата : Main 10@L4.1@High
    Идентификатор кодека : V_MPEGH/ISO/HEVC
    Продолжительность : 43 м. 52 с.
    Битрейт : 5 730 Кбит/сек
    Ширина : 1 920 пикселей
    Высота : 1 080 пикселей
    Соотношение сторон : 16:9
    Режим частоты кадров : Постоянный
    Частота кадров : 23,976 (24000/1001) кадра/сек
    Цветовое пространство : YUV
    Субдискретизация насыщенности : 4:2:0
    Битовая глубина : 10 бит
    Бит/(Пиксели*Кадры) : 0.115
    Размер потока : 1,76 Гбайт (75%)
    Заголовок : Human Target S01E03 / Rip by OldGamer
    Библиотека кодирования : x265 3.5+86-6da609e41:[Windows][GCC 12.2.0][64 bit] 10bit
    Настройки программы : cpuid=1111039 / frame-threads=4 / numa-pools=16 / wpp / no-pmode / no-pme / no-psnr / no-ssim / log-level=2 / input-csp=1 / input-res=1920x1080 / interlace=0 / total-frames=63120 / level-idc=41 / high-tier=1 / uhd-bd=0 / ref=5 / no-allow-non-conformance / no-repeat-headers / annexb / no-aud / no-eob / no-eos / no-hrd / info / hash=0 / temporal-layers=0 / open-gop / min-keyint=23 / keyint=240 / gop-lookahead=0 / bframes=16 / b-adapt=2 / b-pyramid / bframe-bias=0 / rc-lookahead=40 / lookahead-slices=0 / scenecut=40 / no-hist-scenecut / radl=0 / no-splice / no-intra-refresh / ctu=32 / min-cu-size=8 / rect / amp / max-tu-size=32 / tu-inter-depth=4 / tu-intra-depth=4 / limit-tu=1 / rdoq-level=2 / dynamic-rd=0.00 / no-ssim-rd / signhide / no-tskip / nr-intra=0 / nr-inter=0 / no-constrained-intra / no-strong-intra-smoothing / max-merge=5 / limit-refs=3 / no-limit-modes / me=3 / subme=7 / merange=57 / temporal-mvp / no-frame-dup / no-hme / weightp / weightb / no-analyze-src-pics / deblock=-2:-2 / no-sao / no-sao-non-deblock / rd=6 / selective-sao=0 / no-early-skip / no-rskip / no-fast-intra / no-tskip-fast / no-cu-lossless / b-intra / no-splitrd-skip / rdpenalty=0 / psy-rd=2.00 / psy-rdoq=1.00 / no-rd-refine / no-lossless / cbqpoffs=0 / crqpoffs=0 / rc=crf / crf=21.9 / qcomp=0.60 / qpstep=4 / stats-write=0 / stats-read=0 / vbv-maxrate=50000 / vbv-bufsize=50000 / vbv-init=0.9 / min-vbv-fullness=50.0 / max-vbv-fullness=80.0 / crf-max=0.0 / crf-min=0.0 / ipratio=1.40 / pbratio=1.30 / aq-mode=1 / aq-strength=1.00 / no-cutree / zone-count=1 / zones: / start-frame=62108 / end-frame=63120 / qp=36 / no-strict-cbr / qg-size=32 / no-rc-grain / qpmax=69 / qpmin=0 / no-const-vbv / sar=1 / overscan=0 / videoformat=5 / range=0 / colorprim=2 / transfer=2 / colormatrix=2 / chromaloc=0 / display-window=0 / cll=0,0 / min-luma=0 / max-luma=1023 / log2-max-poc-lsb=8 / vui-timing-info / vui-hrd-info / slices=1 / no-opt-qp-pps / no-opt-ref-list-length-pps / no-multi-pass-opt-rps / scenecut-bias=0.00 / no-opt-cu-delta-qp / no-aq-motion / no-hdr10 / no-hdr10-opt / no-dhdr10-opt / no-idr-recovery-sei / analysis-reuse-level=0 / analysis-save-reuse-level=0 / analysis-load-reuse-level=0 / scale-factor=0 / refine-intra=0 / refine-inter=0 / refine-mv=1 / refine-ctu-distortion=0 / no-limit-sao / ctu-info=0 / no-lowpass-dct / refine-analysis-type=0 / copy-pic=1 / max-ausize-factor=1.0 / no-dynamic-refine / no-single-sei / no-hevc-aq / no-svt / no-field / qp-adaptation-range=1.00 / scenecut-aware-qp=0conformance-window-offsets / right=0 / bottom=0 / decoder-max-rate=0 / no-vbv-live-multi-pass / no-mcstf / no-sbrc
    Язык : English
    Default : Да
    Forced : Нет

    Аудио #1
    Идентификатор : 2
    Формат : AC-3
    Формат/Информация : Audio Coding 3
    Коммерческое название : Dolby Digital
    Идентификатор кодека : A_AC3
    Продолжительность : 43 м. 52 с.
    Вид битрейта : Постоянный
    Битрейт : 640 Кбит/сек
    Каналы : 6 каналов
    Channel layout : L R C LFE Ls Rs
    Частота : 48,0 КГц
    Частота кадров : 31,250 кадров/сек (1536 SPF)
    Метод сжатия : С потерями
    Размер потока : 201 Мбайт (8%)
    Заголовок : MVO (LostFilm)
    Язык : Russian
    Service kind : Complete Main
    Default : Да
    Forced : Нет

    Аудио #2
    Идентификатор : 3
    Формат : AC-3
    Формат/Информация : Audio Coding 3
    Коммерческое название : Dolby Digital
    Идентификатор кодека : A_AC3
    Продолжительность : 43 м. 52 с.
    Вид битрейта : Постоянный
    Битрейт : 640 Кбит/сек
    Каналы : 6 каналов
    Channel layout : L R C LFE Ls Rs
    Частота : 48,0 КГц
    Частота кадров : 31,250 кадров/сек (1536 SPF)
    Метод сжатия : С потерями
    Размер потока : 201 Мбайт (8%)
    Заголовок : MVO (NovaFilm)
    Язык : Russian
    Service kind : Complete Main
    Default : Нет
    Forced : Нет

    Аудио #3
    Идентификатор : 4
    Формат : AC-3
    Формат/Информация : Audio Coding 3
    Коммерческое название : Dolby Digital
    Идентификатор кодека : A_AC3
    Продолжительность : 43 м. 52 с.
    Вид битрейта : Постоянный
    Битрейт : 640 Кбит/сек
    Каналы : 6 каналов
    Channel layout : L R C LFE Ls Rs
    Частота : 48,0 КГц
    Частота кадров : 31,250 кадров/сек (1536 SPF)
    Метод сжатия : С потерями
    Размер потока : 201 Мбайт (8%)
    Язык : English
    Service kind : Complete Main
    Default : Нет
    Forced : Нет

    Текст #1
    Идентификатор : 5
    Формат : ASS
    Идентификатор кодека : S_TEXT/ASS
    Идентификатор кодека/Информация : Advanced Sub Station Alpha
    Продолжительность : 39 м. 29 с.
    Битрейт : 2 бит/сек
    Частота кадров : 0,003 кадр/сек
    Count of elements : 8
    Метод сжатия : Без потерь
    Размер потока : 633 байт (0%)
    Заголовок : Russian @ ASS @ Forced
    Язык : Russian
    Default : Да
    Forced : Нет

    Текст #2
    Идентификатор : 6
    Формат : UTF-8
    Идентификатор кодека : S_TEXT/UTF8
    Идентификатор кодека/Информация : UTF-8 Plain Text
    Продолжительность : 42 м. 24 с.
    Битрейт : 93 бит/сек
    Частота кадров : 0,182 кадр/сек
    Count of elements : 463
    Размер потока : 29,2 Кбайт (0%)
    Заголовок : Russian @ SRT
    Язык : Russian
    Default : Нет
    Forced : Нет

    Текст #3
    Идентификатор : 7
    Формат : UTF-8
    Идентификатор кодека : S_TEXT/UTF8
    Идентификатор кодека/Информация : UTF-8 Plain Text
    Продолжительность : 43 м. 39 с.
    Битрейт : 68 бит/сек
    Частота кадров : 0,228 кадр/сек
    Count of elements : 598
    Размер потока : 21,8 Кбайт (0%)
    Заголовок : English @ SRT
    Язык : English
    Default : Нет
    Forced : Нет
    Загрузка...Cкриншот1 Живая мишень / Human Target (2010) [1 сезон] BDRip 1080p [HEVC] 10 bit от OldGamer (RG RIPS CLUB)Загрузка...Cкриншот2 Живая мишень / Human Target (2010) [1 сезон] BDRip 1080p [HEVC] 10 bit от OldGamer (RG RIPS CLUB)Загрузка...Cкриншот3 Живая мишень / Human Target (2010) [1 сезон] BDRip 1080p [HEVC] 10 bit от OldGamer (RG RIPS CLUB)Загрузка...Cкриншот4 Живая мишень / Human Target (2010) [1 сезон] BDRip 1080p [HEVC] 10 bit от OldGamer (RG RIPS CLUB)
    Поблагодарили: 3gelOru, ilyich05, Viacheslav1
    Файлы: 12
    • Human.Target.S01.BDRip-HEVC.1080p
      • 2.49 ГБHuman.Target.S01E01.Pilot.mkv
      • 3.1 ГБHuman.Target.S01E02.Rewind.mkv
      • 2.35 ГБHuman.Target.S01E03.Embassy.Row.mkv
      • 2.45 ГБHuman.Target.S01E04.Sanctuary.mkv
      • 2.78 ГБHuman.Target.S01E05.Run.mkv
      • 2.44 ГБHuman.Target.S01E06.Lockdown.mkv
      • 2.54 ГБHuman.Target.S01E07.Salvage.&.Reclamation.mkv
      • 2.65 ГБHuman.Target.S01E08.Baptiste.mkv
      • 2.46 ГБHuman.Target.S01E09.Corner.Man.mkv
      • 2.33 ГБHuman.Target.S01E10.Tanarak.mkv
      • 2.07 ГБHuman.Target.S01E11.Victoria.mkv
      • 2.47 ГБHuman.Target.S01E12.Christopher.Chance.mkv

    Рейтинги КП и IMDB, кнопки "Раздайте, пожалуйста" и "Спасибо", а также мультитрекерная статистика доступны только зарегистрированным/авторизованным пользователям!

    OldGamer
    111150(12) 30.12 ГБ

    💬︎ Комментарии

    Добавление комментариев доступно только зарегистрированным/авторизованным пользователям.