💬 Мини-чат

Для тех, кому интересен процесс переделки сайта - https://rips.club/changelog.html (обновлен 22.02.2024)
OldGamerz1M4p9i0, и этот релиз скачался
Adminatomicheart, встал, но у Вас в профиле не видно. Вам бы перекачать.
OldGamerz1M4p9i0, Хан Соло скачался, но релиз, который был на руторе, там аудиодорожек меньше, чем тут, а видеоряд тот же. Попробуйте оттуда, я пока что сидирую.
OldGamerХан Соло откуда-то по чайной ложке в час скачивается, за сутки 50%, наблюдаем-с дальше
Adminatomicheart, завтра посмотрю, он у меня должен быть.
atomicheartРаздайте, пожалуйста, Тихое место: Дилогия / A Quiet Place: Dilogy (2018-2020) UHD-BDRip 1080p [HEVC] 10 bit [HDR] от Mr. Fox
z1M4p9i0Раздайте, пожалуйста, Хан Соло: Звёздные войны. Истории / Solo: A Star Wars Story (2018) [Локализованная версия] BDRip 1080p [HEVC] 10 bit от Cthulhu
z1M4p9i0Раздайте, пожалуйста, Терминатор: Тёмные судьбы / Terminator: Dark Fate (2019) [iTunes] UHD-BDRip 1440p [HEVC] 10 bit от HANNIBAL
OldGamerKeynol, честно говоря, пока что не планировалось, так как у нас есть отличный рип этого фильма
KeynolПриветствую! А можно сделать HEVC 10 bit на Трон Наследие Hybrid ? там файл на 31 гиг :-( на рутрекере. Хороший, но очень массивный..
  • 375509
  • Alex302
  • ilyich05
  • InSpector
Отправка сообщений доступна только зарегистрированным/авторизованным пользователям.
Онлайн (за 10 мин.): 4

Бунтарь / Baaghi (2016) BDRip 1080p [HEVC] 10 bit от OldGamer (RG RIPS CLUB)

HEVC
10 bit
Обложка Бунтарь / Baaghi (2016) BDRip 1080p [HEVC] 10 bit от OldGamer (RG RIPS CLUB) Год: 2016
Страна: Индия
Студия: Benetone Films, Nadiadwala Grandson Entertainment
Жанр: Боевик, Мелодрама
Продолжительность: 02:14:09

Режиссер: Сабир Кхан
В ролях: Тайгер Шрофф, Шраддха Капур, Судхир Бабу Посани, Шифуджи Шаурья Бхарадвадж, Сунил Гроувер, Sourav Chakraborty, Арьян Праджапати, Санджай Мишра, Самит Гулати, Ahmed Amjad

Описание: Ронни нельзя назвать дураком, но в свои 23 года он своеобразно выражает свои мысли и решает спорные вопросы. Он мог бы стать отличным врачом или учёным, но бунтарский характер не даёт ему такой возможности. Устав от вечных проблем, родители отправляют парня на обучение в академию, где на первом месте стоит дисциплина. Там Ронни сразу проявляет свой бунтарский дух, но возмездие настигло нового студента моментально. Молодой человек понял, что необходимо приспосабливаться, чтобы избежать постоянных унижений, к тому же на горизонте появляется симпатичная девушка с тоже непростым характером.


Исходник: Blu-Ray Remux 1080p (kinozal)
Видео: 1920x816 (2,35:1), 6566 Кбит/сек, HEVC (Main 10@L4.1@High) 10 бит
Аудио1: AC3, 2 ch, 192 Kbps - РусскийРусский, MVO (Zee TV)
Аудио2: AC3, 6 ch, 640 Kbps - Индийский
Субтитры: английские

Как за пару секунд удалить ненужные аудиодорожки и субтитры (Внимание! После удаления вы не сможете поддержать раздачу)

Лог (x265 info)
x265 [info]: frame I: 814, Avg QP:16.87 kb/s: 20238.14
x265 [info]: frame P: 41092, Avg QP:18.47 kb/s: 12257.04
x265 [info]: frame B: 151274, Avg QP:20.54 kb/s: 4944.80
x265 [info]: Weighted P-Frames: Y:5.5% UV:4.7%
x265 [info]: Weighted B-Frames: Y:5.4% UV:4.3%
x265 [info]: encoded 193180 frames in 124338.26s (1.55 fps), 6564.66 kb/s, Avg QP:20.09
Медиаинфо
Общее
Уникальный идентификатор : 231518059177511540436302543129601258552 (0xAE2CC19BCDF61B4AFAB5DBD3CFEE3438)
Полное имя : \\.\Бунтарь.Baaghi.2016.BDRip-HEVC.1080p.mkv
Формат : Matroska
Версия формата : Version 4
Размер файла : 6,93 Гбайт
Продолжительность : 2 ч. 14 м.
Общий поток : 7 400 Кбит/сек
Дата кодирования : UTC 2023-03-24 15:15:42
Программа кодирования : mkvmerge v74.0.0 ('You Oughta Know') 64-bit
Библиотека кодирования : libebml v1.4.4 + libmatroska v1.7.1

Видео
Идентификатор : 1
Формат : HEVC
Формат/Информация : High Efficiency Video Coding
Профиль формата : Main 10@L4.1@High
Идентификатор кодека : V_MPEGH/ISO/HEVC
Продолжительность : 2 ч. 14 м.
Битрейт : 6 566 Кбит/сек
Ширина : 1 920 пикселей
Высота : 816 пикселей
Соотношение сторон : 2,35:1
Режим частоты кадров : Постоянный
Частота кадров : 24,000 кадра/сек
Цветовое пространство : YUV
Субдискретизация насыщенности : 4:2:0
Битовая глубина : 10 бит
Бит/(Пиксели*Кадры) : 0.175
Размер потока : 6,15 Гбайт (89%)
Заголовок : Baaghi / Rip by OldGamer
Библиотека кодирования : x265 3.5+86-6da609e41:[Windows][GCC 12.2.0][64 bit] 10bit
Настройки программы : cpuid=1111039 / frame-threads=3 / numa-pools=8 / wpp / no-pmode / no-pme / no-psnr / no-ssim / log-level=2 / input-csp=1 / input-res=1920x816 / interlace=0 / total-frames=193180 / level-idc=41 / high-tier=1 / uhd-bd=0 / ref=5 / no-allow-non-conformance / no-repeat-headers / annexb / no-aud / no-eob / no-eos / no-hrd / info / hash=0 / temporal-layers=0 / open-gop / min-keyint=23 / keyint=240 / gop-lookahead=0 / bframes=16 / b-adapt=2 / b-pyramid / bframe-bias=0 / rc-lookahead=40 / lookahead-slices=0 / scenecut=40 / no-hist-scenecut / radl=0 / no-splice / no-intra-refresh / ctu=32 / min-cu-size=8 / rect / amp / max-tu-size=32 / tu-inter-depth=4 / tu-intra-depth=4 / limit-tu=1 / rdoq-level=2 / dynamic-rd=0.00 / no-ssim-rd / signhide / no-tskip / nr-intra=0 / nr-inter=0 / no-constrained-intra / no-strong-intra-smoothing / max-merge=5 / limit-refs=3 / no-limit-modes / me=3 / subme=7 / merange=57 / temporal-mvp / no-frame-dup / no-hme / weightp / weightb / no-analyze-src-pics / deblock=-2:-2 / no-sao / no-sao-non-deblock / rd=6 / selective-sao=0 / no-early-skip / no-rskip / no-fast-intra / no-tskip-fast / no-cu-lossless / b-intra / no-splitrd-skip / rdpenalty=0 / psy-rd=2.00 / psy-rdoq=1.00 / no-rd-refine / no-lossless / cbqpoffs=0 / crqpoffs=0 / rc=crf / crf=19.2 / qcomp=0.60 / qpstep=4 / stats-write=0 / stats-read=0 / vbv-maxrate=50000 / vbv-bufsize=50000 / vbv-init=0.9 / min-vbv-fullness=50.0 / max-vbv-fullness=80.0 / crf-max=0.0 / crf-min=0.0 / ipratio=1.40 / pbratio=1.30 / aq-mode=1 / aq-strength=1.00 / no-cutree / zone-count=1 / zones: / start-frame=193038 / end-frame=193180 / qp=36 / no-strict-cbr / qg-size=32 / no-rc-grain / qpmax=69 / qpmin=0 / no-const-vbv / sar=1 / overscan=0 / videoformat=5 / range=0 / colorprim=2 / transfer=2 / colormatrix=2 / chromaloc=0 / display-window=0 / cll=0,0 / min-luma=0 / max-luma=1023 / log2-max-poc-lsb=8 / vui-timing-info / vui-hrd-info / slices=1 / no-opt-qp-pps / no-opt-ref-list-length-pps / no-multi-pass-opt-rps / scenecut-bias=0.00 / no-opt-cu-delta-qp / no-aq-motion / no-hdr10 / no-hdr10-opt / no-dhdr10-opt / no-idr-recovery-sei / analysis-reuse-level=0 / analysis-save-reuse-level=0 / analysis-load-reuse-level=0 / scale-factor=0 / refine-intra=0 / refine-inter=0 / refine-mv=1 / refine-ctu-distortion=0 / no-limit-sao / ctu-info=0 / no-lowpass-dct / refine-analysis-type=0 / copy-pic=1 / max-ausize-factor=1.0 / no-dynamic-refine / no-single-sei / no-hevc-aq / no-svt / no-field / qp-adaptation-range=1.00 / scenecut-aware-qp=0conformance-window-offsets / right=0 / bottom=0 / decoder-max-rate=0 / no-vbv-live-multi-pass / no-mcstf / no-sbrc
Язык : Hindi
Default : Да
Forced : Нет

Аудио #1
Идентификатор : 2
Формат : AC-3
Формат/Информация : Audio Coding 3
Коммерческое название : Dolby Digital
Идентификатор кодека : A_AC3
Продолжительность : 2 ч. 14 м.
Вид битрейта : Постоянный
Битрейт : 192 Кбит/сек
Каналы : 2 канала
Channel layout : L R
Частота : 44,1 КГц
Частота кадров : 28,711 кадров/сек (1536 SPF)
Метод сжатия : С потерями
Размер потока : 184 Мбайт (3%)
Заголовок : MVO (Zee TV)
Язык : Russian
Service kind : Complete Main
Default : Да
Forced : Нет

Аудио #2
Идентификатор : 3
Формат : AC-3
Формат/Информация : Audio Coding 3
Коммерческое название : Dolby Digital
Идентификатор кодека : A_AC3
Продолжительность : 2 ч. 14 м.
Вид битрейта : Постоянный
Битрейт : 640 Кбит/сек
Каналы : 6 каналов
Channel layout : L R C LFE Ls Rs
Частота : 48,0 КГц
Частота кадров : 31,250 кадров/сек (1536 SPF)
Метод сжатия : С потерями
Размер потока : 614 Мбайт (9%)
Язык : Hindi
Service kind : Complete Main
Default : Нет
Forced : Нет

Текст
Идентификатор : 4
Формат : UTF-8
Идентификатор кодека : S_TEXT/UTF8
Идентификатор кодека/Информация : UTF-8 Plain Text
Продолжительность : 2 ч. 10 м.
Битрейт : 35 бит/сек
Частота кадров : 0,170 кадр/сек
Count of elements : 1326
Размер потока : 34,0 Кбайт (0%)
Язык : English
Default : Нет
Forced : Нет

Меню
00:00:00.000 : en:00:00:00.000
00:04:23.167 : en:00:04:23.167
00:11:18.167 : en:00:11:18.167
00:17:58.833 : en:00:17:58.833
00:21:53.208 : en:00:21:53.208
00:24:37.583 : en:00:24:37.583
00:29:44.042 : en:00:29:44.042
00:42:59.000 : en:00:42:59.000
00:45:54.833 : en:00:45:54.833
00:46:42.000 : en:00:46:42.000
00:58:35.250 : en:00:58:35.250
01:08:24.500 : en:01:08:24.500
01:16:30.625 : en:01:16:30.625
01:23:21.000 : en:01:23:21.000
01:32:19.500 : en:01:32:19.500
01:40:20.292 : en:01:40:20.292
01:42:29.417 : en:01:42:29.417
01:46:06.667 : en:01:46:06.667
01:48:37.625 : en:01:48:37.625
02:04:55.458 : en:02:04:55.458
02:10:45.500 : en:02:10:45.500
Загрузка...Cкриншот1 Бунтарь / Baaghi (2016) BDRip 1080p [HEVC] 10 bit от OldGamer (RG RIPS CLUB)Загрузка...Cкриншот2 Бунтарь / Baaghi (2016) BDRip 1080p [HEVC] 10 bit от OldGamer (RG RIPS CLUB)Загрузка...Cкриншот3 Бунтарь / Baaghi (2016) BDRip 1080p [HEVC] 10 bit от OldGamer (RG RIPS CLUB)Загрузка...Cкриншот4 Бунтарь / Baaghi (2016) BDRip 1080p [HEVC] 10 bit от OldGamer (RG RIPS CLUB)
Релиз-группа: RIPS CLUB
Сэмпл Торрент🧲 Магнет

Рейтинги КП и IMDB, кнопки "Позвать в чате" и "Спасибо", а также мультитрекерная статистика доступны только зарегистрированным/авторизованным пользователям!

Файлы: 1
  • Бунтарь.Baaghi.2016.BDRip-HEVC.1080p.mkv   6.93 ГБ
Поблагодарили: 2
ilyich05, Nuclear70
OldGamer
087006.93 ГБ

Добавление нового комментария

Добавление комментариев доступно только зарегистрированным/авторизованным пользователям.