💬 Мини-чат

Для тех, кому интересен процесс переделки сайта - https://rips.club/changelog.html (обновлен 22.02.2024)
OldGamerz1M4p9i0, и этот релиз скачался
Adminatomicheart, встал, но у Вас в профиле не видно. Вам бы перекачать.
OldGamerz1M4p9i0, Хан Соло скачался, но релиз, который был на руторе, там аудиодорожек меньше, чем тут, а видеоряд тот же. Попробуйте оттуда, я пока что сидирую.
OldGamerХан Соло откуда-то по чайной ложке в час скачивается, за сутки 50%, наблюдаем-с дальше
Adminatomicheart, завтра посмотрю, он у меня должен быть.
atomicheartРаздайте, пожалуйста, Тихое место: Дилогия / A Quiet Place: Dilogy (2018-2020) UHD-BDRip 1080p [HEVC] 10 bit [HDR] от Mr. Fox
z1M4p9i0Раздайте, пожалуйста, Хан Соло: Звёздные войны. Истории / Solo: A Star Wars Story (2018) [Локализованная версия] BDRip 1080p [HEVC] 10 bit от Cthulhu
z1M4p9i0Раздайте, пожалуйста, Терминатор: Тёмные судьбы / Terminator: Dark Fate (2019) [iTunes] UHD-BDRip 1440p [HEVC] 10 bit от HANNIBAL
OldGamerKeynol, честно говоря, пока что не планировалось, так как у нас есть отличный рип этого фильма
KeynolПриветствую! А можно сделать HEVC 10 bit на Трон Наследие Hybrid ? там файл на 31 гиг :-( на рутрекере. Хороший, но очень массивный..
  • OldGamer
  • bronsonw200
  • Ignat
  • InSpector
  • pmihail99
Отправка сообщений доступна только зарегистрированным/авторизованным пользователям.
Онлайн (за 10 мин.): 5

Великий уравнитель 2 / The Equalizer 2 (2018) BDRip 1080p [HEVC] 10 bit от Spartanec

HEVC
10 bit
Обложка Великий уравнитель 2 / The Equalizer 2 (2018) BDRip 1080p [HEVC] 10 bit от Spartanec Год: 2018
Страна: США
Студия: Columbia Pictures Corporation, Sony Pictures Entertainment, Escape Artists
Жанр: Боевик, Триллер, Криминал
Продолжительность: 02:00:58

Режиссер: Антуан Фукуа
В ролях: Педро Паскаль, Дензел Вашингтон, Билл Пуллман, Мелисса Лео, Джонатан Скарф, Сакина Джэффри, Кэролайн Дэй, Орсон Бин, Хайди Гарроу, Эштон Сандерс

Описание: Бывший спецагент Роберт Маккол продолжает помогать хорошим, по его мнению, людям и наказывать плохих. ЦРУ считает его погибшим, и только старый друг и бывшая коллега Сьюзан знает его тайну и периодически заходит в гости. Когда на очередном задании в Брюсселе Сьюзан убивают, пытаясь замаскировать это под ограбление, Маккол решает разобраться и отомстить всем причастным.


Видео: 1920x800, 8291 Кбит/сек, 0.225 бит/(Пиксели*Кадры), 23,976 кадр/сек, HEVC (Main10@L.4.1@High) 10 бит
Аудио1: AC3, 6 ch, 640 Kbps - РусскийРусский, Дублированный (Лицензия)
Аудио2: AC3, 6 ch, 640 Kbps - РусскийРусский, Одноголосый (Д.Есарев)
Аудио3: AC3, 6 ch, 640 Kbps - РусскийРусский, Одноголосый (Ю.Живов)
Аудио4: AC3, 6 ch, 640 Kbps - АнглийскийАнглийский, Оригинал
Субтитры: Русские (форсированные,полные), английские (SDH,полные)

Как за пару секунд удалить ненужные аудиодорожки и субтитры (Внимание! После удаления вы не сможете поддержать раздачу)

Лог (x265 info)
x265 [info]: frame I: 1483, Avg QP:17.20 kb/s: 28542.02
x265 [info]: frame P: 33165, Avg QP:18.68 kb/s: 19012.52
x265 [info]: frame B: 139352, Avg QP:21.13 kb/s: 5522.96
x265 [info]: Weighted P-Frames: Y:12.0% UV:9.7%
x265 [info]: Weighted B-Frames: Y:9.3% UV:6.3%

encoded 174000 frames in 140851.43s (1.24 fps), 8290.31 kb/s, Avg QP:20.63
Медиаинфо
Формат : Matroska
Версия формата : Version 4
Размер файла : 9,17 Гбайт
Продолжительность : 2 ч. 0 м.
Общий поток : 10,9 Мбит/сек
Название фильма : by Spartanec
Дата кодирования : UTC 2023-04-29 13:17:02
Программа кодирования : mkvmerge v7.0.0 ('Where We Going') 64bit built on Jun 9 2014 15:16:27
Библиотека кодирования : libebml v1.3.0 + libmatroska v1.4.1
Обложка : Yes
Attachments : cover.jpg

Видео
Идентификатор : 1
Формат : HEVC
Формат/Информация : High Efficiency Video Coding
Профиль формата : Main 10@L4.1@High
Идентификатор кодека : V_MPEGH/ISO/HEVC
Продолжительность : 2 ч. 0 м.
Битрейт : 8 291 Кбит/сек
Ширина : 1 920 пикселей
Высота : 800 пикселей
Соотношение сторон : 2,40:1
Режим частоты кадров : Постоянный
Частота кадров : 23,976 (23976/1000) кадра/сек
Частота кадров в оригинале : 23,976 (24000/1001) кадра/сек
Цветовое пространство : YUV
Субдискретизация насыщенности : 4:2:0
Битовая глубина : 10 бит
Бит/(Пиксели*Кадры) : 0.225
Размер потока : 7,00 Гбайт (76%)
Заголовок : Spartanec
Библиотека кодирования : x265 3.5+95-38cf1c379:[Windows][GCC 13.0.1][64 bit] 10bit
Настройки программы : cpuid=1111039 / frame-threads=4 / numa-pools=24 / wpp / no-pmode / no-pme / no-psnr / no-ssim / log-level=2 / input-csp=1 / input-res=1920x800 / interlace=0 / total-frames=174000 / level-idc=41 / high-tier=1 / uhd-bd=0 / ref=5 / no-allow-non-conformance / no-repeat-headers / annexb / no-aud / no-eob / no-eos / no-hrd / info / hash=0 / temporal-layers=0 / open-gop / min-keyint=23 / keyint=240 / gop-lookahead=0 / bframes=16 / b-adapt=2 / b-pyramid / bframe-bias=0 / rc-lookahead=60 / lookahead-slices=1 / scenecut=40 / no-hist-scenecut / radl=0 / no-splice / no-intra-refresh / ctu=32 / min-cu-size=8 / rect / amp / max-tu-size=32 / tu-inter-depth=4 / tu-intra-depth=4 / limit-tu=1 / rdoq-level=1 / dynamic-rd=0.00 / no-ssim-rd / signhide / no-tskip / nr-intra=0 / nr-inter=0 / no-constrained-intra / no-strong-intra-smoothing / max-merge=5 / limit-refs=0 / no-limit-modes / me=3 / subme=7 / merange=57 / temporal-mvp / no-frame-dup / no-hme / weightp / weightb / no-analyze-src-pics / deblock=-2:-2 / no-sao / no-sao-non-deblock / rd=6 / selective-sao=0 / no-early-skip / no-rskip / no-fast-intra / no-tskip-fast / no-cu-lossless / b-intra / no-splitrd-skip / rdpenalty=0 / psy-rd=2.00 / psy-rdoq=1.00 / no-rd-refine / no-lossless / cbqpoffs=0 / crqpoffs=0 / rc=crf / crf=20.0 / qcomp=0.70 / qpstep=4 / stats-write=0 / stats-read=0 / vbv-maxrate=50000 / vbv-bufsize=50000 / vbv-init=0.9 / min-vbv-fullness=50.0 / max-vbv-fullness=80.0 / crf-max=0.0 / crf-min=0.0 / ipratio=1.40 / pbratio=1.30 / aq-mode=2 / aq-strength=1.00 / no-cutree / zone-count=0 / no-strict-cbr / qg-size=32 / no-rc-grain / qpmax=69 / qpmin=0 / no-const-vbv / sar=1 / overscan=0 / videoformat=5 / range=0 / colorprim=1 / transfer=1 / colormatrix=1 / chromaloc=0 / display-window=0 / cll=0,0 / min-luma=0 / max-luma=1023 / log2-max-poc-lsb=8 / vui-timing-info / vui-hrd-info / slices=1 / no-opt-qp-pps / no-opt-ref-list-length-pps / no-multi-pass-opt-rps / scenecut-bias=0.05 / no-opt-cu-delta-qp / no-aq-motion / no-hdr10 / no-hdr10-opt / no-dhdr10-opt / no-idr-recovery-sei / analysis-reuse-level=0 / analysis-save-reuse-level=0 / analysis-load-reuse-level=0 / scale-factor=0 / refine-intra=0 / refine-inter=0 / refine-mv=0 / refine-ctu-distortion=0 / no-limit-sao / ctu-info=0 / no-lowpass-dct / refine-analysis-type=0 / copy-pic=1 / max-ausize-factor=1.0 / no-dynamic-refine / no-single-sei / no-hevc-aq / no-svt / no-field / qp-adaptation-range=1.00 / scenecut-aware-qp=0conformance-window-offsets / right=0 / bottom=0 / decoder-max-rate=0 / no-vbv-live-multi-pass / no-mcstf / no-sbrc
Язык : English
Default : Да
Forced : Нет
Цветовой диапазон : Limited
Основные цвета : BT.709
Характеристики трансфера : BT.709
Коэффициенты матрицы : BT.709

Аудио #1
Идентификатор : 2
Формат : AC-3
Формат/Информация : Audio Coding 3
Коммерческое название : Dolby Digital
Идентификатор кодека : A_AC3
Продолжительность : 2 ч. 0 м.
Вид битрейта : Постоянный
Битрейт : 640 Кбит/сек
Каналы : 6 каналов
Channel layout : L R C LFE Ls Rs
Частота : 48,0 КГц
Частота кадров : 31,250 кадров/сек (1536 SPF)
Метод сжатия : С потерями
Размер потока : 554 Мбайт (6%)
Заголовок : Дубляж
Язык : Russian
Service kind : Complete Main
Default : Да
Forced : Нет

Аудио #2
Идентификатор : 3
Формат : AC-3
Формат/Информация : Audio Coding 3
Коммерческое название : Dolby Digital
Идентификатор кодека : A_AC3
Продолжительность : 2 ч. 0 м.
Вид битрейта : Постоянный
Битрейт : 640 Кбит/сек
Каналы : 6 каналов
Channel layout : L R C LFE Ls Rs
Частота : 48,0 КГц
Частота кадров : 31,250 кадров/сек (1536 SPF)
Метод сжатия : С потерями
Размер потока : 554 Мбайт (6%)
Заголовок : Авторский Д.Есарев
Язык : Russian
Service kind : Complete Main
Default : Нет
Forced : Нет

Аудио #3
Идентификатор : 4
Формат : AC-3
Формат/Информация : Audio Coding 3
Коммерческое название : Dolby Digital
Идентификатор кодека : A_AC3
Продолжительность : 2 ч. 0 м.
Вид битрейта : Постоянный
Битрейт : 640 Кбит/сек
Каналы : 6 каналов
Channel layout : L R C LFE Ls Rs
Частота : 48,0 КГц
Частота кадров : 31,250 кадров/сек (1536 SPF)
Метод сжатия : С потерями
Размер потока : 554 Мбайт (6%)
Заголовок : Авторский - Ю.Живов
Язык : Russian
Service kind : Complete Main
Default : Нет
Forced : Нет

Аудио #4
Идентификатор : 5
Формат : AC-3
Формат/Информация : Audio Coding 3
Коммерческое название : Dolby Digital
Идентификатор кодека : A_AC3
Продолжительность : 2 ч. 0 м.
Вид битрейта : Постоянный
Битрейт : 640 Кбит/сек
Каналы : 6 каналов
Channel layout : L R C LFE Ls Rs
Частота : 48,0 КГц
Частота кадров : 31,250 кадров/сек (1536 SPF)
Метод сжатия : С потерями
Размер потока : 554 Мбайт (6%)
Заголовок : Оригинал
Язык : English
Service kind : Complete Main
Default : Нет
Forced : Нет

Текст #1
Идентификатор : 6
Формат : UTF-8
Идентификатор кодека : S_TEXT/UTF8
Идентификатор кодека/Информация : UTF-8 Plain Text
Продолжительность : 1 ч. 59 м.
Битрейт : 1 бит/сек
Частота кадров : 0,006 кадр/сек
Count of elements : 43
Размер потока : 1,60 Кбайт (0%)
Заголовок : Forced
Язык : Russian
Default : Нет
Forced : Да

Текст #2
Идентификатор : 7
Формат : UTF-8
Идентификатор кодека : S_TEXT/UTF8
Идентификатор кодека/Информация : UTF-8 Plain Text
Продолжительность : 1 ч. 59 м.
Битрейт : 57 бит/сек
Частота кадров : 0,148 кадр/сек
Count of elements : 1062
Размер потока : 50,3 Кбайт (0%)
Заголовок : Full
Язык : Russian
Default : Да
Forced : Нет

Текст #3
Идентификатор : 8
Формат : UTF-8
Идентификатор кодека : S_TEXT/UTF8
Идентификатор кодека/Информация : UTF-8 Plain Text
Продолжительность : 1 ч. 52 м.
Битрейт : 40 бит/сек
Частота кадров : 0,190 кадр/сек
Count of elements : 1283
Размер потока : 33,6 Кбайт (0%)
Заголовок : Full
Язык : English
Default : Нет
Forced : Нет

Текст #4
Идентификатор : 9
Формат : UTF-8
Идентификатор кодека : S_TEXT/UTF8
Идентификатор кодека/Информация : UTF-8 Plain Text
Продолжительность : 1 ч. 59 м.
Битрейт : 50 бит/сек
Частота кадров : 0,238 кадр/сек
Count of elements : 1713
Размер потока : 44,3 Кбайт (0%)
Заголовок : SDH
Язык : English
Default : Нет
Forced : Нет

Меню
00:00:00.000 : :Chapter 1
00:01:31.758 : :Chapter 2
00:01:58.577 : :Chapter 3
00:04:54.127 : :Chapter 4
00:05:33.041 : :Chapter 5
00:05:51.893 : :Chapter 6
00:06:24.092 : :Chapter 7
00:06:55.498 : :Chapter 8
00:07:06.635 : :Chapter 9
00:07:35.622 : :Chapter 10
00:07:53.765 : :Chapter 11
00:08:09.781 : :Chapter 12
00:08:21.793 : :Chapter 13
00:08:38.933 : :Chapter 14
00:09:08.840 : :Chapter 15
00:09:44.375 : :Chapter 16
00:11:32.233 : :Chapter 17
00:11:41.075 : :Chapter 18
00:12:05.725 : :Chapter 19
00:13:03.783 : :Chapter 20
00:15:24.674 : :Chapter 21
00:15:58.291 : :Chapter 22
00:16:19.186 : :Chapter 23
00:16:54.347 : :Chapter 24
00:17:58.327 : :Chapter 25
00:19:33.547 : :Chapter 26
00:20:02.993 : :Chapter 27
00:20:55.963 : :Chapter 28
00:23:04.633 : :Chapter 29
00:23:50.179 : :Chapter 30
00:23:59.688 : :Chapter 31
00:24:13.994 : :Chapter 32
00:24:20.709 : :Chapter 33
00:25:47.588 : :Chapter 34
00:28:22.617 : :Chapter 35
00:28:39.426 : :Chapter 36
00:31:49.908 : :Chapter 37
00:32:04.589 : :Chapter 38
00:32:13.640 : :Chapter 39
00:34:11.174 : :Chapter 40
00:35:14.571 : :Chapter 41
00:36:09.834 : :Chapter 42
01:31:39.244 : :Chapter 43
01:32:20.660 : :Chapter 44
01:32:41.014 : :Chapter 45
01:33:19.969 : :Chapter 46
01:34:56.524 : :Chapter 47
01:41:27.832 : :Chapter 48
01:41:36.382 : :Chapter 49
01:42:24.722 : :Chapter 50
01:46:59.496 : :Chapter 51
Загрузка...Cкриншот1 Великий уравнитель 2 / The Equalizer 2 (2018) BDRip 1080p [HEVC] 10 bit от SpartanecЗагрузка...Cкриншот2 Великий уравнитель 2 / The Equalizer 2 (2018) BDRip 1080p [HEVC] 10 bit от SpartanecЗагрузка...Cкриншот3 Великий уравнитель 2 / The Equalizer 2 (2018) BDRip 1080p [HEVC] 10 bit от SpartanecЗагрузка...Cкриншот4 Великий уравнитель 2 / The Equalizer 2 (2018) BDRip 1080p [HEVC] 10 bit от Spartanec
Сэмпл Торрент🧲 Магнет

Рейтинги КП и IMDB, кнопки "Позвать в чате" и "Спасибо", а также мультитрекерная статистика доступны только зарегистрированным/авторизованным пользователям!

Файлы: 1
  • Великий уравнитель 2 (2018) BDRip 1080p [HEVC] 10bit by Spartanec.mkv   9.17 ГБ
Поблагодарили: 11
and50, AndresUA, aquarius, Brooklyn, denisptp4, Dimon4ik86, gotgame1, ilyich05, Nuclear70, sharkey71, TheRuselX
Spartanec
0170109.17 ГБ

Добавление нового комментария

Добавление комментариев доступно только зарегистрированным/авторизованным пользователям.