💬 Мини-чат

Убедительная просьба не обсуждать тут политику.
ADVOKAT69OldGamer, удачи тебе!
OldGamerADVOKAT69, привет. С этим у нас не очень. Буду спрашивать.
ADVOKAT69OldGamer, привет!а может сервисный центр?
OldGamerПамять живая, потенциальные коротыши заизолировал. 0. Не стартует. Задумался...
ADVOKAT69Laska020489, не все сейчас могут делать!не в курсе что происходит?везет!
OldGamerПодозрение, что где-то плата коротит на корпус, жду диэлектрические шайбы м2.
OldGamerРусским по белому написано, что блок питания живой.
Laska020489блин а ты тут 1 что ли рипер? что более ни кто не делает?
Laska020489блок пробит
Laska020489всем привет
OldGamerОЗУ проверю на выходных, проц ткнуть некуда. Смущает, что на БП вообще вентиль не пытается провернуться, следовательно далее подать питание на мать, на которой загорелись бы светодиоды, чего она не может увидеть...
СвятогубOldGamer, проверяйте оперативку или проц
OldGamerно сетевой диод мигает
OldGamerнет... БП живой, мп заменил, кабели заменил, она просто не стартует
GedeonНу что с компом? Все таки материнка?
OldGamer14 сидов
Laska020489Сильнейший.удар.2 встаньте на раздачу плиз
Laska020489Сочувствую
Отправка сообщений доступна только зарегистрированным/авторизованным пользователям.
Онлайн (за 10 мин.): 0

Ангел-А / Angel-A (2005) BDRip 1080p [HEVC] 10 bit от Spartanec

HEVC
10 bit
Обложка Ангел-А / Angel-A (2005) BDRip 1080p [HEVC] 10 bit от Spartanec Год: 2005
Страна: Франция
Студия: Apipoulai, Canal+ [fr], Europa Corp., Sofica Europacorp, TF1 Films Productions
Жанр: Фэнтези, Драма, Мелодрама, Комедия
Продолжительность: 01:30:38

Режиссер: Люк Бессон
В ролях: Жамель Деббуз, Рье Расмуссен, Жильбер Мелки, Серж Рябукин, Аким Шир, Эрик Балье, Луи Пора, Венус Бун, Жером Жесдон, Мишель Белло, Мишель Шесно, Оливье Клавери, Соланж Милход, Лоран Жамекур, Франк-Оливье Бонне, Аким Колур, Тони Десканвелль, Григорий Мануков, Ален Зеф, Жан-Марк Монтальто, Жиль Милан, Тодд М. Талер, Гаэль Мэриетт

Описание: 28-летний Андре должен десятки тысяч долларов различным бандитам по всему Парижу. Когда подходит срок расплаты, он понимает, что шансов расплатиться - нет. И в полиции, и в американском посольстве ему отказывают в помощи. Но вот, решив покончить с собой, он видит на мосту сногсшибательную красотку в очень маленьком черном платье, которая прыгает в Сену. Андре бросается за ней. Спасенная девушка обещает помочь Андре во всем: она придумывает удивительные способы добывать деньги и помогает решить проблемы с кредиторами. Но тут Андре начинает задаваться вопросом – почему эта восхитительная девушка так старается ради него?


Видео: 1920x818, 8132 Кбит/сек, 0.216 бит/(Пиксели*Кадры), 24,000 кадр/сек, HEVC (Main10@L.4.1@High) 10 бит
Аудио1: AC3, 6 ch, 448 Kbps - РусскийРусский, Дублированный (Лицензия)
Аудио2: AC3, 6 ch, 640 Kbps - РусскийРусский, Одноголосый (А. Гаврилов)
Аудио3: AC3, 6 ch, 640 Kbps - ФранцузскийФранцузский, Оригинал
Субтитры: Русские

Как за пару секунд удалить ненужные аудиодорожки и субтитры (Внимание! После удаления вы не сможете поддержать раздачу)

Лог (x265 info)
x265 [info]: frame I: 1020, Avg QP:17.17 kb/s: 27589.85
x265 [info]: frame P: 25033, Avg QP:18.75 kb/s: 18486.57
x265 [info]: frame B: 104475, Avg QP:21.01 kb/s: 5460.40
x265 [info]: Weighted P-Frames: Y:1.8% UV:1.3%
x265 [info]: Weighted B-Frames: Y:1.6% UV:1.1%

encoded 130528 frames in 140323.80s (0.93 fps), 8131.52 kb/s, Avg QP:20.55
Медиаинфо
Формат : Matroska
Версия формата : Version 4
Размер файла : 6,24 Гбайт
Продолжительность : 1 ч. 30 м.
Общий поток : 9 863 Кбит/сек
Название фильма : by Spartanec
Дата кодирования : UTC 2023-05-04 12:16:03
Программа кодирования : mkvmerge v7.0.0 ('Where We Going') 64bit built on Jun 9 2014 15:16:27
Библиотека кодирования : libebml v1.3.0 + libmatroska v1.4.1
Обложка : Yes
Attachments : cover.jpg

Видео
Идентификатор : 1
Формат : HEVC
Формат/Информация : High Efficiency Video Coding
Профиль формата : Main 10@L4.1@High
Идентификатор кодека : V_MPEGH/ISO/HEVC
Продолжительность : 1 ч. 30 м.
Битрейт : 8 132 Кбит/сек
Ширина : 1 920 пикселей
Высота : 818 пикселей
Соотношение сторон : 2,35:1
Режим частоты кадров : Постоянный
Частота кадров : 24,000 кадра/сек
Цветовое пространство : YUV
Субдискретизация насыщенности : 4:2:0
Битовая глубина : 10 бит
Бит/(Пиксели*Кадры) : 0.216
Размер потока : 5,15 Гбайт (82%)
Заголовок : Spartanec
Библиотека кодирования : x265 3.5+95-38cf1c379:[Windows][GCC 13.0.1][64 bit] 10bit
Настройки программы : cpuid=1111039 / frame-threads=4 / numa-pools=24 / wpp / no-pmode / no-pme / no-psnr / no-ssim / log-level=2 / input-csp=1 / input-res=1920x818 / interlace=0 / total-frames=130528 / level-idc=41 / high-tier=1 / uhd-bd=0 / ref=5 / no-allow-non-conformance / no-repeat-headers / annexb / no-aud / no-eob / no-eos / no-hrd / info / hash=0 / temporal-layers=0 / open-gop / min-keyint=23 / keyint=240 / gop-lookahead=0 / bframes=16 / b-adapt=2 / b-pyramid / bframe-bias=0 / rc-lookahead=60 / lookahead-slices=1 / scenecut=40 / no-hist-scenecut / radl=0 / no-splice / no-intra-refresh / ctu=32 / min-cu-size=8 / rect / amp / max-tu-size=32 / tu-inter-depth=4 / tu-intra-depth=4 / limit-tu=1 / rdoq-level=1 / dynamic-rd=0.00 / no-ssim-rd / signhide / no-tskip / nr-intra=0 / nr-inter=0 / no-constrained-intra / no-strong-intra-smoothing / max-merge=5 / limit-refs=0 / no-limit-modes / me=3 / subme=7 / merange=57 / temporal-mvp / no-frame-dup / no-hme / weightp / weightb / no-analyze-src-pics / deblock=-2:-2 / no-sao / no-sao-non-deblock / rd=6 / selective-sao=0 / no-early-skip / no-rskip / no-fast-intra / no-tskip-fast / no-cu-lossless / b-intra / no-splitrd-skip / rdpenalty=0 / psy-rd=2.00 / psy-rdoq=1.00 / no-rd-refine / no-lossless / cbqpoffs=0 / crqpoffs=0 / rc=crf / crf=19.5 / qcomp=0.70 / qpstep=4 / stats-write=0 / stats-read=0 / vbv-maxrate=50000 / vbv-bufsize=50000 / vbv-init=0.9 / min-vbv-fullness=50.0 / max-vbv-fullness=80.0 / crf-max=0.0 / crf-min=0.0 / ipratio=1.40 / pbratio=1.30 / aq-mode=2 / aq-strength=1.00 / no-cutree / zone-count=0 / no-strict-cbr / qg-size=32 / no-rc-grain / qpmax=69 / qpmin=0 / no-const-vbv / sar=1 / overscan=0 / videoformat=5 / range=0 / colorprim=1 / transfer=1 / colormatrix=1 / chromaloc=0 / display-window=0 / cll=0,0 / min-luma=0 / max-luma=1023 / log2-max-poc-lsb=8 / vui-timing-info / vui-hrd-info / slices=1 / no-opt-qp-pps / no-opt-ref-list-length-pps / no-multi-pass-opt-rps / scenecut-bias=0.05 / no-opt-cu-delta-qp / no-aq-motion / no-hdr10 / no-hdr10-opt / no-dhdr10-opt / no-idr-recovery-sei / analysis-reuse-level=0 / analysis-save-reuse-level=0 / analysis-load-reuse-level=0 / scale-factor=0 / refine-intra=0 / refine-inter=0 / refine-mv=0 / refine-ctu-distortion=0 / no-limit-sao / ctu-info=0 / no-lowpass-dct / refine-analysis-type=0 / copy-pic=1 / max-ausize-factor=1.0 / no-dynamic-refine / no-single-sei / no-hevc-aq / no-svt / no-field / qp-adaptation-range=1.00 / scenecut-aware-qp=0conformance-window-offsets / right=0 / bottom=0 / decoder-max-rate=0 / no-vbv-live-multi-pass / no-mcstf / no-sbrc
Язык : English
Default : Да
Forced : Нет
Цветовой диапазон : Limited
Основные цвета : BT.709
Характеристики трансфера : BT.709
Коэффициенты матрицы : BT.709

Аудио #1
Идентификатор : 2
Формат : AC-3
Формат/Информация : Audio Coding 3
Коммерческое название : Dolby Digital
Идентификатор кодека : A_AC3
Продолжительность : 1 ч. 30 м.
Вид битрейта : Постоянный
Битрейт : 448 Кбит/сек
Каналы : 6 каналов
Channel layout : L R C LFE Ls Rs
Частота : 48,0 КГц
Частота кадров : 31,250 кадров/сек (1536 SPF)
Метод сжатия : С потерями
Размер потока : 290 Мбайт (5%)
Заголовок : Дубляж
Язык : Russian
Service kind : Complete Main
Default : Да
Forced : Нет

Аудио #2
Идентификатор : 3
Формат : AC-3
Формат/Информация : Audio Coding 3
Коммерческое название : Dolby Digital
Идентификатор кодека : A_AC3
Продолжительность : 1 ч. 30 м.
Вид битрейта : Постоянный
Битрейт : 640 Кбит/сек
Каналы : 6 каналов
Channel layout : L R C LFE Ls Rs
Частота : 48,0 КГц
Частота кадров : 31,250 кадров/сек (1536 SPF)
Метод сжатия : С потерями
Размер потока : 415 Мбайт (6%)
Заголовок : Авторский А. Гаврилов
Язык : Russian
Service kind : Complete Main
Default : Нет
Forced : Нет

Аудио #3
Идентификатор : 5
Формат : AC-3
Формат/Информация : Audio Coding 3
Коммерческое название : Dolby Digital
Идентификатор кодека : A_AC3
Продолжительность : 1 ч. 30 м.
Вид битрейта : Постоянный
Битрейт : 640 Кбит/сек
Каналы : 6 каналов
Channel layout : L R C LFE Ls Rs
Частота : 48,0 КГц
Частота кадров : 31,250 кадров/сек (1536 SPF)
Метод сжатия : С потерями
Размер потока : 415 Мбайт (6%)
Заголовок : Оригинал
Язык : French
Service kind : Complete Main
Default : Нет
Forced : Нет

Текст
Идентификатор : 4
Формат : UTF-8
Идентификатор кодека : S_TEXT/UTF8
Идентификатор кодека/Информация : UTF-8 Plain Text
Продолжительность : 1 ч. 24 м.
Битрейт : 131 бит/сек
Частота кадров : 0,288 кадр/сек
Count of elements : 1456
Размер потока : 81,5 Кбайт (0%)
Заголовок : Русские
Язык : Russian
Default : Да
Forced : Нет

Меню
00:00:00.000 : :Chapter 01
00:08:21.833 : :Chapter 02
00:13:30.500 : :Chapter 03
00:21:35.333 : :Chapter 04
00:30:01.708 : :Chapter 05
00:37:39.375 : :Chapter 06
00:44:27.125 : :Chapter 07
00:53:51.416 : :Chapter 08
01:00:53.625 : :Chapter 09
01:08:26.916 : :Chapter 10
01:16:38.000 : :Chapter 11
01:22:37.541 : :Chapter 12
01:25:34.000 : :Chapter 13
Загрузка...Cкриншот1 Ангел-А / Angel-A (2005) BDRip 1080p [HEVC] 10 bit от SpartanecЗагрузка...Cкриншот2 Ангел-А / Angel-A (2005) BDRip 1080p [HEVC] 10 bit от SpartanecЗагрузка...Cкриншот3 Ангел-А / Angel-A (2005) BDRip 1080p [HEVC] 10 bit от SpartanecЗагрузка...Cкриншот4 Ангел-А / Angel-A (2005) BDRip 1080p [HEVC] 10 bit от Spartanec
Сэмпл Торрент🧲 Магнет

Рейтинги КП и IMDB, кнопки "Позвать в чате" и "Спасибо", а также мультитрекерная статистика доступны только зарегистрированным/авторизованным пользователям!

Файлы: 1
  • Ангел - А (2005) BDRip 1080p [HEVC] 10bit by Spartanec.mkv   6.24 ГБ
Поблагодарили: 8
and50, aquarius, D16T, Dimon4ik86, ilyich05, SERGIY, sharkey71, stickstoff
Spartanec
083106.24 ГБ

Добавление нового комментария

Добавление комментариев доступно только зарегистрированным/авторизованным пользователям.