💬 Мини-чат

Для тех, кому интересен процесс переделки сайта - https://rips.club/changelog.html (обновлен 22.02.2024)
OldGamerz1M4p9i0, и этот релиз скачался
Adminatomicheart, встал, но у Вас в профиле не видно. Вам бы перекачать.
OldGamerz1M4p9i0, Хан Соло скачался, но релиз, который был на руторе, там аудиодорожек меньше, чем тут, а видеоряд тот же. Попробуйте оттуда, я пока что сидирую.
OldGamerХан Соло откуда-то по чайной ложке в час скачивается, за сутки 50%, наблюдаем-с дальше
Adminatomicheart, завтра посмотрю, он у меня должен быть.
atomicheartРаздайте, пожалуйста, Тихое место: Дилогия / A Quiet Place: Dilogy (2018-2020) UHD-BDRip 1080p [HEVC] 10 bit [HDR] от Mr. Fox
z1M4p9i0Раздайте, пожалуйста, Хан Соло: Звёздные войны. Истории / Solo: A Star Wars Story (2018) [Локализованная версия] BDRip 1080p [HEVC] 10 bit от Cthulhu
z1M4p9i0Раздайте, пожалуйста, Терминатор: Тёмные судьбы / Terminator: Dark Fate (2019) [iTunes] UHD-BDRip 1440p [HEVC] 10 bit от HANNIBAL
OldGamerKeynol, честно говоря, пока что не планировалось, так как у нас есть отличный рип этого фильма
KeynolПриветствую! А можно сделать HEVC 10 bit на Трон Наследие Hybrid ? там файл на 31 гиг :-( на рутрекере. Хороший, но очень массивный..
  • OldGamer
  • bronsonw200
  • InSpector
  • Странник
Отправка сообщений доступна только зарегистрированным/авторизованным пользователям.
Онлайн (за 10 мин.): 4

Плоть + кровь / Flesh+Blood (1985) [GBR Transfer] BDRip 1080p [HEVC] 10 bit от OldGamer (RG RIPS CLUB)

HEVC
10 bit
Обложка Плоть + кровь / Flesh+Blood (1985) [GBR Transfer] BDRip 1080p [HEVC] 10 bit от OldGamer (RG RIPS CLUB) Год: 1985
Страна: Нидерланды, Испания
Студия: Impala, Riverside Pictures
Жанр: Драма, Приключения
Продолжительность: 02:07:53

Режиссер: Пол Верховен
В ролях: Рутгер Хауэр, Дженнифер Джейсон Ли, Том Бёрлинсон, Джек Томпсон, Фернандо Ильбек, Сьюзен Тайррелл, Рональд Лейси, Брайон Джеймс, Джон Деннис Джонстон, Симон Андреу

Описание: 1501 год. Вся Европа охвачена кровопролитными войнами. В городах свирепствует чума. Отряд солдат удачи, руководимый бывшим наёмником Мартином, захватывает в заложники невесту сына барона Арнольфини, когда-то предавшего Мартина. Отряд укрывается в заброшенном после эпидемии чумы замке и вступает в неравную битву с армией барона.


Исходник: Blu-Ray Remux 1080p (rutracker)
Видео: 1920x816 (2,35:1), 14,6 Мбит/сек, HEVC (Main 10@L4.1@High) 10 бит
Аудио1: AC3, 6 ch, 384 Kbps - РусскийРусский, MVO (R5)
Аудио2: AC3, 6 ch, 384 Kbps - РусскийРусский, MVO (Н-Кино)
Аудио3: AC3, 2 ch, 192 Kbps - РусскийРусский, DVO (НТВ)
Аудио4: AC3, 2 ch, 640 Kbps - РусскийРусский, AVO (Андрей Гаврилов ранний)
Аудио5: AC3, 2 ch, 640 Kbps - РусскийРусский, AVO (Андрей Гаврилов поздний)
Аудио6: AC3, 2 ch, 640 Kbps - РусскийРусский, AVO (Юрий Сербин)
Аудио7: AC3, 2 ch, 192 Kbps - РусскийРусский, AVO (Леонид Володарский)
Аудио8: AC3, 2 ch, 192 Kbps - РусскийРусский, AVO (Андрей Дольский)
Аудио9: AC3, 2 ch, 320 Kbps - РусскийРусский, VO (Неизвестный с VHS от RoxMarty + вставки Алексея Попова)
Аудио10: AC3, 1 ch, 192 Kbps - РусскийРусский, VO (Неизвестный с VHS от Fikaloid + вставки Алексея Попова)
Аудио11: AC3, 2 ch, 320 Kbps - РусскийРусский, VO (Алексей Попов)
Аудио12: AC3, 2 ch, 192 Kbps - РусскийРусский, VO (Михаил Яроцкий)
Аудио13: AC3, 2 ch, 640 Kbps - АнглийскийАнглийский
Субтитры: русские, английские (SDH)

Как за пару секунд удалить ненужные аудиодорожки и субтитры (Внимание! После удаления вы не сможете поддержать раздачу)

Лог (x265 info)
x265 [info]: frame I: 779, Avg QP:18.29 kb/s: 30000.08
x265 [info]: frame P: 38288, Avg QP:19.64 kb/s: 23995.73
x265 [info]: frame B: 144897, Avg QP:21.68 kb/s: 12038.74
x265 [info]: Weighted P-Frames: Y:21.4% UV:17.5%
x265 [info]: Weighted B-Frames: Y:17.9% UV:13.2%
x265 [info]: encoded 183964 frames in 145408.63s (1.27 fps), 14603.38 kb/s, Avg QP:21.24
Медиаинфо
Общее
Уникальный идентификатор : 143887309811462552362114081865763102110 (0x6C3FB0177BA4DCF1ED45E4ADBE879D9E)
Полное имя : \\.\Плоть+кровь.Flesh+Blood.1985.GBR.Transfer.BDRip-HEVC.1080p.mkv
Формат : Matroska
Версия формата : Version 4
Размер файла : 17,5 Гбайт
Продолжительность : 2 ч. 7 м.
Общий поток : 19,5 Мбит/сек
Частота кадров : 23,976 кадра/сек
Дата кодирования : 2023-05-14 03:01:26 UTC
Программа кодирования : mkvmerge v76.0 ('Celebration') 64-bit
Библиотека кодирования : libebml v1.4.4 + libmatroska v1.7.1
Обложка : Yes
Attachments : Flesh+Blood.1985.Eureka.Poster.jpg / Flesh+Blood.1985.BD.Poster.jpg / Flesh+Blood.1985.Eureka.BD.Front.Cover.jpg / Flesh+Blood.1985.Eureka.BD.Back.Cover.jpg / Flesh+Blood.1985.Coch.Media.BD.Front.Cover.jpg / Flesh+Blood.1985.Afisha.jpeg / Flesh+Blood.1985.Plakat.jpg / Flesh+Blood.1985.Poster.jpg / Flesh+Blood.1985.BD.Print.png / Flesh+Blood.1985.DVD.Print.jpg

Видео
Идентификатор : 1
Формат : HEVC
Формат/Информация : High Efficiency Video Coding
Профиль формата : Main 10@L4.1@High
Идентификатор кодека : V_MPEGH/ISO/HEVC
Продолжительность : 2 ч. 7 м.
Битрейт : 14,6 Мбит/сек
Ширина : 1 920 пикселей
Высота : 816 пикселей
Соотношение сторон : 2,35:1
Режим частоты кадров : Постоянный
Частота кадров : 23,976 (24000/1001) кадра/сек
Цветовое пространство : YUV
Субдискретизация насыщенности : 4:2:0
Битовая глубина : 10 бит
Бит/(Пиксели*Кадры) : 0.389
Размер потока : 13,0 Гбайт (75%)
Заголовок : Flesh+Blood / Rip by OldGamer
Библиотека кодирования : x265 3.5+86-6da609e41:[Windows][GCC 12.2.0][64 bit] 10bit
Настройки программы : cpuid=1111039 / frame-threads=4 / numa-pools=16 / wpp / no-pmode / no-pme / no-psnr / no-ssim / log-level=2 / input-csp=1 / input-res=1920x816 / interlace=0 / total-frames=183964 / level-idc=41 / high-tier=1 / uhd-bd=0 / ref=5 / no-allow-non-conformance / no-repeat-headers / annexb / no-aud / no-eob / no-eos / no-hrd / info / hash=0 / temporal-layers=0 / open-gop / min-keyint=23 / keyint=240 / gop-lookahead=0 / bframes=16 / b-adapt=2 / b-pyramid / bframe-bias=0 / rc-lookahead=40 / lookahead-slices=0 / scenecut=40 / no-hist-scenecut / radl=0 / no-splice / no-intra-refresh / ctu=32 / min-cu-size=8 / rect / amp / max-tu-size=32 / tu-inter-depth=4 / tu-intra-depth=4 / limit-tu=1 / rdoq-level=2 / dynamic-rd=0.00 / no-ssim-rd / signhide / no-tskip / nr-intra=0 / nr-inter=0 / no-constrained-intra / no-strong-intra-smoothing / max-merge=5 / limit-refs=3 / no-limit-modes / me=3 / subme=7 / merange=57 / temporal-mvp / no-frame-dup / no-hme / weightp / weightb / no-analyze-src-pics / deblock=-2:-2 / no-sao / no-sao-non-deblock / rd=6 / selective-sao=0 / no-early-skip / no-rskip / no-fast-intra / no-tskip-fast / no-cu-lossless / b-intra / no-splitrd-skip / rdpenalty=0 / psy-rd=2.00 / psy-rdoq=1.00 / no-rd-refine / no-lossless / cbqpoffs=0 / crqpoffs=0 / rc=crf / crf=18.5 / qcomp=0.60 / qpstep=4 / stats-write=0 / stats-read=0 / vbv-maxrate=50000 / vbv-bufsize=50000 / vbv-init=0.9 / min-vbv-fullness=50.0 / max-vbv-fullness=80.0 / crf-max=0.0 / crf-min=0.0 / ipratio=1.40 / pbratio=1.30 / aq-mode=1 / aq-strength=1.00 / no-cutree / zone-count=1 / zones: / start-frame=177965 / end-frame=183964 / qp=36 / no-strict-cbr / qg-size=32 / no-rc-grain / qpmax=69 / qpmin=0 / no-const-vbv / sar=1 / overscan=0 / videoformat=5 / range=0 / colorprim=2 / transfer=2 / colormatrix=2 / chromaloc=0 / display-window=0 / cll=0,0 / min-luma=0 / max-luma=1023 / log2-max-poc-lsb=8 / vui-timing-info / vui-hrd-info / slices=1 / no-opt-qp-pps / no-opt-ref-list-length-pps / no-multi-pass-opt-rps / scenecut-bias=0.00 / no-opt-cu-delta-qp / no-aq-motion / no-hdr10 / no-hdr10-opt / no-dhdr10-opt / no-idr-recovery-sei / analysis-reuse-level=0 / analysis-save-reuse-level=0 / analysis-load-reuse-level=0 / scale-factor=0 / refine-intra=0 / refine-inter=0 / refine-mv=1 / refine-ctu-distortion=0 / no-limit-sao / ctu-info=0 / no-lowpass-dct / refine-analysis-type=0 / copy-pic=1 / max-ausize-factor=1.0 / no-dynamic-refine / no-single-sei / no-hevc-aq / no-svt / no-field / qp-adaptation-range=1.00 / scenecut-aware-qp=0conformance-window-offsets / right=0 / bottom=0 / decoder-max-rate=0 / no-vbv-live-multi-pass / no-mcstf / no-sbrc
Язык : English
Default : Да
Forced : Нет

Аудио #1
Идентификатор : 2
Формат : AC-3
Формат/Информация : Audio Coding 3
Коммерческое название : Dolby Digital
Идентификатор кодека : A_AC3
Продолжительность : 2 ч. 7 м.
Вид битрейта : Постоянный
Битрейт : 384 Кбит/сек
Каналы : 6 каналов
Channel layout : L R C LFE Ls Rs
Частота : 48,0 КГц
Частота кадров : 31,250 кадров/сек (1536 SPF)
Метод сжатия : С потерями
Размер потока : 351 Мбайт (2%)
Заголовок : MVO (R5)
Язык : Russian
Service kind : Complete Main
Default : Да
Forced : Нет

Аудио #2
Идентификатор : 3
Формат : AC-3
Формат/Информация : Audio Coding 3
Коммерческое название : Dolby Digital
Идентификатор кодека : A_AC3
Продолжительность : 2 ч. 7 м.
Вид битрейта : Постоянный
Битрейт : 384 Кбит/сек
Каналы : 6 каналов
Channel layout : L R C LFE Ls Rs
Частота : 48,0 КГц
Частота кадров : 31,250 кадров/сек (1536 SPF)
Метод сжатия : С потерями
Размер потока : 351 Мбайт (2%)
Заголовок : MVO (Н-Кино)
Язык : Russian
Service kind : Complete Main
Default : Нет
Forced : Нет

Аудио #3
Идентификатор : 4
Формат : AC-3
Формат/Информация : Audio Coding 3
Коммерческое название : Dolby Digital
Идентификатор кодека : A_AC3
Продолжительность : 2 ч. 7 м.
Вид битрейта : Постоянный
Битрейт : 192 Кбит/сек
Каналы : 2 канала
Channel layout : L R
Частота : 48,0 КГц
Частота кадров : 31,250 кадров/сек (1536 SPF)
Метод сжатия : С потерями
Размер потока : 176 Мбайт (1%)
Заголовок : DVO (НТВ)
Язык : Russian
Service kind : Complete Main
Default : Нет
Forced : Нет

Аудио #4
Идентификатор : 5
Формат : AC-3
Формат/Информация : Audio Coding 3
Коммерческое название : Dolby Digital
Идентификатор кодека : A_AC3
Продолжительность : 2 ч. 7 м.
Вид битрейта : Постоянный
Битрейт : 640 Кбит/сек
Каналы : 2 канала
Channel layout : L R
Частота : 48,0 КГц
Частота кадров : 31,250 кадров/сек (1536 SPF)
Метод сжатия : С потерями
Размер потока : 585 Мбайт (3%)
Заголовок : AVO (Андрей Гаврилов ранний)
Язык : Russian
Service kind : Complete Main
Default : Нет
Forced : Нет

Аудио #5
Идентификатор : 6
Формат : AC-3
Формат/Информация : Audio Coding 3
Коммерческое название : Dolby Digital
Идентификатор кодека : A_AC3
Продолжительность : 2 ч. 7 м.
Вид битрейта : Постоянный
Битрейт : 640 Кбит/сек
Каналы : 2 канала
Channel layout : L R
Частота : 48,0 КГц
Частота кадров : 31,250 кадров/сек (1536 SPF)
Метод сжатия : С потерями
Размер потока : 585 Мбайт (3%)
Заголовок : AVO (Андрей Гаврилов поздний)
Язык : Russian
Service kind : Complete Main
Default : Нет
Forced : Нет

Аудио #6
Идентификатор : 7
Формат : AC-3
Формат/Информация : Audio Coding 3
Коммерческое название : Dolby Digital
Идентификатор кодека : A_AC3
Продолжительность : 2 ч. 7 м.
Вид битрейта : Постоянный
Битрейт : 640 Кбит/сек
Каналы : 2 канала
Channel layout : L R
Частота : 48,0 КГц
Частота кадров : 31,250 кадров/сек (1536 SPF)
Метод сжатия : С потерями
Размер потока : 585 Мбайт (3%)
Заголовок : AVO (Юрий Сербин)
Язык : Russian
Service kind : Complete Main
Default : Нет
Forced : Нет

Аудио #7
Идентификатор : 8
Формат : AC-3
Формат/Информация : Audio Coding 3
Коммерческое название : Dolby Digital
Идентификатор кодека : A_AC3
Продолжительность : 2 ч. 7 м.
Вид битрейта : Постоянный
Битрейт : 192 Кбит/сек
Каналы : 2 канала
Channel layout : L R
Частота : 48,0 КГц
Частота кадров : 31,250 кадров/сек (1536 SPF)
Метод сжатия : С потерями
Размер потока : 176 Мбайт (1%)
Заголовок : AVO (Леонид Володарский)
Язык : Russian
Service kind : Complete Main
Default : Нет
Forced : Нет

Аудио #8
Идентификатор : 9
Формат : AC-3
Формат/Информация : Audio Coding 3
Коммерческое название : Dolby Digital
Идентификатор кодека : A_AC3
Продолжительность : 2 ч. 7 м.
Вид битрейта : Постоянный
Битрейт : 192 Кбит/сек
Каналы : 2 канала
Channel layout : L R
Частота : 48,0 КГц
Частота кадров : 31,250 кадров/сек (1536 SPF)
Метод сжатия : С потерями
Размер потока : 176 Мбайт (1%)
Заголовок : AVO (Андрей Дольский)
Язык : Russian
Service kind : Complete Main
Default : Нет
Forced : Нет

Аудио #9
Идентификатор : 10
Формат : AC-3
Формат/Информация : Audio Coding 3
Коммерческое название : Dolby Digital
Идентификатор кодека : A_AC3
Продолжительность : 2 ч. 7 м.
Вид битрейта : Постоянный
Битрейт : 320 Кбит/сек
Каналы : 2 канала
Channel layout : L R
Частота : 48,0 КГц
Частота кадров : 31,250 кадров/сек (1536 SPF)
Метод сжатия : С потерями
Размер потока : 293 Мбайт (2%)
Заголовок : VO (Неизвестный с VHS от RoxMarty + вставки Алексея Попова)
Язык : Russian
Service kind : Complete Main
Default : Нет
Forced : Нет

Аудио #10
Идентификатор : 11
Формат : AC-3
Формат/Информация : Audio Coding 3
Коммерческое название : Dolby Digital
Идентификатор кодека : A_AC3
Продолжительность : 2 ч. 7 м.
Вид битрейта : Постоянный
Битрейт : 192 Кбит/сек
Каналы : 1 канал
Channel layout : M
Частота : 48,0 КГц
Частота кадров : 31,250 кадров/сек (1536 SPF)
Метод сжатия : С потерями
Размер потока : 176 Мбайт (1%)
Заголовок : VO (Неизвестный с VHS от Fikaloid + вставки Алексея Попова)
Язык : Russian
Service kind : Complete Main
Default : Нет
Forced : Нет

Аудио #11
Идентификатор : 12
Формат : AC-3
Формат/Информация : Audio Coding 3
Коммерческое название : Dolby Digital
Идентификатор кодека : A_AC3
Продолжительность : 2 ч. 7 м.
Вид битрейта : Постоянный
Битрейт : 320 Кбит/сек
Каналы : 2 канала
Channel layout : L R
Частота : 48,0 КГц
Частота кадров : 31,250 кадров/сек (1536 SPF)
Метод сжатия : С потерями
Размер потока : 293 Мбайт (2%)
Заголовок : VO (Алексей Попов)
Язык : Russian
Service kind : Complete Main
Default : Нет
Forced : Нет

Аудио #12
Идентификатор : 13
Формат : AC-3
Формат/Информация : Audio Coding 3
Коммерческое название : Dolby Digital
Идентификатор кодека : A_AC3
Продолжительность : 2 ч. 7 м.
Вид битрейта : Постоянный
Битрейт : 192 Кбит/сек
Каналы : 2 канала
Channel layout : L R
Частота : 48,0 КГц
Частота кадров : 31,250 кадров/сек (1536 SPF)
Метод сжатия : С потерями
Размер потока : 176 Мбайт (1%)
Заголовок : VO (Михаил Яроцкий)
Язык : Russian
Service kind : Complete Main
Default : Нет
Forced : Нет

Аудио #13
Идентификатор : 14
Формат : AC-3
Формат/Информация : Audio Coding 3
Коммерческое название : Dolby Digital
Идентификатор кодека : A_AC3
Продолжительность : 2 ч. 7 м.
Вид битрейта : Постоянный
Битрейт : 640 Кбит/сек
Каналы : 2 канала
Channel layout : L R
Частота : 48,0 КГц
Частота кадров : 31,250 кадров/сек (1536 SPF)
Метод сжатия : С потерями
Размер потока : 585 Мбайт (3%)
Язык : English
Service kind : Complete Main
Default : Нет
Forced : Нет

Текст #1
Идентификатор : 15
Формат : UTF-8
Идентификатор кодека : S_TEXT/UTF8
Идентификатор кодека/Информация : UTF-8 Plain Text
Продолжительность : 2 ч. 2 м.
Битрейт : 55 бит/сек
Частота кадров : 0,133 кадр/сек
Count of elements : 975
Размер потока : 50,0 Кбайт (0%)
Заголовок : Russian
Язык : Russian
Default : Нет
Forced : Нет

Текст #2
Идентификатор : 16
Формат : UTF-8
Идентификатор кодека : S_TEXT/UTF8
Идентификатор кодека/Информация : UTF-8 Plain Text
Продолжительность : 1 ч. 59 м.
Битрейт : 58 бит/сек
Частота кадров : 0,141 кадр/сек
Count of elements : 1013
Размер потока : 51,1 Кбайт (0%)
Заголовок : Russian
Язык : Russian
Default : Нет
Forced : Нет

Текст #3
Идентификатор : 17
Формат : UTF-8
Идентификатор кодека : S_TEXT/UTF8
Идентификатор кодека/Информация : UTF-8 Plain Text
Продолжительность : 1 ч. 59 м.
Битрейт : 37 бит/сек
Частота кадров : 0,143 кадр/сек
Count of elements : 1027
Размер потока : 32,8 Кбайт (0%)
Заголовок : English Full
Язык : English
Default : Нет
Forced : Нет

Текст #4
Идентификатор : 18
Формат : UTF-8
Идентификатор кодека : S_TEXT/UTF8
Идентификатор кодека/Информация : UTF-8 Plain Text
Продолжительность : 2 ч. 0 м.
Битрейт : 37 бит/сек
Частота кадров : 0,150 кадр/сек
Count of elements : 1087
Размер потока : 32,8 Кбайт (0%)
Заголовок : English SDH
Язык : English
Default : Нет
Forced : Нет

Меню
00:00:00.000 : en:Chapter 01
00:13:31.227 : en:Chapter 02
00:27:25.352 : en:Chapter 03
00:39:57.978 : en:Chapter 04
00:55:00.714 : en:Chapter 05
01:09:18.946 : en:Chapter 06
01:18:42.384 : en:Chapter 07
01:28:16.541 : en:Chapter 08
01:39:15.991 : en:Chapter 09
01:52:44.841 : en:Chapter 10
Загрузка...Cкриншот1 Плоть + кровь / Flesh+Blood (1985) [GBR Transfer] BDRip 1080p [HEVC] 10 bit от OldGamer (RG RIPS CLUB)Загрузка...Cкриншот2 Плоть + кровь / Flesh+Blood (1985) [GBR Transfer] BDRip 1080p [HEVC] 10 bit от OldGamer (RG RIPS CLUB)Загрузка...Cкриншот3 Плоть + кровь / Flesh+Blood (1985) [GBR Transfer] BDRip 1080p [HEVC] 10 bit от OldGamer (RG RIPS CLUB)Загрузка...Cкриншот4 Плоть + кровь / Flesh+Blood (1985) [GBR Transfer] BDRip 1080p [HEVC] 10 bit от OldGamer (RG RIPS CLUB)
Релиз-группа: RIPS CLUB
Сэмпл Торрент🧲 Магнет

Рейтинги КП и IMDB, кнопки "Позвать в чате" и "Спасибо", а также мультитрекерная статистика доступны только зарегистрированным/авторизованным пользователям!

Файлы: 1
  • Плоть+кровь.Flesh+Blood.1985.GBR.Transfer.BDRip-HEVC.1080p.mkv   17.46 ГБ
Поблагодарили: 6
Alex302, Elico1977, ilyich05, Kiran, Nuclear70, Redman
OldGamer
02343017.46 ГБ

Добавление нового комментария

Добавление комментариев доступно только зарегистрированным/авторизованным пользователям.