Чат

⚫︎
Список изменений сайта - https://rips.club/changelog.html (обновлен 24.05.2024)
  • ancestor87
  • arwis
  • ExoticDeer
  • natali
Онлайн (за 10 мин.): 4
  • Tastod: Раздайте, пожалуйста, Загадочная история Бенджамина Баттона / The Curious Case of Benjamin Button (2008) BDRip 1080p [HEVC] 10 bit от Spartanec1308
  • Гл. Админ: Исправил баг, когда после анонса коллекции все анонсы показывались в спойлере, даже если не являлись коллекцией.
  • Гл. Админ: Исправил баг, когда в ЛС не возможно было удалить сообщение.
  • bronsonw200: Гл. Админ, Как по мне, так смотрится приятнее.
  • Гл. Админ: В светлой теме задний фон сделал чуть потемнее, чтобы было не слишком ярко. В темной теме поисковую строку сделал черной (как в светлой теме), чтобы выделялась. Убрал рамки вокруг элементов форм. Прокрутку страницы в начало сделал плавной. ( отредактировано: )
  • Гл. Админ: В ближайшие дни по вечерам начну подправлять дизайн.
  • Гл. Админ: Готово.
  • Гл. Админ: Управление релизами закончил, но не буду выкладывать на ночь глядя. Утром протестирую на локальном компе, и днем выложу.
  • Гл. Админ: Фон баннера релиз-группы сделал прозрачным и перезалил на внешнем хостинге.
  • OldGamer: было бы неплохо
  • Гл. Админ: Управление релизами наверно сегодня закончу.
  • HANNIBAL: Сообщение удалено (удалил: HANNIBAL)
  • HANNIBAL: Гл. Админ, не привычно
  • Гл. Админ: HANNIBAL, хорошего или плохого?
  • HANNIBAL: эт чей-то вы тут натворили с сайтом ;)
  • Гл. Админ: ExoticDeer, просто в будущем будет несколько новостных строчек и они будут автоматически переключаться по кругу, поэтому не хочется статичную. Могу ещё уменьшить частоту, если всё равно будет отвлекать. ( отредактировано: )
  • Гл. Админ: ExoticDeer, уменьшил частоту мигания с 5 сек. до 10 сек.
  • ExoticDeer: Гл. Админ, про мигание, скорее отвлекает, особенно на тёмной теме. статичная хорошо смотрелась
  • Гл. Админ: Winsent, Исправил. Теперь, при просмотре комментариев конкретного пользователя, эта галочка не играет роли. Спасибо, что сообщили.
  • Гл. Админ: Winsent, сначала не поверил своим глазам. Это было оооочень странно. Но кажется теперь понял в чем проблема. Ошибка появляется, если в настройках не установлена галочка "Получать уведомления о всех комментариях". Причем у разных пользователей проявляется по разному - у кого-то ничего не показывается, а у кого-то показывается часть комментариев. Поэтому мне долго не удавалось воспроизвести ошибку. Сейчас исправлю.
Отправка сообщений доступна только зарегистрированным/авторизованным пользователям.

🎥︎Охотники за привидениями 2 / Ghostbusters II (1989) [US Mastered in 4K] BDRip 1080p [HEVC] 10 bit от OldGamer (RG RIPS CLUB)


Обложка Охотники за привидениями 2 / Ghostbusters II (1989) [US Mastered in 4K] BDRip 1080p [HEVC] 10 bit от OldGamer (RG RIPS CLUB)
HEVC
10 bit
✂︎Сэмпл⤓︎Торрент🧲︎Магнет$Пожертвования

При перезаливке на другие сайты просьба указать автора и релиз-группу.


Год: 1989
Страна: США
Студия: Columbia Pictures Corporation
Жанр: Фантастика, Фэнтези, Боевик, Комедия
Длительность: 01:48:19

Режиссер: Айвен Райтман
В ролях: Билл Мюррей, Дэн Эйкройд, Сигурни Уивер, Харольд Рэмис, Рик Морэнис, Эрни Хадсон, Энни Поттс, Питер МакНикол, Харрис Юлин, Дэвид Маргулис

Описание: Через пять лет все забыли о знаменитых охотниках, равно как и о самих привидениях. Но они и не думали исчезать… А это значит, что для отважной четвёрки снова есть работа. Теперь в их распоряжении новое современное оружие, которое поможет им одолеть даже самого страшного монстра. Облако чёрной энергии нависло над городом, а в городской канализации течёт река зловещего розового киселя. Наступает время последней решающей схватки!


Релиз-группа: RIPS CLUB
Исходник: Blu-Ray Remux 1080p (rutracker)
Видео: 1920x800 (2.40:1), 11,6 Мбит/сек, HEVC (Main10@L.4.1@High)
Аудио1: AC3, 6 ch, 640 Kbps - РусскийРусский, MVO (R5 / Видеосервис)
Аудио2: AC3, 2 ch, 192 Kbps - РусскийРусский, MVO (РТР)
Аудио3: AC3, 2 ch, 192 Kbps - РусскийРусский, MVO (DDV)
Аудио4: AC3, 2 ch, 192 Kbps - РусскийРусский, DVO (ОРТ)
Аудио5: AC3, 2 ch, 192 Kbps - РусскийРусский, DVO (Рен-ТВ)
Аудио6: AC3, 6 ch, 640 Kbps - РусскийРусский, AVO (Василий Горчаков)
Аудио7: AC3, 6 ch, 640 Kbps - РусскийРусский, AVO (Григорий Либергал)
Аудио8: AC3, 6 ch, 640 Kbps - РусскийРусский, AVO (Юрий Живов)
Аудио9: AC3, 6 ch, 640 Kbps - РусскийРусский, AVO (Сергей Дьяков)
Аудио10: AC3, 6 ch, 640 Kbps - РусскийРусский, AVO (Андрей Дольский)
Аудио11: AC3, 2 ch, 192 Kbps - РусскийРусский, AVO (Леонид Володарский)
Аудио12: AC3, 2 ch, 192 Kbps - РусскийРусский, AVO (Ирэн)
Аудио13: AC3, 2 ch, 192 Kbps - РусскийРусский, AVO ("К-9" / "Весёлый дядька")
Аудио14: AC3, 2 ch, 192 Kbps - УкраинскийУкраинский, MVO (AMC)
Аудио15: AC3, 2 ch, 192 Kbps - УкраинскийУкраинский, DVO (1+1)
Аудио16: AC3, 2 ch, 192 Kbps - УкраинскийУкраинский, DVO (ICTV)
Аудио17: AC3, 6 ch, 640 Kbps - АнглийскийАнглийский
Субтитры: русские (full, forced), английские

Как за несколько секунд удалить ненужные аудиодорожки и субтитры (Внимание! После удаления вы не сможете поддержать раздачу)


Лог (x265 info)x265 [info]: frame I: 654, Avg QP:18.77 kb/s: 25690.53
x265 [info]: frame P: 25288, Avg QP:20.00 kb/s: 20054.34
x265 [info]: frame B: 129889, Avg QP:21.93 kb/s: 9907.08
x265 [info]: Weighted P-Frames: Y:8.5% UV:6.1%
x265 [info]: Weighted B-Frames: Y:8.7% UV:5.2%
x265 [info]: encoded 155831 frames in 104626.71s (1.49 fps), 11620.00 kb/s, Avg QP:21.60
МедиаинфоОбщее
Уникальный идентификатор : 312233105050258169517029951852659784620 (0xEAE5E89E3D16643AD89DF98DF8BABBAC)
Полное имя : \\.\Охотники.за.привидениями.2.Ghostbusters.II.1989.US.Mastered.in.4K.BDRip-HEVC.1080p.mkv
Формат : Matroska
Версия формата : Version 4
Размер файла : 13,6 Гбайт
Продолжительность : 1 ч. 48 м.
Общий поток : 18,0 Мбит/сек
Частота кадров : 23,976 кадра/сек
Дата кодирования : 2023-05-19 00:51:58 UTC
Программа кодирования : mkvmerge v76.0 ('Celebration') 64-bit
Библиотека кодирования : libebml v1.4.4 + libmatroska v1.7.1

Видео
Идентификатор : 1
Формат : HEVC
Формат/Информация : High Efficiency Video Coding
Профиль формата : Main 10@L4.1@High
Идентификатор кодека : V_MPEGH/ISO/HEVC
Продолжительность : 1 ч. 48 м.
Битрейт : 11,6 Мбит/сек
Ширина : 1 920 пикселей
Высота : 800 пикселей
Соотношение сторон : 2,40:1
Режим частоты кадров : Постоянный
Частота кадров : 23,976 (24000/1001) кадра/сек
Цветовое пространство : YUV
Субдискретизация насыщенности : 4:2:0
Битовая глубина : 10 бит
Бит/(Пиксели*Кадры) : 0.316
Размер потока : 8,79 Гбайт (64%)
Заголовок : Ghostbusters II / Rip by OldGamer
Библиотека кодирования : x265 3.5+86-6da609e41:[Windows][GCC 12.2.0][64 bit] 10bit
Настройки программы : cpuid=1111039 / frame-threads=4 / numa-pools=16 / wpp / no-pmode / no-pme / no-psnr / no-ssim / log-level=2 / input-csp=1 / input-res=1920x800 / interlace=0 / total-frames=155831 / level-idc=41 / high-tier=1 / uhd-bd=0 / ref=5 / no-allow-non-conformance / no-repeat-headers / annexb / no-aud / no-eob / no-eos / no-hrd / info / hash=0 / temporal-layers=0 / open-gop / min-keyint=23 / keyint=240 / gop-lookahead=0 / bframes=16 / b-adapt=2 / b-pyramid / bframe-bias=0 / rc-lookahead=40 / lookahead-slices=0 / scenecut=40 / no-hist-scenecut / radl=0 / no-splice / no-intra-refresh / ctu=32 / min-cu-size=8 / rect / amp / max-tu-size=32 / tu-inter-depth=4 / tu-intra-depth=4 / limit-tu=1 / rdoq-level=2 / dynamic-rd=0.00 / no-ssim-rd / signhide / no-tskip / nr-intra=0 / nr-inter=0 / no-constrained-intra / no-strong-intra-smoothing / max-merge=5 / limit-refs=3 / no-limit-modes / me=3 / subme=7 / merange=57 / temporal-mvp / no-frame-dup / no-hme / weightp / weightb / no-analyze-src-pics / deblock=-2:-2 / no-sao / no-sao-non-deblock / rd=6 / selective-sao=0 / no-early-skip / no-rskip / no-fast-intra / no-tskip-fast / no-cu-lossless / b-intra / no-splitrd-skip / rdpenalty=0 / psy-rd=2.00 / psy-rdoq=1.00 / no-rd-refine / no-lossless / cbqpoffs=0 / crqpoffs=0 / rc=crf / crf=19.0 / qcomp=0.60 / qpstep=4 / stats-write=0 / stats-read=0 / vbv-maxrate=50000 / vbv-bufsize=50000 / vbv-init=0.9 / min-vbv-fullness=50.0 / max-vbv-fullness=80.0 / crf-max=0.0 / crf-min=0.0 / ipratio=1.40 / pbratio=1.30 / aq-mode=1 / aq-strength=1.00 / no-cutree / zone-count=1 / zones: / start-frame=147046 / end-frame=155831 / qp=36 / no-strict-cbr / qg-size=32 / no-rc-grain / qpmax=69 / qpmin=0 / no-const-vbv / sar=1 / overscan=0 / videoformat=5 / range=0 / colorprim=2 / transfer=2 / colormatrix=2 / chromaloc=0 / display-window=0 / cll=0,0 / min-luma=0 / max-luma=1023 / log2-max-poc-lsb=8 / vui-timing-info / vui-hrd-info / slices=1 / no-opt-qp-pps / no-opt-ref-list-length-pps / no-multi-pass-opt-rps / scenecut-bias=0.00 / no-opt-cu-delta-qp / no-aq-motion / no-hdr10 / no-hdr10-opt / no-dhdr10-opt / no-idr-recovery-sei / analysis-reuse-level=0 / analysis-save-reuse-level=0 / analysis-load-reuse-level=0 / scale-factor=0 / refine-intra=0 / refine-inter=0 / refine-mv=1 / refine-ctu-distortion=0 / no-limit-sao / ctu-info=0 / no-lowpass-dct / refine-analysis-type=0 / copy-pic=1 / max-ausize-factor=1.0 / no-dynamic-refine / no-single-sei / no-hevc-aq / no-svt / no-field / qp-adaptation-range=1.00 / scenecut-aware-qp=0conformance-window-offsets / right=0 / bottom=0 / decoder-max-rate=0 / no-vbv-live-multi-pass / no-mcstf / no-sbrc
Язык : English
Default : Да
Forced : Нет

Аудио #1
Идентификатор : 2
Формат : AC-3
Формат/Информация : Audio Coding 3
Коммерческое название : Dolby Digital
Идентификатор кодека : A_AC3
Продолжительность : 1 ч. 48 м.
Вид битрейта : Постоянный
Битрейт : 640 Кбит/сек
Каналы : 6 каналов
Channel layout : L R C LFE Ls Rs
Частота : 48,0 КГц
Частота кадров : 31,250 кадров/сек (1536 SPF)
Метод сжатия : С потерями
Размер потока : 496 Мбайт (4%)
Заголовок : MVO (R5 / Видеосервис)
Язык : Russian
Service kind : Complete Main
Default : Да
Forced : Нет

Аудио #2
Идентификатор : 3
Формат : AC-3
Формат/Информация : Audio Coding 3
Коммерческое название : Dolby Digital
Идентификатор кодека : A_AC3
Продолжительность : 1 ч. 48 м.
Вид битрейта : Постоянный
Битрейт : 192 Кбит/сек
Каналы : 2 канала
Channel layout : L R
Частота : 48,0 КГц
Частота кадров : 31,250 кадров/сек (1536 SPF)
Метод сжатия : С потерями
Размер потока : 149 Мбайт (1%)
Заголовок : MVO (РТР)
Язык : Russian
Service kind : Complete Main
Default : Нет
Forced : Нет

Аудио #3
Идентификатор : 4
Формат : AC-3
Формат/Информация : Audio Coding 3
Коммерческое название : Dolby Digital
Идентификатор кодека : A_AC3
Продолжительность : 1 ч. 48 м.
Вид битрейта : Постоянный
Битрейт : 192 Кбит/сек
Каналы : 2 канала
Channel layout : L R
Частота : 48,0 КГц
Частота кадров : 31,250 кадров/сек (1536 SPF)
Метод сжатия : С потерями
Размер потока : 149 Мбайт (1%)
Заголовок : MVO (DDV)
Язык : Russian
Service kind : Complete Main
Default : Нет
Forced : Нет

Аудио #4
Идентификатор : 5
Формат : AC-3
Формат/Информация : Audio Coding 3
Коммерческое название : Dolby Digital
Идентификатор кодека : A_AC3
Продолжительность : 1 ч. 48 м.
Вид битрейта : Постоянный
Битрейт : 192 Кбит/сек
Каналы : 2 канала
Channel layout : L R
Частота : 48,0 КГц
Частота кадров : 31,250 кадров/сек (1536 SPF)
Метод сжатия : С потерями
Размер потока : 149 Мбайт (1%)
Заголовок : DVO (ОРТ)
Язык : Russian
Service kind : Complete Main
Default : Нет
Forced : Нет

Аудио #5
Идентификатор : 6
Формат : AC-3
Формат/Информация : Audio Coding 3
Коммерческое название : Dolby Digital
Идентификатор кодека : A_AC3
Продолжительность : 1 ч. 48 м.
Вид битрейта : Постоянный
Битрейт : 192 Кбит/сек
Каналы : 2 канала
Channel layout : L R
Частота : 48,0 КГц
Частота кадров : 31,250 кадров/сек (1536 SPF)
Метод сжатия : С потерями
Размер потока : 149 Мбайт (1%)
Заголовок : DVO (Рен-ТВ)
Язык : Russian
Service kind : Complete Main
Default : Нет
Forced : Нет

Аудио #6
Идентификатор : 7
Формат : AC-3
Формат/Информация : Audio Coding 3
Коммерческое название : Dolby Digital
Идентификатор кодека : A_AC3
Продолжительность : 1 ч. 48 м.
Вид битрейта : Постоянный
Битрейт : 640 Кбит/сек
Каналы : 6 каналов
Channel layout : L R C LFE Ls Rs
Частота : 48,0 КГц
Частота кадров : 31,250 кадров/сек (1536 SPF)
Метод сжатия : С потерями
Размер потока : 496 Мбайт (4%)
Заголовок : AVO (Василий Горчаков)
Язык : Russian
Service kind : Complete Main
Default : Нет
Forced : Нет

Аудио #7
Идентификатор : 8
Формат : AC-3
Формат/Информация : Audio Coding 3
Коммерческое название : Dolby Digital
Идентификатор кодека : A_AC3
Продолжительность : 1 ч. 48 м.
Вид битрейта : Постоянный
Битрейт : 640 Кбит/сек
Каналы : 6 каналов
Channel layout : L R C LFE Ls Rs
Частота : 48,0 КГц
Частота кадров : 31,250 кадров/сек (1536 SPF)
Метод сжатия : С потерями
Размер потока : 496 Мбайт (4%)
Заголовок : AVO (Григорий Либергал)
Язык : Russian
Service kind : Complete Main
Default : Нет
Forced : Нет

Аудио #8
Идентификатор : 9
Формат : AC-3
Формат/Информация : Audio Coding 3
Коммерческое название : Dolby Digital
Идентификатор кодека : A_AC3
Продолжительность : 1 ч. 48 м.
Вид битрейта : Постоянный
Битрейт : 640 Кбит/сек
Каналы : 6 каналов
Channel layout : L R C LFE Ls Rs
Частота : 48,0 КГц
Частота кадров : 31,250 кадров/сек (1536 SPF)
Метод сжатия : С потерями
Размер потока : 496 Мбайт (4%)
Заголовок : AVO (Юрий Живов)
Язык : Russian
Service kind : Complete Main
Default : Нет
Forced : Нет

Аудио #9
Идентификатор : 10
Формат : AC-3
Формат/Информация : Audio Coding 3
Коммерческое название : Dolby Digital
Идентификатор кодека : A_AC3
Продолжительность : 1 ч. 48 м.
Вид битрейта : Постоянный
Битрейт : 640 Кбит/сек
Каналы : 6 каналов
Channel layout : L R C LFE Ls Rs
Частота : 48,0 КГц
Частота кадров : 31,250 кадров/сек (1536 SPF)
Метод сжатия : С потерями
Размер потока : 496 Мбайт (4%)
Заголовок : AVO (Сергей Дьяков)
Язык : Russian
Service kind : Complete Main
Default : Нет
Forced : Нет

Аудио #10
Идентификатор : 11
Формат : AC-3
Формат/Информация : Audio Coding 3
Коммерческое название : Dolby Digital
Идентификатор кодека : A_AC3
Продолжительность : 1 ч. 48 м.
Вид битрейта : Постоянный
Битрейт : 640 Кбит/сек
Каналы : 6 каналов
Channel layout : L R C LFE Ls Rs
Частота : 48,0 КГц
Частота кадров : 31,250 кадров/сек (1536 SPF)
Метод сжатия : С потерями
Размер потока : 496 Мбайт (4%)
Заголовок : AVO (Сергей Дьяков)
Язык : Russian
Service kind : Complete Main
Default : Нет
Forced : Нет

Аудио #11
Идентификатор : 12
Формат : AC-3
Формат/Информация : Audio Coding 3
Коммерческое название : Dolby Digital
Идентификатор кодека : A_AC3
Продолжительность : 1 ч. 48 м.
Вид битрейта : Постоянный
Битрейт : 192 Кбит/сек
Каналы : 2 канала
Channel layout : L R
Частота : 48,0 КГц
Частота кадров : 31,250 кадров/сек (1536 SPF)
Метод сжатия : С потерями
Размер потока : 149 Мбайт (1%)
Заголовок : AVO (Леонид Володарский)
Язык : Russian
Service kind : Complete Main
Default : Нет
Forced : Нет

Аудио #12
Идентификатор : 13
Формат : AC-3
Формат/Информация : Audio Coding 3
Коммерческое название : Dolby Digital
Идентификатор кодека : A_AC3
Продолжительность : 1 ч. 48 м.
Вид битрейта : Постоянный
Битрейт : 192 Кбит/сек
Каналы : 2 канала
Channel layout : L R
Частота : 48,0 КГц
Частота кадров : 31,250 кадров/сек (1536 SPF)
Метод сжатия : С потерями
Размер потока : 149 Мбайт (1%)
Заголовок : AVO (Ирэн)
Язык : Russian
Service kind : Complete Main
Default : Нет
Forced : Нет

Аудио #13
Идентификатор : 14
Формат : AC-3
Формат/Информация : Audio Coding 3
Коммерческое название : Dolby Digital
Идентификатор кодека : A_AC3
Продолжительность : 1 ч. 48 м.
Вид битрейта : Постоянный
Битрейт : 192 Кбит/сек
Каналы : 2 канала
Channel layout : L R
Частота : 48,0 КГц
Частота кадров : 31,250 кадров/сек (1536 SPF)
Метод сжатия : С потерями
Размер потока : 149 Мбайт (1%)
Заголовок : AVO ("К-9" / "Весёлый дядька")
Язык : Russian
Service kind : Complete Main
Default : Нет
Forced : Нет

Аудио #14
Идентификатор : 15
Формат : AC-3
Формат/Информация : Audio Coding 3
Коммерческое название : Dolby Digital
Идентификатор кодека : A_AC3
Продолжительность : 1 ч. 48 м.
Вид битрейта : Постоянный
Битрейт : 192 Кбит/сек
Каналы : 2 канала
Channel layout : L R
Частота : 48,0 КГц
Частота кадров : 31,250 кадров/сек (1536 SPF)
Метод сжатия : С потерями
Размер потока : 149 Мбайт (1%)
Заголовок : MVO (AMC)
Язык : Ukrainian
Service kind : Complete Main
Default : Нет
Forced : Нет

Аудио #15
Идентификатор : 16
Формат : AC-3
Формат/Информация : Audio Coding 3
Коммерческое название : Dolby Digital
Идентификатор кодека : A_AC3
Продолжительность : 1 ч. 48 м.
Вид битрейта : Постоянный
Битрейт : 192 Кбит/сек
Каналы : 2 канала
Channel layout : L R
Частота : 48,0 КГц
Частота кадров : 31,250 кадров/сек (1536 SPF)
Метод сжатия : С потерями
Размер потока : 149 Мбайт (1%)
Заголовок : DVO (1+1)
Язык : Ukrainian
Service kind : Complete Main
Default : Нет
Forced : Нет

Аудио #16
Идентификатор : 17
Формат : AC-3
Формат/Информация : Audio Coding 3
Коммерческое название : Dolby Digital
Идентификатор кодека : A_AC3
Продолжительность : 1 ч. 48 м.
Вид битрейта : Постоянный
Битрейт : 192 Кбит/сек
Каналы : 2 канала
Channel layout : L R
Частота : 48,0 КГц
Частота кадров : 31,250 кадров/сек (1536 SPF)
Метод сжатия : С потерями
Размер потока : 149 Мбайт (1%)
Заголовок : DVO (ICTV)
Язык : Ukrainian
Service kind : Complete Main
Default : Нет
Forced : Нет

Аудио #17
Идентификатор : 18
Формат : AC-3
Формат/Информация : Audio Coding 3
Коммерческое название : Dolby Digital
Идентификатор кодека : A_AC3
Продолжительность : 1 ч. 48 м.
Вид битрейта : Постоянный
Битрейт : 640 Кбит/сек
Каналы : 6 каналов
Channel layout : L R C LFE Ls Rs
Частота : 48,0 КГц
Частота кадров : 31,250 кадров/сек (1536 SPF)
Метод сжатия : С потерями
Размер потока : 496 Мбайт (4%)
Язык : English
Service kind : Complete Main
Default : Нет
Forced : Нет

Текст #1
Идентификатор : 19
Формат : UTF-8
Идентификатор кодека : S_TEXT/UTF8
Идентификатор кодека/Информация : UTF-8 Plain Text
Продолжительность : 1 ч. 23 м.
Битрейт : 0 бит/сек
Частота кадров : 0,002 кадр/сек
Count of elements : 8
Размер потока : 317 байт (0%)
Заголовок : forced
Язык : Russian
Default : Да
Forced : Нет

Текст #2
Идентификатор : 20
Формат : UTF-8
Идентификатор кодека : S_TEXT/UTF8
Идентификатор кодека/Информация : UTF-8 Plain Text
Продолжительность : 1 ч. 39 м.
Битрейт : 77 бит/сек
Частота кадров : 0,143 кадр/сек
Count of elements : 853
Размер потока : 56,5 Кбайт (0%)
Заголовок : full
Язык : Russian
Default : Нет
Forced : Нет

Текст #3
Идентификатор : 21
Формат : UTF-8
Идентификатор кодека : S_TEXT/UTF8
Идентификатор кодека/Информация : UTF-8 Plain Text
Продолжительность : 1 ч. 38 м.
Битрейт : 71 бит/сек
Частота кадров : 0,237 кадр/сек
Count of elements : 1405
Размер потока : 51,5 Кбайт (0%)
Заголовок : full
Язык : English
Default : Нет
Forced : Нет

Меню
00:00:00.000 : en:Start
00:05:00.549 : en:"World of the Psychic"
00:11:44.162 : en:Dr. Janosz Poha
00:18:16.012 : en:Ray's Occult Books
00:23:36.498 : en:Investigating Oscar
00:32:39.958 : en:Late-Night Excavation
00:39:20.817 : en:Vigo Commands
00:46:15.147 : en:Down the Shaft
00:52:36.487 : en:Great Blackout of 1989
00:58:45.981 : en:Their Day in Court
01:05:34.055 : en:The Scoleri Brothers
01:14:06.776 : en:Two in the Box
01:19:22.216 : en:Mood Slime
01:27:22.529 : en:A Tub Full of Slime
01:33:06.539 : en:Peter's Place
01:38:10.635 : en:Vigo 101
Загрузка...Cкриншот1 Охотники за привидениями 2 / Ghostbusters II (1989) [US Mastered in 4K] BDRip 1080p [HEVC] 10 bit от OldGamer (RG RIPS CLUB)Загрузка...Cкриншот2 Охотники за привидениями 2 / Ghostbusters II (1989) [US Mastered in 4K] BDRip 1080p [HEVC] 10 bit от OldGamer (RG RIPS CLUB)Загрузка...Cкриншот3 Охотники за привидениями 2 / Ghostbusters II (1989) [US Mastered in 4K] BDRip 1080p [HEVC] 10 bit от OldGamer (RG RIPS CLUB)Загрузка...Cкриншот4 Охотники за привидениями 2 / Ghostbusters II (1989) [US Mastered in 4K] BDRip 1080p [HEVC] 10 bit от OldGamer (RG RIPS CLUB)
Поблагодарили: 14and50, AndresUA, Askarida666, Brooklyn, denisptp4, Elico1977, ilyich05, Kiran, nazarpavluwun, normalllhuman, Redman, stickstoff, TheRuselX, Лара
Файлы: 1
  • Охотники.за.привидениями.2.Ghostbusters.II.1989.US.Mastered.in.4K.BDRip-HEVC.1080p.mkv

Рейтинги КП и IMDB, кнопки "Раздайте, пожалуйста" и "Спасибо", а также мультитрекерная статистика доступны только зарегистрированным/авторизованным пользователям!

OldGamer
123381013.64 ГБ

💬︎ Комментарии

Добавление комментариев доступно только зарегистрированным/авторизованным пользователям.