💬 Мини-чат

Для тех, кому интересен процесс переделки сайта - https://rips.club/changelog.html (обновлен 22.02.2024)
OldGamerz1M4p9i0, и этот релиз скачался
Adminatomicheart, встал, но у Вас в профиле не видно. Вам бы перекачать.
OldGamerz1M4p9i0, Хан Соло скачался, но релиз, который был на руторе, там аудиодорожек меньше, чем тут, а видеоряд тот же. Попробуйте оттуда, я пока что сидирую.
OldGamerХан Соло откуда-то по чайной ложке в час скачивается, за сутки 50%, наблюдаем-с дальше
Adminatomicheart, завтра посмотрю, он у меня должен быть.
atomicheartРаздайте, пожалуйста, Тихое место: Дилогия / A Quiet Place: Dilogy (2018-2020) UHD-BDRip 1080p [HEVC] 10 bit [HDR] от Mr. Fox
z1M4p9i0Раздайте, пожалуйста, Хан Соло: Звёздные войны. Истории / Solo: A Star Wars Story (2018) [Локализованная версия] BDRip 1080p [HEVC] 10 bit от Cthulhu
z1M4p9i0Раздайте, пожалуйста, Терминатор: Тёмные судьбы / Terminator: Dark Fate (2019) [iTunes] UHD-BDRip 1440p [HEVC] 10 bit от HANNIBAL
OldGamerKeynol, честно говоря, пока что не планировалось, так как у нас есть отличный рип этого фильма
KeynolПриветствую! А можно сделать HEVC 10 bit на Трон Наследие Hybrid ? там файл на 31 гиг :-( на рутрекере. Хороший, но очень массивный..
  • OldGamer
  • 375509
  • Clockwork_Orange
  • InSpector
  • pmihail99
  • Лара
Отправка сообщений доступна только зарегистрированным/авторизованным пользователям.
Онлайн (за 10 мин.): 6

Наёмный убийца / The Killer / Dip huet seung hung (1989) [HKR Restored] BDRip 1080p [HEVC] 10 bit от OldGamer (RG RIPS CLUB)

HEVC
10 bit
Обложка Наёмный убийца / The Killer / Dip huet seung hung (1989) [HKR Restored] BDRip 1080p [HEVC] 10 bit от OldGamer (RG RIPS CLUB) Год: 1989
Страна: Гонконг
Студия: Film Workshop Ltd., Golden Princess Film Production Limited, Long Shong Pictures, Magnum Films, Media Asia Group Ltd.
Жанр: Боевик, Криминал, Драма
Продолжительность: 01:51:08

Режиссер: Джон Ву
В ролях: Чоу Юнь-Фат, Дэнни Ли, Салли Е, Чу Кон, Кеннет Цан, Шин Фуй-Онь, Тедди Ип, Рики И, Бэрри Вон, Пакмен Вонг

Описание: История о двух мужчинах, которые становятся друзьями, потому что не желают продаваться, не желают вести жизнь, не отвечающую их чувствам и устремлениям. Джеффри - профессиональный убийца, который, выполняя задание, случайно лишает зрения певицу Дженни. Между слепой певицей и убийцей возникает взаимная привязанность, но самые близкие отношения у Джеффри завязываются с идущим по его следу полицейским инспектором, который признаёт в наёмном убийце родственную душу. Джеффри хочет оплатить Дженни операцию по восстановлению зрения, но, чтобы добыть деньги, он должен согласиться на совершение ещё одного, последнего, как он надеется, задания.


Исходник: Blu-Ray Remux 1080p (rutracker)
Видео: 1920x1036 (1.85:1), 8480 Кбит/сек, HEVC (Main10@L.4.1@High)
Аудио1: AC3, 6 ch, 640 Kbps - РусскийРусский, MVO (Cinema Prestige)
Аудио2: AC3, 2 ch, 640 Kbps - РусскийРусский, DVO (Кинокомпания Екатеринбург Арт Home Video)
Аудио3: AC3, 6 ch, 640 Kbps - РусскийРусский, AVO (Андрей Гаврилов)
Аудио4: AC3, 6 ch, 640 Kbps - РусскийРусский, AVO (Леонид Володарский)
Аудио5: AC3, 6 ch, 640 Kbps - РусскийРусский, AVO (Юрий Живов)
Аудио6: AC3, 2 ch, 192 Kbps - РусскийРусский, AVO (Андрей Дольский)
Аудио7: AC3, 6 ch, 640 Kbps - РусскийРусский, VO (Евгений Гаевский)
Аудио8: AC3, 2 ch, 192 Kbps - УкраинскийУкраинский, MVO (НТН)
Аудио9: AC3, 6 ch, 640 Kbps - КитайскийКитайский (Cantonese)
Субтитры: русские (full, forced), английские

Как за пару секунд удалить ненужные аудиодорожки и субтитры (Внимание! После удаления вы не сможете поддержать раздачу)

Лог (x265 info)
x265 [info]: frame I: 676, Avg QP:17.00 kb/s: 18300.18
x265 [info]: frame P: 34042, Avg QP:18.44 kb/s: 16400.50
x265 [info]: frame B: 124841, Avg QP:20.75 kb/s: 6266.52
x265 [info]: Weighted P-Frames: Y:9.1% UV:6.6%
x265 [info]: Weighted B-Frames: Y:7.8% UV:5.1%
x265 [info]: encoded 159559 frames in 126011.34s (1.27 fps), 8479.60 kb/s, Avg QP:20.24
Медиаинфо
Общее
Уникальный идентификатор : 19808845212518819794512675947111378690 (0xEE70B790D3B6D51C4414C844C7DEF02)
Полное имя : \\.\Наёмный.убийца.The.Killer.Dip.huet.seung.hung.1989.HKR.Restored.BDRip-HEVC.1080p.mkv
Формат : Matroska
Версия формата : Version 4
Размер файла : 10,3 Гбайт
Продолжительность : 1 ч. 51 м.
Общий поток : 13,3 Мбит/сек
Частота кадров : 23,976 кадра/сек
Дата кодирования : 2023-05-14 05:42:00 UTC
Программа кодирования : mkvmerge v76.0 ('Celebration') 64-bit
Библиотека кодирования : libebml v1.4.4 + libmatroska v1.7.1

Видео
Идентификатор : 1
Формат : HEVC
Формат/Информация : High Efficiency Video Coding
Профиль формата : Main 10@L4.1@High
Идентификатор кодека : V_MPEGH/ISO/HEVC
Продолжительность : 1 ч. 50 м.
Битрейт : 8 480 Кбит/сек
Ширина : 1 920 пикселей
Высота : 1 036 пикселей
Соотношение сторон : 1,85:1
Режим частоты кадров : Постоянный
Частота кадров : 23,976 (24000/1001) кадра/сек
Цветовое пространство : YUV
Субдискретизация насыщенности : 4:2:0
Битовая глубина : 10 бит
Бит/(Пиксели*Кадры) : 0.178
Размер потока : 6,57 Гбайт (63%)
Заголовок : Dip huet seung hung / Rip by OldGamer
Библиотека кодирования : x265 3.5+86-6da609e41:[Windows][GCC 12.2.0][64 bit] 10bit
Настройки программы : cpuid=1111039 / frame-threads=4 / numa-pools=16 / wpp / no-pmode / no-pme / no-psnr / no-ssim / log-level=2 / input-csp=1 / input-res=1920x1036 / interlace=0 / total-frames=159559 / level-idc=41 / high-tier=1 / uhd-bd=0 / ref=5 / no-allow-non-conformance / no-repeat-headers / annexb / no-aud / no-eob / no-eos / no-hrd / info / hash=0 / temporal-layers=0 / open-gop / min-keyint=23 / keyint=240 / gop-lookahead=0 / bframes=16 / b-adapt=2 / b-pyramid / bframe-bias=0 / rc-lookahead=40 / lookahead-slices=0 / scenecut=40 / no-hist-scenecut / radl=0 / no-splice / no-intra-refresh / ctu=32 / min-cu-size=8 / rect / amp / max-tu-size=32 / tu-inter-depth=4 / tu-intra-depth=4 / limit-tu=1 / rdoq-level=2 / dynamic-rd=0.00 / no-ssim-rd / signhide / no-tskip / nr-intra=0 / nr-inter=0 / no-constrained-intra / no-strong-intra-smoothing / max-merge=5 / limit-refs=3 / no-limit-modes / me=3 / subme=7 / merange=57 / temporal-mvp / no-frame-dup / no-hme / weightp / weightb / no-analyze-src-pics / deblock=-2:-2 / no-sao / no-sao-non-deblock / rd=6 / selective-sao=0 / no-early-skip / no-rskip / no-fast-intra / no-tskip-fast / no-cu-lossless / b-intra / no-splitrd-skip / rdpenalty=0 / psy-rd=2.00 / psy-rdoq=1.00 / no-rd-refine / no-lossless / cbqpoffs=0 / crqpoffs=0 / rc=crf / crf=20.8 / qcomp=0.70 / qpstep=4 / stats-write=0 / stats-read=0 / vbv-maxrate=50000 / vbv-bufsize=50000 / vbv-init=0.9 / min-vbv-fullness=50.0 / max-vbv-fullness=80.0 / crf-max=0.0 / crf-min=0.0 / ipratio=1.40 / pbratio=1.30 / aq-mode=1 / aq-strength=1.00 / no-cutree / zone-count=1 / zones: / start-frame=158030 / end-frame=159559 / qp=36 / no-strict-cbr / qg-size=32 / no-rc-grain / qpmax=69 / qpmin=0 / no-const-vbv / sar=1 / overscan=0 / videoformat=5 / range=0 / colorprim=2 / transfer=2 / colormatrix=2 / chromaloc=0 / display-window=0 / cll=0,0 / min-luma=0 / max-luma=1023 / log2-max-poc-lsb=8 / vui-timing-info / vui-hrd-info / slices=1 / no-opt-qp-pps / no-opt-ref-list-length-pps / no-multi-pass-opt-rps / scenecut-bias=0.00 / no-opt-cu-delta-qp / no-aq-motion / no-hdr10 / no-hdr10-opt / no-dhdr10-opt / no-idr-recovery-sei / analysis-reuse-level=0 / analysis-save-reuse-level=0 / analysis-load-reuse-level=0 / scale-factor=0 / refine-intra=0 / refine-inter=0 / refine-mv=1 / refine-ctu-distortion=0 / no-limit-sao / ctu-info=0 / no-lowpass-dct / refine-analysis-type=0 / copy-pic=1 / max-ausize-factor=1.0 / no-dynamic-refine / no-single-sei / no-hevc-aq / no-svt / no-field / qp-adaptation-range=1.00 / scenecut-aware-qp=0conformance-window-offsets / right=0 / bottom=0 / decoder-max-rate=0 / no-vbv-live-multi-pass / no-mcstf / no-sbrc
Язык : English
Default : Да
Forced : Нет

Аудио #1
Идентификатор : 2
Формат : AC-3
Формат/Информация : Audio Coding 3
Коммерческое название : Dolby Digital
Идентификатор кодека : A_AC3
Продолжительность : 1 ч. 51 м.
Вид битрейта : Постоянный
Битрейт : 640 Кбит/сек
Каналы : 6 каналов
Channel layout : L R C LFE Ls Rs
Частота : 48,0 КГц
Частота кадров : 31,250 кадров/сек (1536 SPF)
Метод сжатия : С потерями
Размер потока : 509 Мбайт (5%)
Заголовок : MVO (Cinema Prestige)
Язык : Russian
Service kind : Complete Main
Default : Да
Forced : Нет

Аудио #2
Идентификатор : 3
Формат : AC-3
Формат/Информация : Audio Coding 3
Коммерческое название : Dolby Digital
Идентификатор кодека : A_AC3
Продолжительность : 1 ч. 51 м.
Вид битрейта : Постоянный
Битрейт : 640 Кбит/сек
Каналы : 2 канала
Channel layout : L R
Частота : 48,0 КГц
Частота кадров : 31,250 кадров/сек (1536 SPF)
Метод сжатия : С потерями
Размер потока : 509 Мбайт (5%)
Заголовок : DVO (Кинокомпания Екатеринбург Арт Home Video)
Язык : Russian
Service kind : Complete Main
Default : Нет
Forced : Нет

Аудио #3
Идентификатор : 4
Формат : AC-3
Формат/Информация : Audio Coding 3
Коммерческое название : Dolby Digital
Идентификатор кодека : A_AC3
Продолжительность : 1 ч. 51 м.
Вид битрейта : Постоянный
Битрейт : 640 Кбит/сек
Каналы : 6 каналов
Channel layout : L R C LFE Ls Rs
Частота : 48,0 КГц
Частота кадров : 31,250 кадров/сек (1536 SPF)
Метод сжатия : С потерями
Размер потока : 509 Мбайт (5%)
Заголовок : AVO (Андрей Гаврилов)
Язык : Russian
Service kind : Complete Main
Default : Нет
Forced : Нет

Аудио #4
Идентификатор : 5
Формат : AC-3
Формат/Информация : Audio Coding 3
Коммерческое название : Dolby Digital
Идентификатор кодека : A_AC3
Продолжительность : 1 ч. 51 м.
Вид битрейта : Постоянный
Битрейт : 640 Кбит/сек
Каналы : 6 каналов
Channel layout : L R C LFE Ls Rs
Частота : 48,0 КГц
Частота кадров : 31,250 кадров/сек (1536 SPF)
Метод сжатия : С потерями
Размер потока : 509 Мбайт (5%)
Заголовок : AVO (Леонид Володарский)
Язык : Russian
Service kind : Complete Main
Default : Нет
Forced : Нет

Аудио #5
Идентификатор : 6
Формат : AC-3
Формат/Информация : Audio Coding 3
Коммерческое название : Dolby Digital
Идентификатор кодека : A_AC3
Продолжительность : 1 ч. 51 м.
Вид битрейта : Постоянный
Битрейт : 640 Кбит/сек
Каналы : 6 каналов
Channel layout : L R C LFE Ls Rs
Частота : 48,0 КГц
Частота кадров : 31,250 кадров/сек (1536 SPF)
Метод сжатия : С потерями
Размер потока : 509 Мбайт (5%)
Заголовок : AVO (Юрий Живов)
Язык : Russian
Service kind : Complete Main
Default : Нет
Forced : Нет

Аудио #6
Идентификатор : 7
Формат : AC-3
Формат/Информация : Audio Coding 3
Коммерческое название : Dolby Digital
Идентификатор кодека : A_AC3
Продолжительность : 1 ч. 51 м.
Вид битрейта : Постоянный
Битрейт : 192 Кбит/сек
Каналы : 2 канала
Channel layout : L R
Частота : 48,0 КГц
Частота кадров : 31,250 кадров/сек (1536 SPF)
Метод сжатия : С потерями
Размер потока : 153 Мбайт (1%)
Заголовок : AVO (Андрей Дольский)
Язык : Russian
Service kind : Complete Main
Default : Нет
Forced : Нет

Аудио #7
Идентификатор : 8
Формат : AC-3
Формат/Информация : Audio Coding 3
Коммерческое название : Dolby Digital
Идентификатор кодека : A_AC3
Продолжительность : 1 ч. 51 м.
Вид битрейта : Постоянный
Битрейт : 640 Кбит/сек
Каналы : 6 каналов
Channel layout : L R C LFE Ls Rs
Частота : 48,0 КГц
Частота кадров : 31,250 кадров/сек (1536 SPF)
Метод сжатия : С потерями
Размер потока : 509 Мбайт (5%)
Заголовок : VO (Евгений Гаевский)
Язык : Russian
Service kind : Complete Main
Default : Нет
Forced : Нет

Аудио #8
Идентификатор : 9
Формат : AC-3
Формат/Информация : Audio Coding 3
Коммерческое название : Dolby Digital
Идентификатор кодека : A_AC3
Продолжительность : 1 ч. 51 м.
Вид битрейта : Постоянный
Битрейт : 192 Кбит/сек
Каналы : 2 канала
Channel layout : L R
Частота : 48,0 КГц
Частота кадров : 31,250 кадров/сек (1536 SPF)
Метод сжатия : С потерями
Размер потока : 153 Мбайт (1%)
Заголовок : MVO (НТН)
Язык : Ukrainian
Service kind : Complete Main
Default : Нет
Forced : Нет

Аудио #9
Идентификатор : 10
Формат : AC-3
Формат/Информация : Audio Coding 3
Коммерческое название : Dolby Digital
Идентификатор кодека : A_AC3
Продолжительность : 1 ч. 51 м.
Вид битрейта : Постоянный
Битрейт : 640 Кбит/сек
Каналы : 6 каналов
Channel layout : L R C LFE Ls Rs
Частота : 48,0 КГц
Частота кадров : 31,250 кадров/сек (1536 SPF)
Метод сжатия : С потерями
Размер потока : 509 Мбайт (5%)
Заголовок : Cantonese
Язык : Chinese
Service kind : Complete Main
Default : Нет
Forced : Нет

Текст #1
Идентификатор : 11
Формат : UTF-8
Идентификатор кодека : S_TEXT/UTF8
Идентификатор кодека/Информация : UTF-8 Plain Text
Продолжительность : 1 ч. 46 м.
Битрейт : 2 бит/сек
Частота кадров : 0,006 кадр/сек
Count of elements : 39
Размер потока : 2,04 Кбайт (0%)
Заголовок : forced_by_Переводман
Язык : Russian
Default : Да
Forced : Нет

Текст #2
Идентификатор : 12
Формат : UTF-8
Идентификатор кодека : S_TEXT/UTF8
Идентификатор кодека/Информация : UTF-8 Plain Text
Продолжительность : 1 ч. 48 м.
Битрейт : 57 бит/сек
Частота кадров : 0,144 кадр/сек
Count of elements : 940
Размер потока : 45,9 Кбайт (0%)
Заголовок : full_by_Переводман
Язык : Russian
Default : Нет
Forced : Нет

Текст #3
Идентификатор : 13
Формат : UTF-8
Идентификатор кодека : S_TEXT/UTF8
Идентификатор кодека/Информация : UTF-8 Plain Text
Продолжительность : 1 ч. 48 м.
Битрейт : 45 бит/сек
Частота кадров : 0,110 кадр/сек
Count of elements : 715
Размер потока : 36,5 Кбайт (0%)
Заголовок : full_by_Cinema Prestige
Язык : Russian
Default : Нет
Forced : Нет

Текст #4
Идентификатор : 14
Формат : UTF-8
Идентификатор кодека : S_TEXT/UTF8
Идентификатор кодека/Информация : UTF-8 Plain Text
Продолжительность : 1 ч. 49 м.
Битрейт : 56 бит/сек
Частота кадров : 0,144 кадр/сек
Count of elements : 942
Размер потока : 45,5 Кбайт (0%)
Заголовок : full_blu-ray_by Al.Tche
Язык : Russian
Default : Нет
Forced : Нет

Текст #5
Идентификатор : 15
Формат : UTF-8
Идентификатор кодека : S_TEXT/UTF8
Идентификатор кодека/Информация : UTF-8 Plain Text
Продолжительность : 1 ч. 46 м.
Битрейт : 31 бит/сек
Частота кадров : 0,147 кадр/сек
Count of elements : 944
Размер потока : 24,8 Кбайт (0%)
Заголовок : full_by_Netflix
Язык : English
Default : Нет
Forced : Нет

Текст #6
Идентификатор : 16
Формат : UTF-8
Идентификатор кодека : S_TEXT/UTF8
Идентификатор кодека/Информация : UTF-8 Plain Text
Продолжительность : 1 ч. 46 м.
Битрейт : 28 бит/сек
Частота кадров : 0,143 кадр/сек
Count of elements : 917
Размер потока : 22,6 Кбайт (0%)
Заголовок : full_by_Criterion
Язык : English
Default : Нет
Forced : Нет

Меню
00:00:00.000 : en:Logos/Opening titles
00:02:27.814 : en:Meeting in the church
00:03:46.893 : en:Desolation and solitude
00:07:36.414 : en:Diagnosis
00:08:21.918 : en:Six months later
00:13:11.416 : en:Going undercover
00:16:36.495 : en:Instinct
00:18:18.556 : en:Warning
00:19:22.286 : en:"This is my last hatchet job"
00:22:59.628 : en:The Dragon Boat Festival
00:24:15.913 : en:Assassination and pursuit
00:29:32.646 : en:The beach
00:33:48.985 : en:Standoff at the hospital
00:36:47.664 : en:Police sketch
00:37:59.777 : en:"I want my money now"
00:39:11.516 : en:A contract on the Killer
00:41:15.223 : en:Inspector Li meets Jenny
00:42:37.096 : en:"I always save the last bullet"
00:48:14.892 : en:Two Killers
00:50:19.350 : en:By the sea
00:51:38.345 : en:Butt-head and Numbnuts
00:56:31.680 : en:Jenny learns the truth
00:58:31.174 : en:Parking garage
01:00:58.738 : en:Reconciliation
01:04:06.426 : en:Airport ambush
01:08:26.644 : en:Interrogation
01:09:40.218 : en:Off the case
01:11:20.318 : en:Chang's pursuit
01:14:32.218 : en:Sidney's mission
01:15:34.280 : en:"You can't win all the time"
01:16:54.360 : en:Horizon Drive No. 6
01:20:40.044 : en:Ambush at the house
01:23:36.970 : en:Two gunslingers
01:26:05.452 : en:Refuge at the church
01:27:31.955 : en:A sense of honor
01:32:52.358 : en:Last tribute
01:35:59.963 : en:The gift of friendship
01:43:26.283 : en:The final standoff
01:45:53.764 : en:Blind spot
01:48:16.448 : en:An unusual Killer
01:49:39.031 : en:End credits
Загрузка...Cкриншот1 Наёмный убийца / The Killer / Dip huet seung hung (1989) [HKR Restored] BDRip 1080p [HEVC] 10 bit от OldGamer (RG RIPS CLUB)Загрузка...Cкриншот2 Наёмный убийца / The Killer / Dip huet seung hung (1989) [HKR Restored] BDRip 1080p [HEVC] 10 bit от OldGamer (RG RIPS CLUB)Загрузка...Cкриншот3 Наёмный убийца / The Killer / Dip huet seung hung (1989) [HKR Restored] BDRip 1080p [HEVC] 10 bit от OldGamer (RG RIPS CLUB)Загрузка...Cкриншот4 Наёмный убийца / The Killer / Dip huet seung hung (1989) [HKR Restored] BDRip 1080p [HEVC] 10 bit от OldGamer (RG RIPS CLUB)
Релиз-группа: RIPS CLUB
Сэмпл Торрент🧲 Магнет

Рейтинги КП и IMDB, кнопки "Позвать в чате" и "Спасибо", а также мультитрекерная статистика доступны только зарегистрированным/авторизованным пользователям!

Файлы: 1
  • Наёмный.убийца.The.Killer.Dip.huet.seung.hung.1989.HKR.Restored.BDRip-HEVC.1080p.mkv   10.35 ГБ
Поблагодарили: 8
Brooklyn, Chestnoc, ilyich05, Kiran, normalllhuman, Nuclear70, Redman, Горо
OldGamer
21481110.35 ГБ

Добавление нового комментария

Добавление комментариев доступно только зарегистрированным/авторизованным пользователям.
Аватар OldGamer
  OldGamer  
Chestnoc писал(а):
Спасибо за Рип. А трилогия "A Better Tomorrow" не планируется?
Во всяком случае в этом году нет.
Аватар не указан
  Chestnoc  
Спасибо за Рип. А трилогия "A Better Tomorrow" не планируется?