Чат

⚫︎
Список изменений сайта - https://rips.club/changelog.html (обновлен 24.05.2024)
  • arwis
  • justmkr
  • ko1ob
  • tool9
Онлайн (за 10 мин.): 4
  • Tastod: Раздайте, пожалуйста, Загадочная история Бенджамина Баттона / The Curious Case of Benjamin Button (2008) BDRip 1080p [HEVC] 10 bit от Spartanec1308
  • Гл. Админ: Исправил баг, когда после анонса коллекции все анонсы показывались в спойлере, даже если не являлись коллекцией.
  • Гл. Админ: Исправил баг, когда в ЛС не возможно было удалить сообщение.
  • bronsonw200: Гл. Админ, Как по мне, так смотрится приятнее.
  • Гл. Админ: В светлой теме задний фон сделал чуть потемнее, чтобы было не слишком ярко. В темной теме поисковую строку сделал черной (как в светлой теме), чтобы выделялась. Убрал рамки вокруг элементов форм. Прокрутку страницы в начало сделал плавной. ( отредактировано: )
  • Гл. Админ: В ближайшие дни по вечерам начну подправлять дизайн.
  • Гл. Админ: Готово.
  • Гл. Админ: Управление релизами закончил, но не буду выкладывать на ночь глядя. Утром протестирую на локальном компе, и днем выложу.
  • Гл. Админ: Фон баннера релиз-группы сделал прозрачным и перезалил на внешнем хостинге.
  • OldGamer: было бы неплохо
  • Гл. Админ: Управление релизами наверно сегодня закончу.
  • HANNIBAL: Сообщение удалено (удалил: HANNIBAL)
  • HANNIBAL: Гл. Админ, не привычно
  • Гл. Админ: HANNIBAL, хорошего или плохого?
  • HANNIBAL: эт чей-то вы тут натворили с сайтом ;)
  • Гл. Админ: ExoticDeer, просто в будущем будет несколько новостных строчек и они будут автоматически переключаться по кругу, поэтому не хочется статичную. Могу ещё уменьшить частоту, если всё равно будет отвлекать. ( отредактировано: )
  • Гл. Админ: ExoticDeer, уменьшил частоту мигания с 5 сек. до 10 сек.
  • ExoticDeer: Гл. Админ, про мигание, скорее отвлекает, особенно на тёмной теме. статичная хорошо смотрелась
  • Гл. Админ: Winsent, Исправил. Теперь, при просмотре комментариев конкретного пользователя, эта галочка не играет роли. Спасибо, что сообщили.
  • Гл. Админ: Winsent, сначала не поверил своим глазам. Это было оооочень странно. Но кажется теперь понял в чем проблема. Ошибка появляется, если в настройках не установлена галочка "Получать уведомления о всех комментариях". Причем у разных пользователей проявляется по разному - у кого-то ничего не показывается, а у кого-то показывается часть комментариев. Поэтому мне долго не удавалось воспроизвести ошибку. Сейчас исправлю.
Отправка сообщений доступна только зарегистрированным/авторизованным пользователям.

🎥︎📺︎Остаться в живых / Lost (2006) [3 сезон] BDRip 1080p [HEVC] 10 bit от OldGamer (RG RIPS CLUB)


Обложка Остаться в живых / Lost (2006) [3 сезон] BDRip 1080p [HEVC] 10 bit от OldGamer (RG RIPS CLUB)
HEVC
10 bit
✂︎Сэмпл⤓︎Торрент🧲︎Магнет$Пожертвования

При перезаливке на другие сайты просьба указать автора и релиз-группу.


Год: 2006
Страна: США
Студия: ABC Studios, Bad Robot, Grass Skirt Productions, Touchstone Television
Жанр: Фантастика, Детектив, Фэнтези, Триллер
Длительность: 16:31:20

Режиссер: Джек Бендер, Стивен Уильямс, Пол А. Эдвардс
В ролях: Мэттью Фокс, Эванджелин Лилли, Джош Холлоуэй, Терри О’Куинн, Навин Эндрюс, Хорхе Гарсиа, Майкл Эмерсон, Эмили де Рэвин, Ким Юн-джин, Дэниэл Дэ Ким

Описание: Красавец-лайнер, совершающий полёт из Сиднея в Лос-Анджелес, неожиданно терпит крушение. 48 пассажиров оказываются на пустынном острове посреди океана. Люди в панике. Надежда быть найденными довольно призрачна. Поэтому остаётся только одно: собраться с силами и постараться выжить на острове, начинённом множеством опасностей...


Релиз-группа: RIPS CLUB
Исходник: Blu-Ray Remux 1080p (rutracker)
Видео: 1920x1080 (16:9), 8173 Кбит/сек - 15.4 Мбит/сек, HEVC (Main10@L.4.1@High)
Аудио1: AC3, 2 ch, 320 Kbps - РусскийРусский, DUB (Первый канал)
Аудио2: AC3, 6 ch, 640 Kbps - РусскийРусский, MVO (LostFilm / Студия «Кравец»)
Аудио3: AC3, 6 ch, 448 Kbps - АнглийскийАнглийский
Субтитры: русские (full, forced), английские

Как за несколько секунд удалить ненужные аудиодорожки и субтитры (Внимание! После удаления вы не сможете поддержать раздачу)


Лог (x265 info)x265 [info]: frame I: 266, Avg QP:18.71 kb/s: 25495.35
x265 [info]: frame P: 12210, Avg QP:19.76 kb/s: 20687.48
x265 [info]: frame B: 48699, Avg QP:21.97 kb/s: 9178.38
x265 [info]: Weighted P-Frames: Y:7.0% UV:5.9%
x265 [info]: Weighted B-Frames: Y:7.9% UV:6.3%
x265 [info]: encoded 61175 frames in 56849.64s (1.08 fps), 11546.45 kb/s, Avg QP:21.51
МедиаинфоОбщее
Уникальный идентификатор : 208533382242598883188083713340413783860 (0x9CE2118AF4839BB1BB7CAF4BA3A32F34)
Полное имя : \\.\Lost.S03E14.Exposure.mkv
Формат : Matroska
Версия формата : Version 4
Размер файла : 3,85 Гбайт
Продолжительность : 42 м. 31 с.
Общий поток : 13,0 Мбит/сек
Частота кадров : 23,976 кадра/сек
Дата кодирования : 2023-08-18 16:41:39 UTC
Программа кодирования : mkvmerge v78.0 ('Running') 64-bit
Библиотека кодирования : libebml v1.4.4 + libmatroska v1.7.1

Видео
Идентификатор : 1
Формат : HEVC
Формат/Информация : High Efficiency Video Coding
Профиль формата : Main 10@L4.1@High
Идентификатор кодека : V_MPEGH/ISO/HEVC
Продолжительность : 42 м. 31 с.
Битрейт : 11,5 Мбит/сек
Ширина : 1 920 пикселей
Высота : 1 080 пикселей
Соотношение сторон : 16:9
Режим частоты кадров : Постоянный
Частота кадров : 23,976 (24000/1001) кадра/сек
Цветовое пространство : YUV
Субдискретизация насыщенности : 4:2:0
Битовая глубина : 10 бит
Бит/(Пиксели*Кадры) : 0.232
Размер потока : 3,43 Гбайт (89%)
Заголовок : Lost S03E14 / Rip by OldGamer
Библиотека кодирования : x265 3.5+102-34532bda1:[Windows][GCC 13.1.0][64 bit] 10bit
Настройки программы : cpuid=1111039 / frame-threads=4 / numa-pools=16 / wpp / no-pmode / no-pme / no-psnr / no-ssim / log-level=2 / input-csp=1 / input-res=1920x1080 / interlace=0 / total-frames=61175 / level-idc=41 / high-tier=1 / uhd-bd=0 / ref=5 / no-allow-non-conformance / no-repeat-headers / annexb / no-aud / no-eob / no-eos / no-hrd / info / hash=0 / temporal-layers=0 / open-gop / min-keyint=23 / keyint=240 / gop-lookahead=0 / bframes=16 / b-adapt=2 / b-pyramid / bframe-bias=0 / rc-lookahead=40 / lookahead-slices=0 / scenecut=40 / no-hist-scenecut / radl=0 / no-splice / no-intra-refresh / ctu=32 / min-cu-size=8 / rect / amp / max-tu-size=32 / tu-inter-depth=4 / tu-intra-depth=4 / limit-tu=1 / rdoq-level=2 / dynamic-rd=0.00 / no-ssim-rd / signhide / no-tskip / nr-intra=0 / nr-inter=0 / no-constrained-intra / no-strong-intra-smoothing / max-merge=5 / limit-refs=3 / no-limit-modes / me=3 / subme=7 / merange=57 / temporal-mvp / no-frame-dup / no-hme / weightp / weightb / no-analyze-src-pics / deblock=-2:-2 / no-sao / no-sao-non-deblock / rd=6 / selective-sao=0 / no-early-skip / no-rskip / no-fast-intra / no-tskip-fast / no-cu-lossless / b-intra / no-splitrd-skip / rdpenalty=0 / psy-rd=2.00 / psy-rdoq=1.00 / no-rd-refine / no-lossless / cbqpoffs=0 / crqpoffs=0 / rc=crf / crf=20.0 / qcomp=0.60 / qpstep=4 / stats-write=0 / stats-read=0 / vbv-maxrate=50000 / vbv-bufsize=50000 / vbv-init=0.9 / min-vbv-fullness=50.0 / max-vbv-fullness=80.0 / crf-max=0.0 / crf-min=0.0 / ipratio=1.40 / pbratio=1.30 / aq-mode=1 / aq-strength=1.00 / no-cutree / zone-count=1 / zones: / start-frame=59383 / end-frame=61175 / qp=36 / no-strict-cbr / qg-size=32 / no-rc-grain / qpmax=69 / qpmin=0 / no-const-vbv / sar=1 / overscan=0 / videoformat=5 / range=0 / colorprim=2 / transfer=2 / colormatrix=2 / chromaloc=0 / display-window=0 / cll=0,0 / min-luma=0 / max-luma=1023 / log2-max-poc-lsb=8 / vui-timing-info / vui-hrd-info / slices=1 / no-opt-qp-pps / no-opt-ref-list-length-pps / no-multi-pass-opt-rps / scenecut-bias=0.00 / no-opt-cu-delta-qp / no-aq-motion / no-hdr10 / no-hdr10-opt / no-dhdr10-opt / no-idr-recovery-sei / analysis-reuse-level=0 / analysis-save-reuse-level=0 / analysis-load-reuse-level=0 / scale-factor=0 / refine-intra=0 / refine-inter=0 / refine-mv=1 / refine-ctu-distortion=0 / no-limit-sao / ctu-info=0 / no-lowpass-dct / refine-analysis-type=0 / copy-pic=1 / max-ausize-factor=1.0 / no-dynamic-refine / no-single-sei / no-hevc-aq / no-svt / no-field / qp-adaptation-range=1.00 / scenecut-aware-qp=0conformance-window-offsets / right=0 / bottom=0 / decoder-max-rate=0 / no-vbv-live-multi-pass / no-mcstf / no-sbrc
Язык : English
Default : Да
Forced : Нет

Аудио #1
Идентификатор : 2
Формат : AC-3
Формат/Информация : Audio Coding 3
Коммерческое название : Dolby Digital
Настройки формата : Dolby Surround
Идентификатор кодека : A_AC3
Продолжительность : 42 м. 31 с.
Вид битрейта : Постоянный
Битрейт : 320 Кбит/сек
Каналы : 2 канала
Channel layout : L R
Частота : 48,0 КГц
Частота кадров : 31,250 кадров/сек (1536 SPF)
Метод сжатия : С потерями
Размер потока : 97,3 Мбайт (2%)
Заголовок : DUB (Первый канал)
Язык : Russian
Service kind : Complete Main
Default : Да
Forced : Нет

Аудио #2
Идентификатор : 3
Формат : AC-3
Формат/Информация : Audio Coding 3
Коммерческое название : Dolby Digital
Идентификатор кодека : A_AC3
Продолжительность : 42 м. 31 с.
Вид битрейта : Постоянный
Битрейт : 640 Кбит/сек
Каналы : 6 каналов
Channel layout : L R C LFE Ls Rs
Частота : 48,0 КГц
Частота кадров : 31,250 кадров/сек (1536 SPF)
Метод сжатия : С потерями
Размер потока : 195 Мбайт (5%)
Заголовок : MVO (LostFilm / Студия «Кравец»)
Язык : Russian
Service kind : Complete Main
Default : Нет
Forced : Нет

Аудио #3
Идентификатор : 4
Формат : AC-3
Формат/Информация : Audio Coding 3
Коммерческое название : Dolby Digital
Идентификатор кодека : A_AC3
Продолжительность : 42 м. 31 с.
Вид битрейта : Постоянный
Битрейт : 448 Кбит/сек
Каналы : 6 каналов
Channel layout : L R C LFE Ls Rs
Частота : 48,0 КГц
Частота кадров : 31,250 кадров/сек (1536 SPF)
Метод сжатия : С потерями
Размер потока : 136 Мбайт (3%)
Язык : English
Service kind : Complete Main
Default : Нет
Forced : Нет

Текст #1
Идентификатор : 5
Формат : SSA
Идентификатор кодека : S_TEXT/SSA
Идентификатор кодека/Информация : Sub Station Alpha
Продолжительность : 32 м. 23 с.
Битрейт : 2 бит/сек
Частота кадров : 0,005 кадр/сек
Count of elements : 9
Метод сжатия : Без потерь
Размер потока : 628 байт (0%)
Заголовок : Russian @ forced ASS
Язык : Russian
Default : Да
Forced : Нет

Текст #2
Идентификатор : 6
Формат : UTF-8
Идентификатор кодека : S_TEXT/UTF8
Идентификатор кодека/Информация : UTF-8 Plain Text
Продолжительность : 40 м. 16 с.
Битрейт : 88 бит/сек
Частота кадров : 0,231 кадр/сек
Count of elements : 559
Размер потока : 26,2 Кбайт (0%)
Заголовок : Russian @ SRT
Язык : Russian
Default : Нет
Forced : Нет

Текст #3
Идентификатор : 7
Формат : UTF-8
Идентификатор кодека : S_TEXT/UTF8
Идентификатор кодека/Информация : UTF-8 Plain Text
Продолжительность : 40 м. 16 с.
Битрейт : 60 бит/сек
Частота кадров : 0,206 кадр/сек
Count of elements : 499
Размер потока : 17,7 Кбайт (0%)
Заголовок : English @ SRT
Язык : English
Default : Нет
Forced : Нет
Загрузка...Cкриншот1 Остаться в живых / Lost (2006) [3 сезон] BDRip 1080p [HEVC] 10 bit от OldGamer (RG RIPS CLUB)Загрузка...Cкриншот2 Остаться в живых / Lost (2006) [3 сезон] BDRip 1080p [HEVC] 10 bit от OldGamer (RG RIPS CLUB)Загрузка...Cкриншот3 Остаться в живых / Lost (2006) [3 сезон] BDRip 1080p [HEVC] 10 bit от OldGamer (RG RIPS CLUB)Загрузка...Cкриншот4 Остаться в живых / Lost (2006) [3 сезон] BDRip 1080p [HEVC] 10 bit от OldGamer (RG RIPS CLUB)
Поблагодарили: 5A1eksandr1, AlexTs69, FFantasy, natali, Tony
Файлы: 23
  • Lost.S03.BDRip-HEVC.1080p
    • 3.63 ГБLost.S03E01.A.Tale.of.Two.Cities.mkv
    • 3.72 ГБLost.S03E02.The.Glass.Ballerina.mkv
    • 4.96 ГБLost.S03E03.Further.Instructions.mkv
    • 4.1 ГБLost.S03E04.Every.Man.for.Himself.mkv
    • 3.38 ГБLost.S03E05.The.Cost.of.Living.mkv
    • 4.04 ГБLost.S03E06.I.Do.mkv
    • 3.87 ГБLost.S03E07.Not.in.Portland.mkv
    • 3.47 ГБLost.S03E08.Flashes.Before.Your.Eyes.mkv
    • 4.09 ГБLost.S03E09.Stranger.in.a.Strange.Land.mkv
    • 4.15 ГБLost.S03E10.Tricia.Tanaka.Is.Dead.mkv
    • 4.08 ГБLost.S03E11.Enter.77.mkv
    • 4.44 ГБLost.S03E12.Par.Avion.mkv
    • 2.9 ГБLost.S03E13.The.Man.from.Tallahassee.mkv
    • 3.85 ГБLost.S03E14.Exposure.mkv
    • 4.01 ГБLost.S03E15.Left.Behind.mkv
    • 3.63 ГБLost.S03E16.One.of.Us.mkv
    • 4.44 ГБLost.S03E17.Catch-22.mkv
    • 3.72 ГБLost.S03E18.D.O.C..mkv
    • 3.33 ГБLost.S03E19.The.Brig.mkv
    • 4.23 ГБLost.S03E20.The.Man.Behind.the.Curtain.mkv
    • 4.63 ГБLost.S03E21.Greatest.Hits.mkv
    • 3.95 ГБLost.S03E22.Through.the.Looking.Glass.Part.1.mkv
    • 4.19 ГБLost.S03E23.Through.the.Looking.Glass.Part.2.mkv

Рейтинги КП и IMDB, кнопки "Раздайте, пожалуйста" и "Спасибо", а также мультитрекерная статистика доступны только зарегистрированным/авторизованным пользователям!

OldGamer
25990(23) 90.8 ГБ

💬︎ Комментарии

Добавление комментариев доступно только зарегистрированным/авторизованным пользователям.