Чат

⚫︎
Список изменений сайта - https://rips.club/changelog.html (обновлен 24.05.2024)
  • arwis
  • ExoticDeer
  • kisa1980
Онлайн (за 10 мин.): 3
  • Tastod: Раздайте, пожалуйста, Загадочная история Бенджамина Баттона / The Curious Case of Benjamin Button (2008) BDRip 1080p [HEVC] 10 bit от Spartanec1308
  • Гл. Админ: Исправил баг, когда после анонса коллекции все анонсы показывались в спойлере, даже если не являлись коллекцией.
  • Гл. Админ: Исправил баг, когда в ЛС не возможно было удалить сообщение.
  • bronsonw200: Гл. Админ, Как по мне, так смотрится приятнее.
  • Гл. Админ: В светлой теме задний фон сделал чуть потемнее, чтобы было не слишком ярко. В темной теме поисковую строку сделал черной (как в светлой теме), чтобы выделялась. Убрал рамки вокруг элементов форм. Прокрутку страницы в начало сделал плавной. ( отредактировано: )
  • Гл. Админ: В ближайшие дни по вечерам начну подправлять дизайн.
  • Гл. Админ: Готово.
  • Гл. Админ: Управление релизами закончил, но не буду выкладывать на ночь глядя. Утром протестирую на локальном компе, и днем выложу.
  • Гл. Админ: Фон баннера релиз-группы сделал прозрачным и перезалил на внешнем хостинге.
  • OldGamer: было бы неплохо
  • Гл. Админ: Управление релизами наверно сегодня закончу.
  • HANNIBAL: Сообщение удалено (удалил: HANNIBAL)
  • HANNIBAL: Гл. Админ, не привычно
  • Гл. Админ: HANNIBAL, хорошего или плохого?
  • HANNIBAL: эт чей-то вы тут натворили с сайтом ;)
  • Гл. Админ: ExoticDeer, просто в будущем будет несколько новостных строчек и они будут автоматически переключаться по кругу, поэтому не хочется статичную. Могу ещё уменьшить частоту, если всё равно будет отвлекать. ( отредактировано: )
  • Гл. Админ: ExoticDeer, уменьшил частоту мигания с 5 сек. до 10 сек.
  • ExoticDeer: Гл. Админ, про мигание, скорее отвлекает, особенно на тёмной теме. статичная хорошо смотрелась
  • Гл. Админ: Winsent, Исправил. Теперь, при просмотре комментариев конкретного пользователя, эта галочка не играет роли. Спасибо, что сообщили.
  • Гл. Админ: Winsent, сначала не поверил своим глазам. Это было оооочень странно. Но кажется теперь понял в чем проблема. Ошибка появляется, если в настройках не установлена галочка "Получать уведомления о всех комментариях". Причем у разных пользователей проявляется по разному - у кого-то ничего не показывается, а у кого-то показывается часть комментариев. Поэтому мне долго не удавалось воспроизвести ошибку. Сейчас исправлю.
Отправка сообщений доступна только зарегистрированным/авторизованным пользователям.

🎥︎📺︎Остаться в живых / Lost (2010) [6 сезон] BDRip 1080p [HEVC] 10 bit от OldGamer (RG RIPS CLUB)


Обложка Остаться в живых / Lost (2010) [6 сезон] BDRip 1080p [HEVC] 10 bit от OldGamer (RG RIPS CLUB)
HEVC
10 bit
✂︎Сэмпл⤓︎Торрент🧲︎Магнет$Пожертвования

При перезаливке на другие сайты просьба указать автора и релиз-группу.


Год: 2010
Страна: США
Студия: ABC Studios, Bad Robot, Grass Skirt Productions, Touchstone Television
Жанр: Фантастика, Детектив, Фэнтези, Триллер
Длительность: 13:15:39

Режиссер: Джек Бендер, Стивен Уильямс, Пол А. Эдвардс
В ролях: Мэттью Фокс, Эванджелин Лилли, Джош Холлоуэй, Терри О’Куинн, Навин Эндрюс, Хорхе Гарсиа, Майкл Эмерсон, Эмили де Рэвин, Ким Юн-джин, Дэниэл Дэ Ким

Описание: Красавец-лайнер, совершающий полёт из Сиднея в Лос-Анджелес, неожиданно терпит крушение. 48 пассажиров оказываются на пустынном острове посреди океана. Люди в панике. Надежда быть найденными довольно призрачна. Поэтому остаётся только одно: собраться с силами и постараться выжить на острове, начинённом множеством опасностей...


Релиз-группа: RIPS CLUB
Исходник: Blu-Ray Remux 1080p (rutracker)
Видео: 1920x1080 (16:9), 5905 Кбит/сек - 16.9 Мбит/сек, HEVC (Main10@L.4.1@High)
Аудио1: AC3, 2 ch, 192 Kbps - РусскийРусский, DUB (Пифагор)
Аудио2: AC3, 6 ch, 448 Kbps - РусскийРусский, MVO (LostFilm / Студия «Кравец»)
Аудио3: AC3, 6 ch, 448 Kbps - АнглийскийАнглийский
Субтитры: русские (full, forced), английские (SDH)

Как за несколько секунд удалить ненужные аудиодорожки и субтитры (Внимание! После удаления вы не сможете поддержать раздачу)


Лог (x265 info)x265 [info]: frame I: 262, Avg QP:18.21 kb/s: 28538.14
x265 [info]: frame P: 11160, Avg QP:19.49 kb/s: 22654.46
x265 [info]: frame B: 49081, Avg QP:21.68 kb/s: 9805.45
x265 [info]: Weighted P-Frames: Y:13.2% UV:11.0%
x265 [info]: Weighted B-Frames: Y:13.2% UV:10.1%
x265 [info]: encoded 60503 frames in 56464.99s (1.07 fps), 12256.62 kb/s, Avg QP:21.26
МедиаинфоОбщее
Уникальный идентификатор : 17504005305846410255440441418208286671 (0xD2B2617876D7AEC4FBE822AE38897CF)
Полное имя : \\.\Lost.S06E06.Sundown.mkv
Формат : Matroska
Версия формата : Version 4
Размер файла : 3,92 Гбайт
Продолжительность : 42 м. 3 с.
Общий поток : 13,3 Мбит/сек
Частота кадров : 23,976 кадра/сек
Дата кодирования : 2023-09-17 08:30:31 UTC
Программа кодирования : mkvmerge v79.0 ('Funeral Pyres') 64-bit
Библиотека кодирования : libebml v1.4.4 + libmatroska v1.7.1

Видео
Идентификатор : 1
Формат : HEVC
Формат/Информация : High Efficiency Video Coding
Профиль формата : Main 10@L4.1@High
Идентификатор кодека : V_MPEGH/ISO/HEVC
Продолжительность : 42 м. 3 с.
Битрейт : 12,3 Мбит/сек
Ширина : 1 920 пикселей
Высота : 1 080 пикселей
Соотношение сторон : 16:9
Режим частоты кадров : Постоянный
Частота кадров : 23,976 (24000/1001) кадра/сек
Цветовое пространство : YUV
Субдискретизация насыщенности : 4:2:0
Битовая глубина : 10 бит
Бит/(Пиксели*Кадры) : 0.247
Размер потока : 3,60 Гбайт (92%)
Заголовок : Lost S06E06 / Rip by OldGamer
Библиотека кодирования : x265 3.5+102-34532bda1:[Windows][GCC 13.1.0][64 bit] 10bit
Настройки программы : cpuid=1111039 / frame-threads=4 / numa-pools=16 / wpp / no-pmode / no-pme / no-psnr / no-ssim / log-level=2 / input-csp=1 / input-res=1920x1080 / interlace=0 / total-frames=60503 / level-idc=41 / high-tier=1 / uhd-bd=0 / ref=5 / no-allow-non-conformance / no-repeat-headers / annexb / no-aud / no-eob / no-eos / no-hrd / info / hash=0 / temporal-layers=0 / open-gop / min-keyint=23 / keyint=240 / gop-lookahead=0 / bframes=16 / b-adapt=2 / b-pyramid / bframe-bias=0 / rc-lookahead=40 / lookahead-slices=0 / scenecut=40 / no-hist-scenecut / radl=0 / no-splice / no-intra-refresh / ctu=32 / min-cu-size=8 / rect / amp / max-tu-size=32 / tu-inter-depth=4 / tu-intra-depth=4 / limit-tu=1 / rdoq-level=2 / dynamic-rd=0.00 / no-ssim-rd / signhide / no-tskip / nr-intra=0 / nr-inter=0 / no-constrained-intra / no-strong-intra-smoothing / max-merge=5 / limit-refs=3 / no-limit-modes / me=3 / subme=7 / merange=57 / temporal-mvp / no-frame-dup / no-hme / weightp / weightb / no-analyze-src-pics / deblock=-2:-2 / no-sao / no-sao-non-deblock / rd=6 / selective-sao=0 / no-early-skip / no-rskip / no-fast-intra / no-tskip-fast / no-cu-lossless / b-intra / no-splitrd-skip / rdpenalty=0 / psy-rd=2.00 / psy-rdoq=1.00 / no-rd-refine / no-lossless / cbqpoffs=0 / crqpoffs=0 / rc=crf / crf=20.3 / qcomp=0.60 / qpstep=4 / stats-write=0 / stats-read=0 / vbv-maxrate=50000 / vbv-bufsize=50000 / vbv-init=0.9 / min-vbv-fullness=50.0 / max-vbv-fullness=80.0 / crf-max=0.0 / crf-min=0.0 / ipratio=1.40 / pbratio=1.30 / aq-mode=1 / aq-strength=1.00 / no-cutree / zone-count=1 / zones: / start-frame=59488 / end-frame=60503 / qp=36 / no-strict-cbr / qg-size=32 / no-rc-grain / qpmax=69 / qpmin=0 / no-const-vbv / sar=1 / overscan=0 / videoformat=5 / range=0 / colorprim=2 / transfer=2 / colormatrix=2 / chromaloc=0 / display-window=0 / cll=0,0 / min-luma=0 / max-luma=1023 / log2-max-poc-lsb=8 / vui-timing-info / vui-hrd-info / slices=1 / no-opt-qp-pps / no-opt-ref-list-length-pps / no-multi-pass-opt-rps / scenecut-bias=0.00 / no-opt-cu-delta-qp / no-aq-motion / no-hdr10 / no-hdr10-opt / no-dhdr10-opt / no-idr-recovery-sei / analysis-reuse-level=0 / analysis-save-reuse-level=0 / analysis-load-reuse-level=0 / scale-factor=0 / refine-intra=0 / refine-inter=0 / refine-mv=1 / refine-ctu-distortion=0 / no-limit-sao / ctu-info=0 / no-lowpass-dct / refine-analysis-type=0 / copy-pic=1 / max-ausize-factor=1.0 / no-dynamic-refine / no-single-sei / no-hevc-aq / no-svt / no-field / qp-adaptation-range=1.00 / scenecut-aware-qp=0conformance-window-offsets / right=0 / bottom=0 / decoder-max-rate=0 / no-vbv-live-multi-pass / no-mcstf / no-sbrc
Язык : English
Default : Да
Forced : Нет

Аудио #1
Идентификатор : 2
Формат : AC-3
Формат/Информация : Audio Coding 3
Коммерческое название : Dolby Digital
Идентификатор кодека : A_AC3
Продолжительность : 42 м. 3 с.
Вид битрейта : Постоянный
Битрейт : 192 Кбит/сек
Каналы : 2 канала
Channel layout : L R
Частота : 48,0 КГц
Частота кадров : 31,250 кадров/сек (1536 SPF)
Метод сжатия : С потерями
Размер потока : 57,7 Мбайт (1%)
Заголовок : DUB (Пифагор)
Язык : Russian
Service kind : Complete Main
Default : Да
Forced : Нет

Аудио #2
Идентификатор : 3
Формат : AC-3
Формат/Информация : Audio Coding 3
Коммерческое название : Dolby Digital
Идентификатор кодека : A_AC3
Продолжительность : 42 м. 3 с.
Вид битрейта : Постоянный
Битрейт : 448 Кбит/сек
Каналы : 6 каналов
Channel layout : L R C LFE Ls Rs
Частота : 48,0 КГц
Частота кадров : 31,250 кадров/сек (1536 SPF)
Метод сжатия : С потерями
Размер потока : 135 Мбайт (3%)
Заголовок : MVO (LostFilm / Студия «Кравец»)
Язык : Russian
Service kind : Complete Main
Default : Нет
Forced : Нет

Аудио #3
Идентификатор : 4
Формат : AC-3
Формат/Информация : Audio Coding 3
Коммерческое название : Dolby Digital
Идентификатор кодека : A_AC3
Продолжительность : 42 м. 3 с.
Вид битрейта : Постоянный
Битрейт : 448 Кбит/сек
Каналы : 6 каналов
Channel layout : L R C LFE Ls Rs
Частота : 48,0 КГц
Частота кадров : 31,250 кадров/сек (1536 SPF)
Метод сжатия : С потерями
Размер потока : 135 Мбайт (3%)
Язык : English
Service kind : Complete Main
Default : Нет
Forced : Нет

Текст #1
Идентификатор : 5
Формат : ASS
Идентификатор кодека : S_TEXT/ASS
Идентификатор кодека/Информация : Advanced Sub Station Alpha
Продолжительность : 15 м. 52 с.
Битрейт : 3 бит/сек
Частота кадров : 0,004 кадр/сек
Count of elements : 4
Метод сжатия : Без потерь
Размер потока : 395 байт (0%)
Заголовок : Russian @ forced ASS
Язык : Russian
Default : Да
Forced : Нет

Текст #2
Идентификатор : 6
Формат : ASS
Идентификатор кодека : S_TEXT/ASS
Идентификатор кодека/Информация : Advanced Sub Station Alpha
Продолжительность : 39 м. 22 с.
Битрейт : 115 бит/сек
Частота кадров : 0,172 кадр/сек
Count of elements : 406
Метод сжатия : Без потерь
Размер потока : 33,4 Кбайт (0%)
Заголовок : Russian @ ASS
Язык : Russian
Default : Нет
Forced : Нет

Текст #3
Идентификатор : 7
Формат : UTF-8
Идентификатор кодека : S_TEXT/UTF8
Идентификатор кодека/Информация : UTF-8 Plain Text
Продолжительность : 39 м. 22 с.
Битрейт : 72 бит/сек
Частота кадров : 0,170 кадр/сек
Count of elements : 402
Размер потока : 21,0 Кбайт (0%)
Заголовок : Russian @ SRT
Язык : Russian
Default : Нет
Forced : Нет

Текст #4
Идентификатор : 8
Формат : ASS
Идентификатор кодека : S_TEXT/ASS
Идентификатор кодека/Информация : Advanced Sub Station Alpha
Продолжительность : 39 м. 22 с.
Битрейт : 88 бит/сек
Частота кадров : 0,169 кадр/сек
Count of elements : 399
Метод сжатия : Без потерь
Размер потока : 25,5 Кбайт (0%)
Заголовок : English @ ASS
Язык : English
Default : Нет
Forced : Нет

Текст #5
Идентификатор : 9
Формат : UTF-8
Идентификатор кодека : S_TEXT/UTF8
Идентификатор кодека/Информация : UTF-8 Plain Text
Продолжительность : 39 м. 22 с.
Битрейт : 46 бит/сек
Частота кадров : 0,169 кадр/сек
Count of elements : 399
Размер потока : 13,5 Кбайт (0%)
Заголовок : English @ SRT
Язык : English
Default : Нет
Forced : Нет

Меню
00:00:00.000 : en:Chapter 1
00:07:56.267 : en:Chapter 2
00:14:06.095 : en:Chapter 3
00:18:46.625 : en:Chapter 4
00:26:06.356 : en:Chapter 5
00:31:45.028 : en:Chapter 6
00:41:25.232 : en:Chapter 7
00:42:03.270 : en:Chapter 8
Загрузка...Cкриншот1 Остаться в живых / Lost (2010) [6 сезон] BDRip 1080p [HEVC] 10 bit от OldGamer (RG RIPS CLUB)Загрузка...Cкриншот2 Остаться в живых / Lost (2010) [6 сезон] BDRip 1080p [HEVC] 10 bit от OldGamer (RG RIPS CLUB)Загрузка...Cкриншот3 Остаться в живых / Lost (2010) [6 сезон] BDRip 1080p [HEVC] 10 bit от OldGamer (RG RIPS CLUB)Загрузка...Cкриншот4 Остаться в живых / Lost (2010) [6 сезон] BDRip 1080p [HEVC] 10 bit от OldGamer (RG RIPS CLUB)
Поблагодарили: 4A1eksandr1, AlexTs69, Brooklyn, FFantasy
Файлы: 16
  • Lost.S06.BDRip-HEVC.1080p
    • 7.32 ГБLost.S06E01-02.LA.X.mkv
    • 2.97 ГБLost.S06E03.What.Kate.Does.mkv
    • 4.3 ГБLost.S06E04.The.Substitute.mkv
    • 3.91 ГБLost.S06E05.Lighthouse.mkv
    • 3.92 ГБLost.S06E06.Sundown.mkv
    • 4.3 ГБLost.S06E07.Dr.Linus.mkv
    • 2.11 ГБLost.S06E08.Recon.mkv
    • 4.85 ГБLost.S06E09.Ab.Aeterno.mkv
    • 3.95 ГБLost.S06E10.The.Package.mkv
    • 4.14 ГБLost.S06E11.Happily.Ever.After.mkv
    • 4.29 ГБLost.S06E12.Everybody.Loves.Hugo.mkv
    • 4.45 ГБLost.S06E13.The.Last.Recruit.mkv
    • 5.41 ГБLost.S06E14.The.Candidate.mkv
    • 5.08 ГБLost.S06E15.Across.the.Sea.mkv
    • 3.96 ГБLost.S06E16.What.They.Died.For.mkv
    • 10.87 ГБLost.S06E17-18.The.End.mkv

Рейтинги КП и IMDB, кнопки "Раздайте, пожалуйста" и "Спасибо", а также мультитрекерная статистика доступны только зарегистрированным/авторизованным пользователям!

OldGamer
21800(16) 75.82 ГБ

💬︎ Комментарии

Добавление комментариев доступно только зарегистрированным/авторизованным пользователям.