Чат

⚫︎
Список изменений сайта - https://rips.club/changelog.html (обновлен 24.05.2024)
  • Winsent
  • Странник
Онлайн (за 10 мин.): 2
  • Antilord90: Может кто переделает "Секс по дружбе" телики не воспроизводят!
  • Гл. Админ: Niflung, раздаю
  • VIS: Раздайте, пожалуйста, Большое путешествие / The Wild (2006) BDRip 1080p [HEVC] 10 bit от Мичман
  • Niflung: Раздайте, пожалуйста, Тихое место: Дилогия / A Quiet Place: Dilogy (2018-2020) UHD-BDRip 1080p [HEVC] 10 bit [HDR] от Mr. Fox
  • Antilord90: Сообщение удалено (удалил: Antilord90)
  • Niflung: Гл. Админ, Ладно, буду качать 10 bit версию)
  • Гл. Админ: Niflung, у меня только 10-битная версия
  • HANNIBAL: Гл. Админ, все норм раздача идет
  • Niflung: Раздайте, пожалуйста, Берегись автомобиля (1966) [Цветная версия] BDRip 1080p [HEVC] 8 bit от ADVOKAT69
  • Гл. Админ: HANNIBAL, Я удалил раздачу, которую заливал я. А другую заливал ты, и она была как на руторе. Теперь не понятно на что ты перезалил (в чем разница по сравнению с предыдущей, т.е. руторовской), потому что сидов нет. По моему ты не исправил, а сломал ) ( отредактировано: )
  • Гл. Админ: OldGamer, вообще задумка была сделать цветовую дифференциацию как в фильме Кин-дза-дза!, но поскольку желтый ник лучше подходит для випов, то немного не получилось.
  • Гл. Админ: HANNIBAL, их 2. Что там нужно исправлять?
  • Гл. Админ: HANNIBAL, Я думаю в добавок к зеленой могут появиться и другие цвета. ( отредактировано: )
  • HANNIBAL: Гл. Админ, и исправь раздачу Голая правда
  • HANNIBAL: Гл. Админ, не пора убрать с посторов эту зеленую надпись )))
  • HANNIBAL: Сообщение удалено (удалил: HANNIBAL)
  • Гл. Админ: HANNIBAL, админов теперь 2 ( отредактировано: )
  • HANNIBAL: админ привет
  • Antilord90: Раздайте, пожалуйста, Мальчикам это нравится / The House Bunny (2008) BDRip 1080p [HEVC] 10 bit от -Star-Lord- (RG RIPS CLUB)
  • Гл. Админ: Продлил доменное имя (адрес сайта) на год. Что-то он подорожал (24 евро вместо прежних 12). Ещё раз спасибо всем, кто поддерживает финансово. ( отредактировано: )
Отправка сообщений доступна только зарегистрированным/авторизованным пользователям.

🎥︎Аватар: Путь воды / Avatar: The Way of Water (2022) BDRip 1080p [HEVC] 10 bit от Spartanec


Обложка Аватар: Путь воды / Avatar: The Way of Water (2022) BDRip 1080p [HEVC] 10 bit от Spartanec
HEVC
10 bit
✂︎Сэмпл⤓︎Торрент🧲︎Магнет$Пожертвования
Год: 2022
Страна: США
Студия: 20th Century Studios, Lightstorm Entertainment, TSG Entertainment
Жанр: Фантастика, Фэнтези, Боевик, Приключения
Длительность: 03:12:38

Режиссер: Джеймс Кэмерон
В ролях: Сэм Уортингтон, Зои Салдана, Сигурни Уивер, Стивен Лэнг, Кейт Уинслет, Клифф Кёртис, Джоэль Мур, Си Си Эйч Паундер, Иди Фалько, Брендан Коуэлл

Описание: После принятия образа аватара солдат Джейк Салли становится предводителем народа на'ви и берет на себя миссию по защите новых друзей от корыстных бизнесменов с Земли. Теперь ему есть за кого бороться — с Джейком его прекрасная возлюбленная Нейтири. Когда на Пандору возвращаются до зубов вооруженные земляне, Джейк готов дать им отпор.


Видео: 1920x 1040 , 12,0 Мбит/сек, 0.250 бит/(Пиксели*Кадры), 23,976 кадр/сек, HEVC (Main10@L.4.1@High) 10 бит
Аудио1: AC3, 6 ch, 448 Kbps - РусскийРусский, Дублированный (Лицензия)
Аудио2: AC3, 6 ch, 640 Kbps - АнглийскийАнглийский, Оригинал
Субтитры: Русские (форсированные,полные), английские

Как за несколько секунд удалить ненужные аудиодорожки и субтитры (Внимание! После удаления вы не сможете поддержать раздачу)


Лог (x265 info)x265 [info]: frame I: 2981, Avg QP:17.52 kb/s: 35595.26
x265 [info]: frame P: 72077, Avg QP:19.20 kb/s: 21526.09
x265 [info]: frame B: 202046, Avg QP:21.38 kb/s: 8192.35
x265 [info]: Weighted P-Frames: Y:3.0% UV:2.6%
x265 [info]: Weighted B-Frames: Y:3.0% UV:2.3%

encoded 277104 frames in 344360.61s (0.80 fps), 11955.36 kb/s, Avg QP:20.78
МедиаинфоФормат : Matroska
Версия формата : Version 4
Размер файла : 17,6 Гбайт
Продолжительность : 3 ч. 12 м.
Общий поток : 13,0 Мбит/сек
Название фильма : by Spartanec
Дата кодирования : UTC 2023-10-03 18:03:43
Программа кодирования : mkvmerge v7.0.0 ('Where We Going') 64bit built on Jun 9 2014 15:16:27
Библиотека кодирования : libebml v1.3.0 + libmatroska v1.4.1
Обложка : Yes
Attachments : cover.jpg

Видео
Идентификатор : 1
Формат : HEVC
Формат/Информация : High Efficiency Video Coding
Профиль формата : Main 10@L4.1@High
Идентификатор кодека : V_MPEGH/ISO/HEVC
Продолжительность : 3 ч. 12 м.
Битрейт : 12,0 Мбит/сек
Ширина : 1 920 пикселей
Высота : 1 040 пикселей
Соотношение сторон : 1,85:1
Режим частоты кадров : Постоянный
Частота кадров : 23,976 (23976/1000) кадра/сек
Частота кадров в оригинале : 23,976 (24000/1001) кадра/сек
Цветовое пространство : YUV
Субдискретизация насыщенности : 4:2:0
Битовая глубина : 10 бит
Бит/(Пиксели*Кадры) : 0.250
Размер потока : 16,1 Гбайт (92%)
Заголовок : Spartanec
Библиотека кодирования : x265 3.5+105-59ff5e7b4:[Windows][GCC 13.2.0][64 bit] 10bit
Настройки программы : cpuid=1111039 / frame-threads=4 / numa-pools=24 / wpp / no-pmode / no-pme / no-psnr / no-ssim / log-level=2 / input-csp=1 / input-res=1920x1040 / interlace=0 / total-frames=277104 / level-idc=41 / high-tier=1 / uhd-bd=0 / ref=5 / no-allow-non-conformance / no-repeat-headers / annexb / no-aud / no-eob / no-eos / no-hrd / info / hash=0 / temporal-layers=0 / open-gop / min-keyint=23 / keyint=240 / gop-lookahead=0 / bframes=16 / b-adapt=2 / b-pyramid / bframe-bias=0 / rc-lookahead=60 / lookahead-slices=1 / scenecut=40 / no-hist-scenecut / radl=0 / no-splice / no-intra-refresh / ctu=32 / min-cu-size=8 / rect / amp / max-tu-size=32 / tu-inter-depth=4 / tu-intra-depth=4 / limit-tu=1 / rdoq-level=1 / dynamic-rd=0.00 / no-ssim-rd / signhide / no-tskip / nr-intra=0 / nr-inter=0 / no-constrained-intra / no-strong-intra-smoothing / max-merge=5 / limit-refs=0 / no-limit-modes / me=3 / subme=7 / merange=57 / temporal-mvp / no-frame-dup / no-hme / weightp / weightb / no-analyze-src-pics / deblock=-2:-2 / no-sao / no-sao-non-deblock / rd=6 / selective-sao=0 / no-early-skip / no-rskip / no-fast-intra / no-tskip-fast / no-cu-lossless / b-intra / no-splitrd-skip / rdpenalty=0 / psy-rd=2.00 / psy-rdoq=1.00 / no-rd-refine / no-lossless / cbqpoffs=0 / crqpoffs=0 / rc=crf / crf=19.3 / qcomp=0.70 / qpstep=4 / stats-write=0 / stats-read=0 / vbv-maxrate=50000 / vbv-bufsize=50000 / vbv-init=0.9 / min-vbv-fullness=50.0 / max-vbv-fullness=80.0 / crf-max=0.0 / crf-min=0.0 / ipratio=1.40 / pbratio=1.30 / aq-mode=2 / aq-strength=1.00 / no-cutree / zone-count=0 / no-strict-cbr / qg-size=32 / no-rc-grain / qpmax=69 / qpmin=0 / no-const-vbv / sar=1 / overscan=0 / videoformat=5 / range=0 / colorprim=1 / transfer=1 / colormatrix=1 / chromaloc=0 / display-window=0 / cll=0,0 / min-luma=0 / max-luma=1023 / log2-max-poc-lsb=8 / vui-timing-info / vui-hrd-info / slices=1 / no-opt-qp-pps / no-opt-ref-list-length-pps / no-multi-pass-opt-rps / scenecut-bias=0.05 / no-opt-cu-delta-qp / no-aq-motion / no-hdr10 / no-hdr10-opt / no-dhdr10-opt / no-idr-recovery-sei / analysis-reuse-level=0 / analysis-save-reuse-level=0 / analysis-load-reuse-level=0 / scale-factor=0 / refine-intra=0 / refine-inter=0 / refine-mv=0 / refine-ctu-distortion=0 / no-limit-sao / ctu-info=0 / no-lowpass-dct / refine-analysis-type=0 / copy-pic=1 / max-ausize-factor=1.0 / no-dynamic-refine / no-single-sei / no-hevc-aq / no-svt / no-field / qp-adaptation-range=1.00 / scenecut-aware-qp=0conformance-window-offsets / right=0 / bottom=0 / decoder-max-rate=0 / no-vbv-live-multi-pass / no-mcstf / no-sbrc
Язык : English
Default : Да
Forced : Нет
Цветовой диапазон : Limited
Основные цвета : BT.709
Характеристики трансфера : BT.709
Коэффициенты матрицы : BT.709

Аудио #1
Идентификатор : 2
Формат : AC-3
Формат/Информация : Audio Coding 3
Коммерческое название : Dolby Digital
Идентификатор кодека : A_AC3
Продолжительность : 3 ч. 12 м.
Вид битрейта : Постоянный
Битрейт : 448 Кбит/сек
Каналы : 6 каналов
Channel layout : L R C LFE Ls Rs
Частота : 48,0 КГц
Частота кадров : 31,250 кадров/сек (1536 SPF)
Метод сжатия : С потерями
Размер потока : 617 Мбайт (3%)
Заголовок : Дубляж
Язык : Russian
Service kind : Complete Main
Default : Нет
Forced : Да

Аудио #2
Идентификатор : 3
Формат : AC-3
Формат/Информация : Audio Coding 3
Коммерческое название : Dolby Digital
Идентификатор кодека : A_AC3
Продолжительность : 3 ч. 12 м.
Вид битрейта : Постоянный
Битрейт : 640 Кбит/сек
Каналы : 6 каналов
Channel layout : L R C LFE Ls Rs
Частота : 48,0 КГц
Частота кадров : 31,250 кадров/сек (1536 SPF)
Метод сжатия : С потерями
Размер потока : 882 Мбайт (5%)
Заголовок : Оригинал
Язык : English
Service kind : Complete Main
Default : Нет
Forced : Нет

Текст #1
Идентификатор : 4
Формат : UTF-8
Идентификатор кодека : S_TEXT/UTF8
Идентификатор кодека/Информация : UTF-8 Plain Text
Продолжительность : 3 ч. 0 м.
Битрейт : 1 бит/сек
Частота кадров : 0,005 кадр/сек
Count of elements : 57
Размер потока : 1,98 Кбайт (0%)
Заголовок : Русские Forced
Язык : Russian
Default : Да
Forced : Да

Текст #2
Идентификатор : 5
Формат : UTF-8
Идентификатор кодека : S_TEXT/UTF8
Идентификатор кодека/Информация : UTF-8 Plain Text
Продолжительность : 3 ч. 1 м.
Битрейт : 65 бит/сек
Частота кадров : 0,217 кадр/сек
Count of elements : 2372
Размер потока : 86,6 Кбайт (0%)
Заголовок : Русские Full
Язык : Russian
Default : Нет
Forced : Нет

Текст #3
Идентификатор : 6
Формат : UTF-8
Идентификатор кодека : S_TEXT/UTF8
Идентификатор кодека/Информация : UTF-8 Plain Text
Продолжительность : 3 ч. 1 м.
Битрейт : 38 бит/сек
Частота кадров : 0,216 кадр/сек
Count of elements : 2359
Размер потока : 51,6 Кбайт (0%)
Заголовок : Английские Full
Язык : English
Default : Нет
Forced : Нет

Меню
00:00:00.000 : :Chapter 01
00:05:21.238 : :Chapter 02
00:05:57.524 : :Chapter 03
00:08:54.033 : :Chapter 04
00:12:28.122 : :Chapter 05
00:15:39.856 : :Chapter 06
00:16:35.494 : :Chapter 07
00:18:43.372 : :Chapter 08
00:19:58.781 : :Chapter 09
00:22:28.639 : :Chapter 10
00:25:33.991 : :Chapter 11
00:26:35.469 : :Chapter 12
00:28:27.497 : :Chapter 13
00:31:46.905 : :Chapter 14
00:35:24.289 : :Chapter 15
00:42:25.668 : :Chapter 16
00:42:52.361 : :Chapter 17
00:44:45.016 : :Chapter 18
00:45:54.960 : :Chapter 19
00:48:13.015 : :Chapter 20
00:49:55.200 : :Chapter 21
00:56:43.108 : :Chapter 22
00:57:49.841 : :Chapter 23
01:01:04.077 : :Chapter 24
01:02:38.087 : :Chapter 25
01:06:58.181 : :Chapter 26
01:09:24.785 : :Chapter 27
01:11:24.196 : :Chapter 28
01:15:15.177 : :Chapter 29
01:17:41.782 : :Chapter 30
01:21:00.397 : :Chapter 31
01:24:47.082 : :Chapter 32
01:26:34.272 : :Chapter 33
01:29:09.677 : :Chapter 34
01:32:01.182 : :Chapter 35
01:33:37.195 : :Chapter 36
01:35:30.516 : :Chapter 37
01:37:38.185 : :Chapter 38
01:38:32.406 : :Chapter 39
01:40:24.602 : :Chapter 40
01:43:09.683 : :Chapter 41
01:46:07.569 : :Chapter 42
01:48:19.534 : :Chapter 43
01:51:13.458 : :Chapter 44
01:53:04.944 : :Chapter 45
01:54:25.108 : :Chapter 46
02:00:53.871 : :Chapter 47
02:03:17.223 : :Chapter 48
02:04:43.851 : :Chapter 49
02:07:00.821 : :Chapter 50
02:08:30.411 : :Chapter 51
02:12:31.860 : :Chapter 52
02:15:53.020 : :Chapter 53
02:17:32.702 : :Chapter 54
02:19:52.634 : :Chapter 55
02:21:20.388 : :Chapter 56
02:24:44.092 : :Chapter 57
02:26:19.062 : :Chapter 58
02:28:09.714 : :Chapter 59
02:28:46.250 : :Chapter 60
02:30:31.814 : :Chapter 61
02:31:44.178 : :Chapter 62
02:32:36.480 : :Chapter 63
02:36:52.152 : :Chapter 64
02:41:30.180 : :Chapter 65
02:44:04.209 : :Chapter 66
02:44:28.608 : :Chapter 67
02:47:14.274 : :Chapter 68
02:48:20.340 : :Chapter 69
02:52:01.978 : :Chapter 70
02:55:21.552 : :Chapter 71
02:58:32.076 : :Chapter 72
03:00:30.861 : :Chapter 73
03:01:08.691 : :Chapter 74
03:03:22.283 : :Chapter 75
Загрузка...Cкриншот1 Аватар: Путь воды / Avatar: The Way of Water (2022) BDRip 1080p [HEVC] 10 bit от SpartanecЗагрузка...Cкриншот2 Аватар: Путь воды / Avatar: The Way of Water (2022) BDRip 1080p [HEVC] 10 bit от SpartanecЗагрузка...Cкриншот3 Аватар: Путь воды / Avatar: The Way of Water (2022) BDRip 1080p [HEVC] 10 bit от SpartanecЗагрузка...Cкриншот4 Аватар: Путь воды / Avatar: The Way of Water (2022) BDRip 1080p [HEVC] 10 bit от Spartanec
Поблагодарили: 18AlexMSK, AlexsBond, AnDaRiK, AndresUA, Brooklyn, cdmitry, D16T, Dimon4ik86, ExoticDeer, FFantasy, IRIT, Maksimus_2024, MIGRANT, Rexfire, Targetwar, vint000, Горо, Мичман
Файлы: 1
  • Аватар. Путь воды (2022) BDRip 1080p [HEVC] 10bit by Spartanec.mkv

Рейтинги КП и IMDB, кнопки "Раздайте, пожалуйста" и "Спасибо", а также мультитрекерная статистика доступны только зарегистрированным/авторизованным пользователям!

Spartanec
1050241017.55 ГБ

💬︎ Комментарии

Добавление комментариев доступно только зарегистрированным/авторизованным пользователям.