💬 Мини-чат

Для тех, кому интересен процесс переделки сайта - https://rips.club/changelog.html (обновлен 22.02.2024)
OldGamerz1M4p9i0, и этот релиз скачался
Adminatomicheart, встал, но у Вас в профиле не видно. Вам бы перекачать.
OldGamerz1M4p9i0, Хан Соло скачался, но релиз, который был на руторе, там аудиодорожек меньше, чем тут, а видеоряд тот же. Попробуйте оттуда, я пока что сидирую.
OldGamerХан Соло откуда-то по чайной ложке в час скачивается, за сутки 50%, наблюдаем-с дальше
Adminatomicheart, завтра посмотрю, он у меня должен быть.
atomicheartРаздайте, пожалуйста, Тихое место: Дилогия / A Quiet Place: Dilogy (2018-2020) UHD-BDRip 1080p [HEVC] 10 bit [HDR] от Mr. Fox
z1M4p9i0Раздайте, пожалуйста, Хан Соло: Звёздные войны. Истории / Solo: A Star Wars Story (2018) [Локализованная версия] BDRip 1080p [HEVC] 10 bit от Cthulhu
z1M4p9i0Раздайте, пожалуйста, Терминатор: Тёмные судьбы / Terminator: Dark Fate (2019) [iTunes] UHD-BDRip 1440p [HEVC] 10 bit от HANNIBAL
OldGamerKeynol, честно говоря, пока что не планировалось, так как у нас есть отличный рип этого фильма
KeynolПриветствую! А можно сделать HEVC 10 bit на Трон Наследие Hybrid ? там файл на 31 гиг :-( на рутрекере. Хороший, но очень массивный..
  • 375509
  • Alex302
  • ilyich05
  • InSpector
Отправка сообщений доступна только зарегистрированным/авторизованным пользователям.
Онлайн (за 10 мин.): 4

Шершни / Yellowjackets (2023) [2 сезон] BDRip 1080p [HEVC] 10 bit от OldGamer (RG RIPS CLUB)

HEVC
10 bit
Обложка Шершни / Yellowjackets (2023) [2 сезон] BDRip 1080p [HEVC] 10 bit от OldGamer (RG RIPS CLUB) Год: 2023
Страна: США
Студия: Aurum Producciones S.A., Creative Engine Entertainment
Жанр: Ужасы, Триллер, Драма
Продолжительность: 08:41:17

Режиссер: Эва Сёрхёуг, Дэйзи фон Шерлер Майер, Карин Кусама
В ролях: Мелани Лински, Тони Сайпресс, Софи Нелисс, Джасмин Савой Браун, Софи Тэтчер, Сэмми Ханратти, Стивен Крюгер, Уоррен Коул, Кортни Итон, Лив Хьюсон

Описание: В 1996 году женская футбольная команда средней школы Нью-Джерси едет в Сиэтл на национальный турнир. Во время полёта над Канадой их самолёт терпит крушение глубоко в лесу, и оставшимся членам команды приходится выживать в течение девятнадцати месяцев. Сериал рассказывает об их попытках выжить, а также отслеживает их текущую жизнь в 2021 году.


Исходник: Blu-Ray Remux 1080p (SiCFoI)
Видео: 1920x804, ~4592 Kbps
Аудио1: AC3, 6 ch, 448 Kbps - РусскийРусский, MVO (HDrezka Studio)
Аудио2: AC3, 6 ch, 448 Kbps - РусскийРусский, MVO (HDrezka Studio, ненормативная лексика)
Аудио3: AC3, 2 ch, 384 Kbps - РусскийРусский, MVO (LostFilm)
Аудио4: AC3, 2 ch, 192 Kbps - РусскийРусский, MVO (TVShow)
Аудио5: AC3, 6 ch, 640 Kbps - АнглийскийАнглийский
Субтитры: русские (full, forced), английские (SDH)

Как за пару секунд удалить ненужные аудиодорожки и субтитры (Внимание! После удаления вы не сможете поддержать раздачу)

Лог (x265 info)
x265 [info]: frame I: 347, Avg QP:17.91 kb/s: 16947.66
x265 [info]: frame P: 11019, Avg QP:19.18 kb/s: 11665.53
x265 [info]: frame B: 70833, Avg QP:21.50 kb/s: 3429.71
x265 [info]: Weighted P-Frames: Y:6.7% UV:5.6%
x265 [info]: Weighted B-Frames: Y:4.8% UV:3.8%
x265 [info]: encoded 82199 frames in 61072.92s (1.35 fps), 4590.81 kb/s, Avg QP:21.18
Медиаинфо
Общее
Уникальный идентификатор : 84345818799232400450443471222898752697 (0x3F7469EF835BBBF3E876415EDCC4FCB9)
Полное имя : \\.\Yellowjackets.S02.BDRip-HEVC.1080p\Yellowjackets.S02E03.Digestif.mkv
Формат : Matroska
Версия формата : Version 4
Размер файла : 2,68 Гбайт
Продолжительность : 57 м. 8 с.
Общий поток : 6 706 Кбит/сек
Частота кадров : 23,976 кадра/сек
Дата кодирования : 2023-12-04 15:39:15 UTC
Программа кодирования : mkvmerge v81.0 ('Milliontown') 64-bit
Библиотека кодирования : libebml v1.4.4 + libmatroska v1.7.1

Видео
Идентификатор : 1
Формат : HEVC
Формат/Информация : High Efficiency Video Coding
Профиль формата : Main 10@L4.1@High
Идентификатор кодека : V_MPEGH/ISO/HEVC
Продолжительность : 57 м. 8 с.
Битрейт : 4 592 Кбит/сек
Ширина : 1 920 пикселей
Высота : 804 пикселя
Соотношение сторон : 2,39:1
Режим частоты кадров : Постоянный
Частота кадров : 23,976 (24000/1001) кадра/сек
Цветовое пространство : YUV
Субдискретизация насыщенности : 4:2:0
Битовая глубина : 10 бит
Бит/(Пиксели*Кадры) : 0.124
Размер потока : 1,83 Гбайт (68%)
Заголовок : Yellowjackets S02E03 / Rip by OldGamer
Библиотека кодирования : x265 3.5+110-8ee01d45b:[Windows][GCC 13.2.0][64 bit] 10bit
Настройки программы : cpuid=1111039 / frame-threads=3 / numa-pools=8 / wpp / no-pmode / no-pme / no-psnr / no-ssim / log-level=2 / input-csp=1 / input-res=1920x804 / interlace=0 / total-frames=82199 / level-idc=41 / high-tier=1 / uhd-bd=0 / ref=5 / no-allow-non-conformance / no-repeat-headers / annexb / no-aud / no-eob / no-eos / no-hrd / info / hash=0 / temporal-layers=0 / open-gop / min-keyint=23 / keyint=240 / gop-lookahead=0 / bframes=16 / b-adapt=2 / b-pyramid / bframe-bias=0 / rc-lookahead=40 / lookahead-slices=0 / scenecut=40 / no-hist-scenecut / radl=0 / no-splice / no-intra-refresh / ctu=32 / min-cu-size=8 / rect / amp / max-tu-size=32 / tu-inter-depth=4 / tu-intra-depth=4 / limit-tu=1 / rdoq-level=2 / dynamic-rd=0.00 / no-ssim-rd / signhide / no-tskip / nr-intra=0 / nr-inter=0 / no-constrained-intra / no-strong-intra-smoothing / max-merge=5 / limit-refs=3 / no-limit-modes / me=3 / subme=7 / merange=57 / temporal-mvp / no-frame-dup / no-hme / weightp / weightb / no-analyze-src-pics / deblock=-2:-2 / no-sao / no-sao-non-deblock / rd=6 / selective-sao=0 / no-early-skip / no-rskip / no-fast-intra / no-tskip-fast / no-cu-lossless / b-intra / no-splitrd-skip / rdpenalty=0 / psy-rd=2.00 / psy-rdoq=1.00 / no-rd-refine / no-lossless / cbqpoffs=0 / crqpoffs=0 / rc=crf / crf=21.0 / qcomp=0.60 / qpstep=4 / stats-write=0 / stats-read=0 / vbv-maxrate=50000 / vbv-bufsize=50000 / vbv-init=0.9 / min-vbv-fullness=50.0 / max-vbv-fullness=80.0 / crf-max=0.0 / crf-min=0.0 / ipratio=1.40 / pbratio=1.30 / aq-mode=1 / aq-strength=1.00 / no-cutree / zone-count=1 / zones: / start-frame=80888 / end-frame=82199 / qp=36 / no-strict-cbr / qg-size=32 / no-rc-grain / qpmax=69 / qpmin=0 / no-const-vbv / sar=1 / overscan=0 / videoformat=5 / range=0 / colorprim=2 / transfer=2 / colormatrix=2 / chromaloc=0 / display-window=0 / cll=0,0 / min-luma=0 / max-luma=1023 / log2-max-poc-lsb=8 / vui-timing-info / vui-hrd-info / slices=1 / no-opt-qp-pps / no-opt-ref-list-length-pps / no-multi-pass-opt-rps / scenecut-bias=0.00 / no-opt-cu-delta-qp / no-aq-motion / no-hdr10 / no-hdr10-opt / no-dhdr10-opt / no-idr-recovery-sei / analysis-reuse-level=0 / analysis-save-reuse-level=0 / analysis-load-reuse-level=0 / scale-factor=0 / refine-intra=0 / refine-inter=0 / refine-mv=1 / refine-ctu-distortion=0 / no-limit-sao / ctu-info=0 / no-lowpass-dct / refine-analysis-type=0 / copy-pic=1 / max-ausize-factor=1.0 / no-dynamic-refine / no-single-sei / no-hevc-aq / no-svt / no-field / qp-adaptation-range=1.00 / scenecut-aware-qp=0conformance-window-offsets / right=0 / bottom=0 / decoder-max-rate=0 / no-vbv-live-multi-pass / no-mcstf / no-sbrc
Язык : English
Default : Да
Forced : Нет

Аудио #1
Идентификатор : 2
Формат : AC-3
Формат/Информация : Audio Coding 3
Коммерческое название : Dolby Digital
Идентификатор кодека : A_AC3
Продолжительность : 57 м. 5 с.
Вид битрейта : Постоянный
Битрейт : 448 Кбит/сек
Каналы : 6 каналов
Channel layout : L R C LFE Ls Rs
Частота : 48,0 КГц
Частота кадров : 31,250 кадров/сек (1536 SPF)
Метод сжатия : С потерями
Размер потока : 183 Мбайт (7%)
Заголовок : MVO (HDRezka Studio)
Язык : Russian
Service kind : Complete Main
Default : Да
Forced : Нет

Аудио #2
Идентификатор : 3
Формат : AC-3
Формат/Информация : Audio Coding 3
Коммерческое название : Dolby Digital
Идентификатор кодека : A_AC3
Продолжительность : 57 м. 5 с.
Вид битрейта : Постоянный
Битрейт : 448 Кбит/сек
Каналы : 6 каналов
Channel layout : L R C LFE Ls Rs
Частота : 48,0 КГц
Частота кадров : 31,250 кадров/сек (1536 SPF)
Метод сжатия : С потерями
Размер потока : 183 Мбайт (7%)
Заголовок : MVO (HDRezka Studio, ненормативная лексика)
Язык : Russian
Service kind : Complete Main
Default : Нет
Forced : Нет

Аудио #3
Идентификатор : 4
Формат : AC-3
Формат/Информация : Audio Coding 3
Коммерческое название : Dolby Digital
Идентификатор кодека : A_AC3
Продолжительность : 57 м. 4 с.
Вид битрейта : Постоянный
Битрейт : 384 Кбит/сек
Каналы : 2 канала
Channel layout : L R
Частота : 48,0 КГц
Частота кадров : 31,250 кадров/сек (1536 SPF)
Метод сжатия : С потерями
Размер потока : 157 Мбайт (6%)
Заголовок : MVO (LostFilm)
Язык : Russian
Service kind : Complete Main
Default : Нет
Forced : Нет

Аудио #4
Идентификатор : 5
Формат : AC-3
Формат/Информация : Audio Coding 3
Коммерческое название : Dolby Digital
Идентификатор кодека : A_AC3
Продолжительность : 57 м. 5 с.
Вид битрейта : Постоянный
Битрейт : 192 Кбит/сек
Каналы : 2 канала
Channel layout : L R
Частота : 48,0 КГц
Частота кадров : 31,250 кадров/сек (1536 SPF)
Метод сжатия : С потерями
Размер потока : 78,4 Мбайт (3%)
Заголовок : MVO (TVShows)
Язык : Russian
Service kind : Complete Main
Default : Нет
Forced : Нет

Аудио #5
Идентификатор : 6
ID in the original source medium : 4352 (0x1100)
Формат : AC-3
Формат/Информация : Audio Coding 3
Коммерческое название : Dolby Digital
Идентификатор кодека : A_AC3
Продолжительность : 57 м. 8 с.
Вид битрейта : Постоянный
Битрейт : 640 Кбит/сек
Каналы : 6 каналов
Channel layout : L R C LFE Ls Rs
Частота : 48,0 КГц
Частота кадров : 31,250 кадров/сек (1536 SPF)
Метод сжатия : С потерями
Размер потока : 262 Мбайт (10%)
Язык : English
Service kind : Complete Main
Default : Да
Forced : Нет
Носитель оригинала : Blu-ray

Текст #1
Идентификатор : 7
Формат : UTF-8
Идентификатор кодека : S_TEXT/UTF8
Идентификатор кодека/Информация : UTF-8 Plain Text
Продолжительность : 55 м. 53 с.
Битрейт : 1 бит/сек
Частота кадров : 0,003 кадр/сек
Count of elements : 9
Размер потока : 467 байт (0%)
Заголовок : Russian @ forced SRT
Язык : Russian
Default : Да
Forced : Нет

Текст #2
Идентификатор : 8
Формат : UTF-8
Идентификатор кодека : S_TEXT/UTF8
Идентификатор кодека/Информация : UTF-8 Plain Text
Продолжительность : 56 м. 45 с.
Битрейт : 82 бит/сек
Частота кадров : 0,202 кадр/сек
Count of elements : 687
Размер потока : 34,2 Кбайт (0%)
Заголовок : Russian @ SRT
Язык : Russian
Default : Нет
Forced : Нет

Текст #3
Идентификатор : 9
Формат : UTF-8
Идентификатор кодека : S_TEXT/UTF8
Идентификатор кодека/Информация : UTF-8 Plain Text
Продолжительность : 56 м. 15 с.
Битрейт : 73 бит/сек
Частота кадров : 0,281 кадр/сек
Count of elements : 949
Размер потока : 30,3 Кбайт (0%)
Заголовок : English @ SRT
Язык : English
Default : Нет
Forced : Нет

Текст #4
Идентификатор : 10
Формат : UTF-8
Идентификатор кодека : S_TEXT/UTF8
Идентификатор кодека/Информация : UTF-8 Plain Text
Продолжительность : 56 м. 15 с.
Битрейт : 80 бит/сек
Частота кадров : 0,308 кадр/сек
Count of elements : 1038
Размер потока : 33,1 Кбайт (0%)
Заголовок : English @ SRT SDH
Язык : English
Default : Нет
Forced : Нет

Меню
00:00:00.000 : en:Chapter 01
00:10:00.600 : en:Chapter 02
00:20:01.200 : en:Chapter 03
00:30:02.217 : en:Chapter 04
00:40:02.400 : en:Chapter 05
00:50:03.000 : en:Chapter 06
00:56:16.373 : en:Chapter 07
Загрузка...Cкриншот1 Шершни / Yellowjackets (2023) [2 сезон] BDRip 1080p [HEVC] 10 bit от OldGamer (RG RIPS CLUB)Загрузка...Cкриншот2 Шершни / Yellowjackets (2023) [2 сезон] BDRip 1080p [HEVC] 10 bit от OldGamer (RG RIPS CLUB)Загрузка...Cкриншот3 Шершни / Yellowjackets (2023) [2 сезон] BDRip 1080p [HEVC] 10 bit от OldGamer (RG RIPS CLUB)Загрузка...Cкриншот4 Шершни / Yellowjackets (2023) [2 сезон] BDRip 1080p [HEVC] 10 bit от OldGamer (RG RIPS CLUB)
Релиз-группа: RIPS CLUB
Сэмпл Торрент🧲 Магнет

Рейтинги КП и IMDB, кнопки "Позвать в чате" и "Спасибо", а также мультитрекерная статистика доступны только зарегистрированным/авторизованным пользователям!

Файлы: 9
  • Yellowjackets.S02.BDRip-HEVC.1080p
    • Yellowjackets.S02E01.Friends.Romans.Countrymen.mkv   2.62 ГБ
    • Yellowjackets.S02E02.Edible.Complex.mkv   2.62 ГБ
    • Yellowjackets.S02E03.Digestif.mkv   2.68 ГБ
    • Yellowjackets.S02E04.Old.Wounds.mkv   2.61 ГБ
    • Yellowjackets.S02E05.Two.Truths.and.a.Lie.mkv   2.58 ГБ
    • Yellowjackets.S02E06.Qui.mkv   2.32 ГБ
    • Yellowjackets.S02E07.Burial.mkv   2.54 ГБ
    • Yellowjackets.S02E08.It.Chooses.mkv   2.17 ГБ
    • Yellowjackets.S02E09.Storytelling.mkv   2.75 ГБ
Поблагодарили: 2
HANNIBAL, Kilop77
OldGamer
05231 (9)  22.89 ГБ

Добавление нового комментария

Добавление комментариев доступно только зарегистрированным/авторизованным пользователям.