💬 Мини-чат

Для тех, кому интересен процесс переделки сайта - https://rips.club/changelog.html (обновлен 22.02.2024)
OldGamerz1M4p9i0, и этот релиз скачался
Adminatomicheart, встал, но у Вас в профиле не видно. Вам бы перекачать.
OldGamerz1M4p9i0, Хан Соло скачался, но релиз, который был на руторе, там аудиодорожек меньше, чем тут, а видеоряд тот же. Попробуйте оттуда, я пока что сидирую.
OldGamerХан Соло откуда-то по чайной ложке в час скачивается, за сутки 50%, наблюдаем-с дальше
Adminatomicheart, завтра посмотрю, он у меня должен быть.
atomicheartРаздайте, пожалуйста, Тихое место: Дилогия / A Quiet Place: Dilogy (2018-2020) UHD-BDRip 1080p [HEVC] 10 bit [HDR] от Mr. Fox
z1M4p9i0Раздайте, пожалуйста, Хан Соло: Звёздные войны. Истории / Solo: A Star Wars Story (2018) [Локализованная версия] BDRip 1080p [HEVC] 10 bit от Cthulhu
z1M4p9i0Раздайте, пожалуйста, Терминатор: Тёмные судьбы / Terminator: Dark Fate (2019) [iTunes] UHD-BDRip 1440p [HEVC] 10 bit от HANNIBAL
OldGamerKeynol, честно говоря, пока что не планировалось, так как у нас есть отличный рип этого фильма
KeynolПриветствую! А можно сделать HEVC 10 bit на Трон Наследие Hybrid ? там файл на 31 гиг :-( на рутрекере. Хороший, но очень массивный..
  • OldGamer
  • and50
  • bronsonw200
  • InSpector
  • natali
  • Тренер по Йоге
Отправка сообщений доступна только зарегистрированным/авторизованным пользователям.
Онлайн (за 10 мин.): 6

Клёвый парень / Bowfinger (1999) BDRip 1080p [HEVC] 10 bit от OldGamer (RG RIPS CLUB)

HEVC
10 bit
Обложка Клёвый парень / Bowfinger (1999) BDRip 1080p [HEVC] 10 bit от OldGamer (RG RIPS CLUB) Год: 1999
Страна: США
Студия: Imagine Entertainment, Universal Pictures
Жанр: Комедия
Продолжительность: 01:36:49

Режиссер: Фрэнк Оз
В ролях: Стив Мартин, Эдди Мерфи, Хизер Грэм, Кристин Барански, Джейми Кеннеди, Барри Ньюман, Адам Алекси-Маль, Кол Саддаф, Теренс Стэмп, Роберт Дауни мл.

Описание: Бобби Боуфингер - клёвый парень! Не беда, что он абсолютно бестолковый режиссёр и самый большой проходимец в Голливуде. Бобби задумал снять настоящий боевик. И не просто боевик, а блокбастер, который принесёт огромную кассу и немеркнущую славу. Что же для этого потребуется? Во-первых, - хороший сценарий! Сценарий у Бобби есть. И какой! В нём зловещие инопланетные твари опускаются на Землю в дождевых каплях и набрасываются на людей. Во-вторых, - заполучить в свой фильм суперзвезду! Причём самого Кита Рэмзи - настоящего героя «боевиков». Тогда, чтобы увидеть кумира в фильме Бобби, в кинотеатры ринутся легионы одержимых поклонников, размахивая толстыми кошельками. А потом можно преспокойно почивать на лаврах и раздавать автографы. Есть лишь одна маленькая проблема: Кит Рэмзи сниматься у Бобби не собирается. И тогда «непотопляемый» Боуфингер находит выход. Он будет снимать Кита Рэмзи «скрытой» камерой, создавая ситуации, соответствующие сценарию.


Исходник: Blu-Ray Remux 1080p (rutracker)
Видео: 1916x1040, 5618 Kbps
Аудио1: AC3, 2 ch, 192 Kbps - РусскийРусский, DUB (Ист-Вест)
Аудио2: AC3, 6 ch, 640 Kbps - РусскийРусский, MVO (R5)
Аудио3: AC3, 6 ch, 448 Kbps - РусскийРусский, MVO (Позитив Мультимедиа)
Аудио4: AC3, 2 ch, 192 Kbps - РусскийРусский, MVO (Первый канал / ТВ3)
Аудио5: AC3, 2 ch, 192 Kbps - РусскийРусский, MVO (CTC)
Аудио6: AC3, 2 ch, 640 Kbps - РусскийРусский, DVO (Премьер Мультимедиа)
Аудио7: AC3, 6 ch, 640 Kbps - РусскийРусский, AVO (Юрий Живов)
Аудио8: AC3, 2 ch, 192 Kbps - РусскийРусский, AVO (Андрей Дольский)
Аудио9: AC3, 2 ch, 224 Kbps - РусскийРусский, AVO (Александр Кашкин)
Аудио10: AC3, 6 ch, 640 Kbps - АнглийскийАнглийский
Субтитры: русские, английские

Как за пару секунд удалить ненужные аудиодорожки и субтитры (Внимание! После удаления вы не сможете поддержать раздачу)

Лог (x265 info)
x265 [info]: frame I: 588, Avg QP:18.11 kb/s: 17191.50
x265 [info]: frame P: 25785, Avg QP:19.30 kb/s: 11655.19
x265 [info]: frame B: 112918, Avg QP:21.91 kb/s: 4178.33
x265 [info]: Weighted P-Frames: Y:5.6% UV:4.0%
x265 [info]: Weighted B-Frames: Y:4.7% UV:2.6%
x265 [info]: encoded 139291 frames in 108668.42s (1.28 fps), 5617.35 kb/s, Avg QP:21.41
Медиаинфо
Общее
Уникальный идентификатор : 46923320835946285328379351634934971976 (0x234D1A559C244B7FA0DB09484F833E48)
Полное имя : \\.\Клёвый.парень.Bowfinger.1999.BDRip-HEVC.1080p.mkv
Формат : Matroska
Версия формата : Version 4
Размер файла : 6,51 Гбайт
Продолжительность : 1 ч. 36 м.
Общий поток : 9 623 Кбит/сек
Частота кадров : 23,976 кадра/сек
Дата кодирования : 2023-10-31 17:13:33 UTC
Программа кодирования : mkvmerge v79.0 ('Funeral Pyres') 64-bit
Библиотека кодирования : libebml v1.4.4 + libmatroska v1.7.1

Видео
Идентификатор : 1
Формат : HEVC
Формат/Информация : High Efficiency Video Coding
Профиль формата : Main 10@L4.1@High
Идентификатор кодека : V_MPEGH/ISO/HEVC
Продолжительность : 1 ч. 36 м.
Битрейт : 5 618 Кбит/сек
Ширина : 1 916 пикселей
Высота : 1 040 пикселей
Соотношение сторон : 1,85:1
Режим частоты кадров : Постоянный
Частота кадров : 23,976 (24000/1001) кадра/сек
Цветовое пространство : YUV
Субдискретизация насыщенности : 4:2:0
Битовая глубина : 10 бит
Бит/(Пиксели*Кадры) : 0.118
Размер потока : 3,80 Гбайт (58%)
Заголовок : Bowfinger / Rip by OldGamer
Библиотека кодирования : x265 3.5+110-8ee01d45b:[Windows][GCC 13.2.0][64 bit] 10bit
Настройки программы : cpuid=1111039 / frame-threads=3 / numa-pools=8 / wpp / no-pmode / no-pme / no-psnr / no-ssim / log-level=2 / input-csp=1 / input-res=1916x1040 / interlace=0 / total-frames=139291 / level-idc=41 / high-tier=1 / uhd-bd=0 / ref=5 / no-allow-non-conformance / no-repeat-headers / annexb / no-aud / no-eob / no-eos / no-hrd / info / hash=0 / temporal-layers=0 / open-gop / min-keyint=23 / keyint=240 / gop-lookahead=0 / bframes=16 / b-adapt=2 / b-pyramid / bframe-bias=0 / rc-lookahead=40 / lookahead-slices=0 / scenecut=40 / no-hist-scenecut / radl=0 / no-splice / no-intra-refresh / ctu=32 / min-cu-size=8 / rect / amp / max-tu-size=32 / tu-inter-depth=4 / tu-intra-depth=4 / limit-tu=1 / rdoq-level=2 / dynamic-rd=0.00 / no-ssim-rd / signhide / no-tskip / nr-intra=0 / nr-inter=0 / no-constrained-intra / no-strong-intra-smoothing / max-merge=5 / limit-refs=3 / no-limit-modes / me=3 / subme=7 / merange=57 / temporal-mvp / no-frame-dup / no-hme / weightp / weightb / no-analyze-src-pics / deblock=-2:-2 / no-sao / no-sao-non-deblock / rd=6 / selective-sao=0 / no-early-skip / no-rskip / no-fast-intra / no-tskip-fast / no-cu-lossless / b-intra / no-splitrd-skip / rdpenalty=0 / psy-rd=2.00 / psy-rdoq=1.00 / no-rd-refine / no-lossless / cbqpoffs=0 / crqpoffs=0 / rc=crf / crf=20.3 / qcomp=0.60 / qpstep=4 / stats-write=0 / stats-read=0 / vbv-maxrate=50000 / vbv-bufsize=50000 / vbv-init=0.9 / min-vbv-fullness=50.0 / max-vbv-fullness=80.0 / crf-max=0.0 / crf-min=0.0 / ipratio=1.40 / pbratio=1.30 / aq-mode=1 / aq-strength=1.00 / no-cutree / zone-count=1 / zones: / start-frame=132296 / end-frame=139291 / qp=36 / no-strict-cbr / qg-size=32 / no-rc-grain / qpmax=69 / qpmin=0 / no-const-vbv / sar=1 / overscan=0 / videoformat=5 / range=0 / colorprim=2 / transfer=2 / colormatrix=2 / chromaloc=0 / display-window=0 / cll=0,0 / min-luma=0 / max-luma=1023 / log2-max-poc-lsb=8 / vui-timing-info / vui-hrd-info / slices=1 / no-opt-qp-pps / no-opt-ref-list-length-pps / no-multi-pass-opt-rps / scenecut-bias=0.00 / no-opt-cu-delta-qp / no-aq-motion / no-hdr10 / no-hdr10-opt / no-dhdr10-opt / no-idr-recovery-sei / analysis-reuse-level=0 / analysis-save-reuse-level=0 / analysis-load-reuse-level=0 / scale-factor=0 / refine-intra=0 / refine-inter=0 / refine-mv=1 / refine-ctu-distortion=0 / no-limit-sao / ctu-info=0 / no-lowpass-dct / refine-analysis-type=0 / copy-pic=1 / max-ausize-factor=1.0 / no-dynamic-refine / no-single-sei / no-hevc-aq / no-svt / no-field / qp-adaptation-range=1.00 / scenecut-aware-qp=0conformance-window-offsets / right=0 / bottom=0 / decoder-max-rate=0 / no-vbv-live-multi-pass / no-mcstf / no-sbrc
Язык : English
Default : Да
Forced : Нет

Аудио #1
Идентификатор : 2
Формат : AC-3
Формат/Информация : Audio Coding 3
Коммерческое название : Dolby Digital
Идентификатор кодека : A_AC3
Продолжительность : 1 ч. 36 м.
Вид битрейта : Постоянный
Битрейт : 192 Кбит/сек
Каналы : 2 канала
Channel layout : L R
Частота : 48,0 КГц
Частота кадров : 31,250 кадров/сек (1536 SPF)
Метод сжатия : С потерями
Размер потока : 133 Мбайт (2%)
Заголовок : DUB (Ист-Вест)
Язык : Russian
Service kind : Complete Main
Default : Да
Forced : Нет

Аудио #2
Идентификатор : 3
Формат : AC-3
Формат/Информация : Audio Coding 3
Коммерческое название : Dolby Digital
Идентификатор кодека : A_AC3
Продолжительность : 1 ч. 36 м.
Вид битрейта : Постоянный
Битрейт : 640 Кбит/сек
Каналы : 6 каналов
Channel layout : L R C LFE Ls Rs
Частота : 48,0 КГц
Частота кадров : 31,250 кадров/сек (1536 SPF)
Метод сжатия : С потерями
Размер потока : 443 Мбайт (7%)
Заголовок : MVO (R5)
Язык : Russian
Service kind : Complete Main
Default : Нет
Forced : Нет

Аудио #3
Идентификатор : 4
Формат : AC-3
Формат/Информация : Audio Coding 3
Коммерческое название : Dolby Digital
Идентификатор кодека : A_AC3
Продолжительность : 1 ч. 36 м.
Вид битрейта : Постоянный
Битрейт : 448 Кбит/сек
Каналы : 6 каналов
Channel layout : L R C LFE Ls Rs
Частота : 48,0 КГц
Частота кадров : 31,250 кадров/сек (1536 SPF)
Метод сжатия : С потерями
Размер потока : 310 Мбайт (5%)
Заголовок : MVO (Позитив Мультимедиа)
Язык : Russian
Service kind : Complete Main
Default : Нет
Forced : Нет

Аудио #4
Идентификатор : 5
Формат : AC-3
Формат/Информация : Audio Coding 3
Коммерческое название : Dolby Digital
Идентификатор кодека : A_AC3
Продолжительность : 1 ч. 36 м.
Вид битрейта : Постоянный
Битрейт : 192 Кбит/сек
Каналы : 2 канала
Channel layout : L R
Частота : 48,0 КГц
Частота кадров : 31,250 кадров/сек (1536 SPF)
Метод сжатия : С потерями
Размер потока : 133 Мбайт (2%)
Заголовок : MVO (Первый канал / ТВ3)
Язык : Russian
Service kind : Complete Main
Default : Нет
Forced : Нет

Аудио #5
Идентификатор : 6
Формат : AC-3
Формат/Информация : Audio Coding 3
Коммерческое название : Dolby Digital
Идентификатор кодека : A_AC3
Продолжительность : 1 ч. 36 м.
Вид битрейта : Постоянный
Битрейт : 192 Кбит/сек
Каналы : 2 канала
Channel layout : L R
Частота : 48,0 КГц
Частота кадров : 31,250 кадров/сек (1536 SPF)
Метод сжатия : С потерями
Размер потока : 133 Мбайт (2%)
Заголовок : MVO (CTC)
Язык : Russian
Service kind : Complete Main
Default : Нет
Forced : Нет

Аудио #6
Идентификатор : 7
Формат : AC-3
Формат/Информация : Audio Coding 3
Коммерческое название : Dolby Digital
Идентификатор кодека : A_AC3
Продолжительность : 1 ч. 36 м.
Вид битрейта : Постоянный
Битрейт : 640 Кбит/сек
Каналы : 2 канала
Channel layout : L R
Частота : 48,0 КГц
Частота кадров : 31,250 кадров/сек (1536 SPF)
Метод сжатия : С потерями
Размер потока : 443 Мбайт (7%)
Заголовок : DVO (Премьер Мультимедиа)
Язык : Russian
Service kind : Complete Main
Default : Нет
Forced : Нет

Аудио #7
Идентификатор : 8
Формат : AC-3
Формат/Информация : Audio Coding 3
Коммерческое название : Dolby Digital
Идентификатор кодека : A_AC3
Продолжительность : 1 ч. 36 м.
Вид битрейта : Постоянный
Битрейт : 640 Кбит/сек
Каналы : 6 каналов
Channel layout : L R C LFE Ls Rs
Частота : 48,0 КГц
Частота кадров : 31,250 кадров/сек (1536 SPF)
Метод сжатия : С потерями
Размер потока : 443 Мбайт (7%)
Заголовок : AVO (Юрий Живов)
Язык : Russian
Service kind : Complete Main
Default : Нет
Forced : Нет

Аудио #8
Идентификатор : 9
Формат : AC-3
Формат/Информация : Audio Coding 3
Коммерческое название : Dolby Digital
Идентификатор кодека : A_AC3
Продолжительность : 1 ч. 36 м.
Вид битрейта : Постоянный
Битрейт : 192 Кбит/сек
Каналы : 2 канала
Channel layout : L R
Частота : 48,0 КГц
Частота кадров : 31,250 кадров/сек (1536 SPF)
Метод сжатия : С потерями
Размер потока : 133 Мбайт (2%)
Заголовок : AVO (Андрей Дольский)
Язык : Russian
Service kind : Complete Main
Default : Нет
Forced : Нет

Аудио #9
Идентификатор : 10
Формат : AC-3
Формат/Информация : Audio Coding 3
Коммерческое название : Dolby Digital
Идентификатор кодека : A_AC3
Продолжительность : 1 ч. 36 м.
Вид битрейта : Постоянный
Битрейт : 224 Кбит/сек
Каналы : 2 канала
Channel layout : L R
Частота : 48,0 КГц
Частота кадров : 31,250 кадров/сек (1536 SPF)
Метод сжатия : С потерями
Размер потока : 155 Мбайт (2%)
Заголовок : AVO (Александр Кашкин)
Язык : Russian
Service kind : Complete Main
Default : Нет
Forced : Нет

Аудио #10
Идентификатор : 11
Формат : AC-3
Формат/Информация : Audio Coding 3
Коммерческое название : Dolby Digital
Идентификатор кодека : A_AC3
Продолжительность : 1 ч. 36 м.
Вид битрейта : Постоянный
Битрейт : 640 Кбит/сек
Каналы : 6 каналов
Channel layout : L R C LFE Ls Rs
Частота : 48,0 КГц
Частота кадров : 31,250 кадров/сек (1536 SPF)
Метод сжатия : С потерями
Размер потока : 443 Мбайт (7%)
Язык : English
Service kind : Complete Main
Default : Нет
Forced : Нет

Текст #1
Идентификатор : 12
Формат : UTF-8
Идентификатор кодека : S_TEXT/UTF8
Идентификатор кодека/Информация : UTF-8 Plain Text
Продолжительность : 1 ч. 34 м.
Битрейт : 93 бит/сек
Частота кадров : 0,178 кадр/сек
Count of elements : 1014
Размер потока : 64,9 Кбайт (0%)
Язык : Russian
Default : Нет
Forced : Нет

Текст #2
Идентификатор : 13
Формат : UTF-8
Идентификатор кодека : S_TEXT/UTF8
Идентификатор кодека/Информация : UTF-8 Plain Text
Продолжительность : 1 ч. 34 м.
Битрейт : 55 бит/сек
Частота кадров : 0,178 кадр/сек
Count of elements : 1014
Размер потока : 38,4 Кбайт (0%)
Язык : English
Default : Нет
Forced : Нет

Меню
00:00:00.000 : en:The Perfect Script
00:05:43.760 : en:A Power Lunch
00:12:33.252 : en:The Action Star
00:23:04.925 : en:He Said Yes!
00:29:15.086 : en:The Ingenue
00:37:09.060 : en:The Best Crew
00:46:13.061 : en:The First Shot
00:56:53.618 : en:The Restaurant Scene
01:05:11.157 : en:The Parking Lot Scene
01:12:13.787 : en:Inhaled Gonads
01:20:57.352 : en:The Lookalike
01:29:48.716 : en:The Freeway Scene
Загрузка...Cкриншот1 Клёвый парень / Bowfinger (1999) BDRip 1080p [HEVC] 10 bit от OldGamer (RG RIPS CLUB)Загрузка...Cкриншот2 Клёвый парень / Bowfinger (1999) BDRip 1080p [HEVC] 10 bit от OldGamer (RG RIPS CLUB)Загрузка...Cкриншот3 Клёвый парень / Bowfinger (1999) BDRip 1080p [HEVC] 10 bit от OldGamer (RG RIPS CLUB)Загрузка...Cкриншот4 Клёвый парень / Bowfinger (1999) BDRip 1080p [HEVC] 10 bit от OldGamer (RG RIPS CLUB)
Релиз-группа: RIPS CLUB
Сэмпл Торрент🧲 Магнет

Рейтинги КП и IMDB, кнопки "Позвать в чате" и "Спасибо", а также мультитрекерная статистика доступны только зарегистрированным/авторизованным пользователям!

Файлы: 1
  • Клёвый.парень.Bowfinger.1999.BDRip-HEVC.1080p.mkv   6.51 ГБ
Поблагодарили: 5
and50, Chestnoc, Rezident, stickstoff, Undervest
OldGamer
0121616.51 ГБ

Добавление нового комментария

Добавление комментариев доступно только зарегистрированным/авторизованным пользователям.