💬 Мини-чат

Для тех, кому интересен процесс переделки сайта - https://rips.club/changelog.html (обновлен 22.02.2024)
OldGamerz1M4p9i0, и этот релиз скачался
Adminatomicheart, встал, но у Вас в профиле не видно. Вам бы перекачать.
OldGamerz1M4p9i0, Хан Соло скачался, но релиз, который был на руторе, там аудиодорожек меньше, чем тут, а видеоряд тот же. Попробуйте оттуда, я пока что сидирую.
OldGamerХан Соло откуда-то по чайной ложке в час скачивается, за сутки 50%, наблюдаем-с дальше
Adminatomicheart, завтра посмотрю, он у меня должен быть.
atomicheartРаздайте, пожалуйста, Тихое место: Дилогия / A Quiet Place: Dilogy (2018-2020) UHD-BDRip 1080p [HEVC] 10 bit [HDR] от Mr. Fox
z1M4p9i0Раздайте, пожалуйста, Хан Соло: Звёздные войны. Истории / Solo: A Star Wars Story (2018) [Локализованная версия] BDRip 1080p [HEVC] 10 bit от Cthulhu
z1M4p9i0Раздайте, пожалуйста, Терминатор: Тёмные судьбы / Terminator: Dark Fate (2019) [iTunes] UHD-BDRip 1440p [HEVC] 10 bit от HANNIBAL
OldGamerKeynol, честно говоря, пока что не планировалось, так как у нас есть отличный рип этого фильма
KeynolПриветствую! А можно сделать HEVC 10 bit на Трон Наследие Hybrid ? там файл на 31 гиг :-( на рутрекере. Хороший, но очень массивный..
  • 375509
  • Alex302
  • ilyich05
  • InSpector
Отправка сообщений доступна только зарегистрированным/авторизованным пользователям.
Онлайн (за 10 мин.): 4

Duran Duran ★ A Hollywood High: Live In Los Angeles (2022) BDRip 1080p [HEVC] 10 bit от OldGamer (RG RIPS CLUB)

HEVC
10 bit
Обложка Duran Duran ★ A Hollywood High: Live In Los Angeles (2022) BDRip 1080p [HEVC] 10 bit от OldGamer (RG RIPS CLUB) Год: 2022
Страна:
Студия: Last Man Music
Жанр: Музыка
Продолжительность: 01:12:17

Описание: Prepare for an explosive journey through a blistering setlist with Duran Duran's 'A Hollywood High' on Blu-ray and DVD. Visually stunning, this electrifying high-rise rooftop performance was filmed in Los Angeles at The Aster, framed against an iconic LA skyline and the Capitol Records building. Experience the pulsating energy of the band's timeless music in crystal-clear 4K, enhanced by 5.1 and Dolby Atmos surround sound.

Треклист
01. A view to a kill
02. Invisible
03. All of you
04. Notorious
05. Come undone
06. Give it all up
07. Pressure off
08. White lines
09. Anniversary
10. Ordinary world
11. Tonight united
12. Hungry like the wolf

Исходник: Blu-Ray Remux 1080p (rutracker)
Видео: 1920x1080, 8429 Kbps
Аудио1: Dolby TrueHD/Atmos, 8 ch, 6244 Kbps - АнглийскийАнглийский
Аудио2: DTS-HD Master Audio, 6 ch, 4702 Kbps - АнглийскийАнглийский
Аудио3: PCM, 2 ch, 2304 Kbps - АнглийскийАнглийский
Субтитры: Отсутствуют

Как за пару секунд удалить ненужные аудиодорожки и субтитры (Внимание! После удаления вы не сможете поддержать раздачу)

Лог (x265 info)
x265 [info]: frame I: 434, Avg QP:17.25 kb/s: 20621.35
x265 [info]: frame P: 25833, Avg QP:18.81 kb/s: 14445.82
x265 [info]: frame B: 77708, Avg QP:21.22 kb/s: 6359.14
x265 [info]: Weighted P-Frames: Y:5.0% UV:3.9%
x265 [info]: Weighted B-Frames: Y:10.0% UV:6.9%
x265 [info]: encoded 103975 frames in 87881.48s (1.18 fps), 8427.84 kb/s, Avg QP:20.60
Медиаинфо
Общее
Уникальный идентификатор : 302036526075921239919010270786154358550 (0xE33A1E75EBC50C2528D9B63A30A76716)
Полное имя : \\.\Duran.Duran.A.Hollywood.High.BDRip-HEVC.1080p.mkv
Формат : Matroska
Версия формата : Version 4
Размер файла : 11,0 Гбайт
Продолжительность : 1 ч. 12 м.
Режим общего битрейта : Переменный
Общий поток : 21,7 Мбит/сек
Частота кадров : 23,976 кадра/сек
Дата кодирования : 2023-10-31 18:02:10 UTC
Программа кодирования : mkvmerge v79.0 ('Funeral Pyres') 64-bit
Библиотека кодирования : libebml v1.4.4 + libmatroska v1.7.1
Обложка : Yes
Attachments : cover.jpg

Видео
Идентификатор : 1
Формат : HEVC
Формат/Информация : High Efficiency Video Coding
Профиль формата : Main 10@L4.1@High
Идентификатор кодека : V_MPEGH/ISO/HEVC
Продолжительность : 1 ч. 12 м.
Битрейт : 8 429 Кбит/сек
Ширина : 1 920 пикселей
Высота : 1 080 пикселей
Соотношение сторон : 16:9
Режим частоты кадров : Постоянный
Частота кадров : 23,976 (24000/1001) кадра/сек
Цветовое пространство : YUV
Субдискретизация насыщенности : 4:2:0
Битовая глубина : 10 бит
Бит/(Пиксели*Кадры) : 0.170
Размер потока : 4,26 Гбайт (39%)
Заголовок : Duran Duran - A Hollywood High / Rip by OldGamer
Библиотека кодирования : x265 3.5+110-8ee01d45b:[Windows][GCC 13.2.0][64 bit] 10bit
Настройки программы : cpuid=1111039 / frame-threads=3 / numa-pools=8 / wpp / no-pmode / no-pme / no-psnr / no-ssim / log-level=2 / input-csp=1 / input-res=1920x1080 / interlace=0 / total-frames=103975 / level-idc=41 / high-tier=1 / uhd-bd=0 / ref=5 / no-allow-non-conformance / no-repeat-headers / annexb / no-aud / no-eob / no-eos / no-hrd / info / hash=0 / temporal-layers=0 / open-gop / min-keyint=23 / keyint=240 / gop-lookahead=0 / bframes=16 / b-adapt=2 / b-pyramid / bframe-bias=0 / rc-lookahead=40 / lookahead-slices=0 / scenecut=40 / no-hist-scenecut / radl=0 / no-splice / no-intra-refresh / ctu=32 / min-cu-size=8 / rect / amp / max-tu-size=32 / tu-inter-depth=4 / tu-intra-depth=4 / limit-tu=1 / rdoq-level=2 / dynamic-rd=0.00 / no-ssim-rd / signhide / no-tskip / nr-intra=0 / nr-inter=0 / no-constrained-intra / no-strong-intra-smoothing / max-merge=5 / limit-refs=3 / no-limit-modes / me=3 / subme=7 / merange=57 / temporal-mvp / no-frame-dup / no-hme / weightp / weightb / no-analyze-src-pics / deblock=-2:-2 / no-sao / no-sao-non-deblock / rd=6 / selective-sao=0 / no-early-skip / no-rskip / no-fast-intra / no-tskip-fast / no-cu-lossless / b-intra / no-splitrd-skip / rdpenalty=0 / psy-rd=2.00 / psy-rdoq=1.00 / no-rd-refine / no-lossless / cbqpoffs=0 / crqpoffs=0 / rc=crf / crf=19.5 / qcomp=0.60 / qpstep=4 / stats-write=0 / stats-read=0 / vbv-maxrate=50000 / vbv-bufsize=50000 / vbv-init=0.9 / min-vbv-fullness=50.0 / max-vbv-fullness=80.0 / crf-max=0.0 / crf-min=0.0 / ipratio=1.40 / pbratio=1.30 / aq-mode=1 / aq-strength=1.00 / no-cutree / zone-count=1 / zones: / start-frame=101536 / end-frame=103975 / qp=36 / no-strict-cbr / qg-size=32 / no-rc-grain / qpmax=69 / qpmin=0 / no-const-vbv / sar=1 / overscan=0 / videoformat=5 / range=0 / colorprim=2 / transfer=2 / colormatrix=2 / chromaloc=0 / display-window=0 / cll=0,0 / min-luma=0 / max-luma=1023 / log2-max-poc-lsb=8 / vui-timing-info / vui-hrd-info / slices=1 / no-opt-qp-pps / no-opt-ref-list-length-pps / no-multi-pass-opt-rps / scenecut-bias=0.00 / no-opt-cu-delta-qp / no-aq-motion / no-hdr10 / no-hdr10-opt / no-dhdr10-opt / no-idr-recovery-sei / analysis-reuse-level=0 / analysis-save-reuse-level=0 / analysis-load-reuse-level=0 / scale-factor=0 / refine-intra=0 / refine-inter=0 / refine-mv=1 / refine-ctu-distortion=0 / no-limit-sao / ctu-info=0 / no-lowpass-dct / refine-analysis-type=0 / copy-pic=1 / max-ausize-factor=1.0 / no-dynamic-refine / no-single-sei / no-hevc-aq / no-svt / no-field / qp-adaptation-range=1.00 / scenecut-aware-qp=0conformance-window-offsets / right=0 / bottom=0 / decoder-max-rate=0 / no-vbv-live-multi-pass / no-mcstf / no-sbrc
Язык : English
Default : Да
Forced : Нет

Аудио #1
Идентификатор : 2
ID in the original source medium : 4354 (0x1102)
Формат : MLP FBA 16-ch
Формат/Информация : Meridian Lossless Packing FBA with 16-channel presentation
Коммерческое название : Dolby TrueHD with Dolby Atmos
Идентификатор кодека : A_TRUEHD
Продолжительность : 1 ч. 12 м.
Вид битрейта : Переменный
Битрейт : 6 244 Кбит/сек
Максимальный битрейт : 453 Кбит/сек
Каналы : 8 каналов
Channel layout : L R C LFE Ls Rs Lb Rb
Частота : 48,0 КГц
Частота кадров : 1 200,000 кадров/сек (40 SPF)
Битовая глубина : 24 бит
Метод сжатия : Без потерь
Размер потока : 3,15 Гбайт (29%)
Язык : English
Default : Да
Forced : Нет
Носитель оригинала : Blu-ray
Number of dynamic objects : 13
Bed channel count : 1 канал
Bed channel configuration : LFE

Аудио #2
Идентификатор : 3
ID in the original source medium : 4353 (0x1101)
Формат : DTS XLL
Формат/Информация : Digital Theater Systems
Коммерческое название : DTS-HD Master Audio
Идентификатор кодека : A_DTS
Продолжительность : 1 ч. 12 м.
Вид битрейта : Переменный
Битрейт : 4 702 Кбит/сек
Каналы : 6 каналов
Channel layout : C L R Ls Rs LFE
Частота : 48,0 КГц
Частота кадров : 93,750 кадра/сек (512 SPF)
Битовая глубина : 24 бит
Метод сжатия : Без потерь
Размер потока : 2,37 Гбайт (22%)
Язык : English
Default : Нет
Forced : Нет
Носитель оригинала : Blu-ray

Аудио #3
Идентификатор : 4
ID in the original source medium : 4352 (0x1100)
Формат : PCM
Настройки формата : Little / Signed
Идентификатор кодека : A_PCM/INT/LIT
Продолжительность : 1 ч. 12 м.
Вид битрейта : Постоянный
Битрейт : 2 304 Кбит/сек
Каналы : 2 канала
Частота : 48,0 КГц
Частота кадров : 30,000 кадров/сек (1600 SPF)
Битовая глубина : 24 бит
Размер потока : 1,16 Гбайт (11%)
Язык : English
Default : Нет
Forced : Нет
Носитель оригинала : Blu-ray

Меню
00:00:00.000 : en:Intro
00:15:29.553 : en:A view to a kill
00:19:23.036 : en:Invisible
00:22:39.775 : en:All of you
00:26:51.359 : en:Notorious
00:31:10.159 : en:Come undone
00:36:02.785 : en:Give it all up
00:41:06.130 : en:Pressure off
00:45:35.816 : en:White lines
00:51:49.815 : en:Anniversary
00:56:54.077 : en:Ordinary world
01:02:49.098 : en:Tonight united
01:06:07.672 : en:Hungry like the wolf
01:10:24.553 : en:End credits
Загрузка...Cкриншот1 Duran Duran ★ A Hollywood High: Live In Los Angeles (2022) BDRip 1080p [HEVC] 10 bit от OldGamer (RG RIPS CLUB)Загрузка...Cкриншот2 Duran Duran ★ A Hollywood High: Live In Los Angeles (2022) BDRip 1080p [HEVC] 10 bit от OldGamer (RG RIPS CLUB)Загрузка...Cкриншот3 Duran Duran ★ A Hollywood High: Live In Los Angeles (2022) BDRip 1080p [HEVC] 10 bit от OldGamer (RG RIPS CLUB)Загрузка...Cкриншот4 Duran Duran ★ A Hollywood High: Live In Los Angeles (2022) BDRip 1080p [HEVC] 10 bit от OldGamer (RG RIPS CLUB)
Релиз-группа: RIPS CLUB
Сэмпл Торрент🧲 Магнет

Рейтинги КП и IMDB, кнопки "Позвать в чате" и "Спасибо", а также мультитрекерная статистика доступны только зарегистрированным/авторизованным пользователям!

Файлы: 1
  • Duran.Duran.A.Hollywood.High.BDRip-HEVC.1080p.mkv   10.98 ГБ
Поблагодарили: 5
Brooklyn, cdmitry, Kilop77, netabsurd, olegvp
OldGamer
0934110.98 ГБ

Добавление нового комментария

Добавление комментариев доступно только зарегистрированным/авторизованным пользователям.