💬 Мини-чат

Для тех, кому интересен процесс переделки сайта - https://rips.club/changelog.html (обновлен 22.02.2024)
OldGamerz1M4p9i0, и этот релиз скачался
Adminatomicheart, встал, но у Вас в профиле не видно. Вам бы перекачать.
OldGamerz1M4p9i0, Хан Соло скачался, но релиз, который был на руторе, там аудиодорожек меньше, чем тут, а видеоряд тот же. Попробуйте оттуда, я пока что сидирую.
OldGamerХан Соло откуда-то по чайной ложке в час скачивается, за сутки 50%, наблюдаем-с дальше
Adminatomicheart, завтра посмотрю, он у меня должен быть.
atomicheartРаздайте, пожалуйста, Тихое место: Дилогия / A Quiet Place: Dilogy (2018-2020) UHD-BDRip 1080p [HEVC] 10 bit [HDR] от Mr. Fox
z1M4p9i0Раздайте, пожалуйста, Хан Соло: Звёздные войны. Истории / Solo: A Star Wars Story (2018) [Локализованная версия] BDRip 1080p [HEVC] 10 bit от Cthulhu
z1M4p9i0Раздайте, пожалуйста, Терминатор: Тёмные судьбы / Terminator: Dark Fate (2019) [iTunes] UHD-BDRip 1440p [HEVC] 10 bit от HANNIBAL
OldGamerKeynol, честно говоря, пока что не планировалось, так как у нас есть отличный рип этого фильма
KeynolПриветствую! А можно сделать HEVC 10 bit на Трон Наследие Hybrid ? там файл на 31 гиг :-( на рутрекере. Хороший, но очень массивный..
  • OldGamer
  • 375509
  • Clockwork_Orange
  • Ignat
  • InSpector
  • pmihail99
Отправка сообщений доступна только зарегистрированным/авторизованным пользователям.
Онлайн (за 10 мин.): 6

Астрал 5: Красная дверь / Insidious: The Red Door (2023) BDRip 1080p [HEVC] 10 bit от Spartanec

HEVC
10 bit
Обложка Астрал 5: Красная дверь / Insidious: The Red Door (2023) BDRip 1080p [HEVC] 10 bit от Spartanec Год: 2023
Страна: США, Канада
Студия: Alliance, Blumhouse Productions, Screen Gems
Жанр: Ужасы
Продолжительность: 01:47:08

Режиссер: Патрик Уилсон
В ролях: Тай Симпкинс, Патрик Уилсон, Роуз Бирн, Синклер Дэниел, Хиам Аббасс, Эндрю Эстор, Джулиана Дэвис, Стив Коултер, Питер Даггер, Джастин Стерджис

Описание: Далтон вырос и отправляется в художественное училище, где, следуя указаниям преподавательницы, пытается погрузиться в собственное подсознание. Парень начинает рисовать загадочную дверь, которая как-то связана с его детскими годами, о которых он ничего не помнит. А Джош, который тоже забыл важную часть своей жизни, уже некоторое время жалуется на спутанность сознания и во время обследования вдруг видит страшного призрака.


Видео: 1920x804, 10,3 Мбит/сек, 0.279 бит/(Пиксели*Кадры), 23,976 кадр/сек, HEVC (Main10@L.4.1@High) 10 бит
Аудио1: AC3, 6 ch, 448 Kbps - РусскийРусский, Дублированный (Red Head Sound)
Аудио2: AC3, 6 ch, 640 Kbps - АнглийскийАнглийский, Оригинал
Субтитры: Русские (форсированные,полные), английские

Как за пару секунд удалить ненужные аудиодорожки и субтитры (Внимание! После удаления вы не сможете поддержать раздачу)

Лог (x265 info)
x265 [info]: frame I: 1193, Avg QP:17.55 kb/s: 28548.74
x265 [info]: frame P: 24206, Avg QP:18.77 kb/s: 21932.36
x265 [info]: frame B: 128729, Avg QP:21.13 kb/s: 7974.12
x265 [info]: Weighted P-Frames: Y:17.0% UV:13.0%
x265 [info]: Weighted B-Frames: Y:13.7% UV:9.3%

encoded 154128 frames in 83423.64s (1.85 fps), 10325.53 kb/s, Avg QP:20.74
Медиаинфо
Формат : Matroska
Версия формата : Version 4
Размер файла : 8,54 Гбайт
Продолжительность : 1 ч. 47 м.
Общий поток : 11,4 Мбит/сек
Название фильма : by Spartanec
Дата кодирования : UTC 2023-12-15 15:16:32
Программа кодирования : mkvmerge v7.0.0 ('Where We Going') 64bit built on Jun 9 2014 15:16:27
Библиотека кодирования : libebml v1.3.0 + libmatroska v1.4.1
Обложка : Yes
Attachments : cover.jpg

Видео
Идентификатор : 1
Формат : HEVC
Формат/Информация : High Efficiency Video Coding
Профиль формата : Main 10@L4.1@High
Идентификатор кодека : V_MPEGH/ISO/HEVC
Продолжительность : 1 ч. 47 м.
Битрейт : 10,3 Мбит/сек
Ширина : 1 920 пикселей
Высота : 804 пикселя
Соотношение сторон : 2,40:1
Режим частоты кадров : Постоянный
Частота кадров : 23,976 (23976/1000) кадра/сек
Частота кадров в оригинале : 23,976 (24000/1001) кадра/сек
Цветовое пространство : YUV
Субдискретизация насыщенности : 4:2:0
Битовая глубина : 10 бит
Бит/(Пиксели*Кадры) : 0.279
Размер потока : 7,73 Гбайт (90%)
Заголовок : Spartanec
Библиотека кодирования : x265 3.5+105-59ff5e7b4:[Windows][GCC 13.2.0][64 bit] 10bit
Настройки программы : cpuid=1111039 / frame-threads=4 / numa-pools=24 / wpp / no-pmode / no-pme / no-psnr / no-ssim / log-level=2 / input-csp=1 / input-res=1920x804 / interlace=0 / total-frames=154128 / level-idc=41 / high-tier=1 / uhd-bd=0 / ref=5 / no-allow-non-conformance / no-repeat-headers / annexb / no-aud / no-eob / no-eos / no-hrd / info / hash=0 / temporal-layers=0 / open-gop / min-keyint=23 / keyint=240 / gop-lookahead=0 / bframes=16 / b-adapt=2 / b-pyramid / bframe-bias=0 / rc-lookahead=60 / lookahead-slices=1 / scenecut=40 / no-hist-scenecut / radl=0 / no-splice / no-intra-refresh / ctu=32 / min-cu-size=8 / rect / amp / max-tu-size=32 / tu-inter-depth=4 / tu-intra-depth=4 / limit-tu=1 / rdoq-level=1 / dynamic-rd=0.00 / no-ssim-rd / signhide / no-tskip / nr-intra=0 / nr-inter=0 / no-constrained-intra / no-strong-intra-smoothing / max-merge=5 / limit-refs=0 / no-limit-modes / me=3 / subme=7 / merange=57 / temporal-mvp / no-frame-dup / no-hme / weightp / weightb / no-analyze-src-pics / deblock=-2:-2 / no-sao / no-sao-non-deblock / rd=6 / selective-sao=0 / no-early-skip / no-rskip / no-fast-intra / no-tskip-fast / no-cu-lossless / b-intra / no-splitrd-skip / rdpenalty=0 / psy-rd=2.00 / psy-rdoq=1.00 / no-rd-refine / no-lossless / cbqpoffs=0 / crqpoffs=0 / rc=crf / crf=20.5 / qcomp=0.70 / qpstep=4 / stats-write=0 / stats-read=0 / vbv-maxrate=50000 / vbv-bufsize=50000 / vbv-init=0.9 / min-vbv-fullness=50.0 / max-vbv-fullness=80.0 / crf-max=0.0 / crf-min=0.0 / ipratio=1.40 / pbratio=1.30 / aq-mode=2 / aq-strength=1.00 / no-cutree / zone-count=0 / no-strict-cbr / qg-size=32 / no-rc-grain / qpmax=69 / qpmin=0 / no-const-vbv / sar=1 / overscan=0 / videoformat=5 / range=0 / colorprim=1 / transfer=1 / colormatrix=1 / chromaloc=0 / display-window=0 / cll=0,0 / min-luma=0 / max-luma=1023 / log2-max-poc-lsb=8 / vui-timing-info / vui-hrd-info / slices=1 / no-opt-qp-pps / no-opt-ref-list-length-pps / no-multi-pass-opt-rps / scenecut-bias=0.05 / no-opt-cu-delta-qp / no-aq-motion / no-hdr10 / no-hdr10-opt / no-dhdr10-opt / no-idr-recovery-sei / analysis-reuse-level=0 / analysis-save-reuse-level=0 / analysis-load-reuse-level=0 / scale-factor=0 / refine-intra=0 / refine-inter=0 / refine-mv=0 / refine-ctu-distortion=0 / no-limit-sao / ctu-info=0 / no-lowpass-dct / refine-analysis-type=0 / copy-pic=1 / max-ausize-factor=1.0 / no-dynamic-refine / no-single-sei / no-hevc-aq / no-svt / no-field / qp-adaptation-range=1.00 / scenecut-aware-qp=0conformance-window-offsets / right=0 / bottom=0 / decoder-max-rate=0 / no-vbv-live-multi-pass / no-mcstf / no-sbrc
Язык : English
Default : Да
Forced : Нет
Цветовой диапазон : Limited
Основные цвета : BT.709
Характеристики трансфера : BT.709
Коэффициенты матрицы : BT.709

Аудио #1
Идентификатор : 2
Формат : AC-3
Формат/Информация : Audio Coding 3
Коммерческое название : Dolby Digital
Идентификатор кодека : A_AC3
Продолжительность : 1 ч. 47 м.
Вид битрейта : Постоянный
Битрейт : 448 Кбит/сек
Каналы : 6 каналов
Channel layout : L R C LFE Ls Rs
Частота : 48,0 КГц
Частота кадров : 31,250 кадров/сек (1536 SPF)
Метод сжатия : С потерями
Размер потока : 343 Мбайт (4%)
Заголовок : Дубляж (Red Head Sound)
Язык : Russian
Service kind : Complete Main
Default : Нет
Forced : Нет

Аудио #2
Идентификатор : 3
Формат : AC-3
Формат/Информация : Audio Coding 3
Коммерческое название : Dolby Digital
Идентификатор кодека : A_AC3
Продолжительность : 1 ч. 47 м.
Вид битрейта : Постоянный
Битрейт : 640 Кбит/сек
Каналы : 6 каналов
Channel layout : L R C LFE Ls Rs
Частота : 48,0 КГц
Частота кадров : 31,250 кадров/сек (1536 SPF)
Метод сжатия : С потерями
Размер потока : 490 Мбайт (6%)
Заголовок : Оригинал
Язык : English
Service kind : Complete Main
Default : Да
Forced : Нет

Текст #1
Идентификатор : 4
Формат : UTF-8
Идентификатор кодека : S_TEXT/UTF8
Идентификатор кодека/Информация : UTF-8 Plain Text
Продолжительность : 1 ч. 23 м.
Битрейт : 2 бит/сек
Частота кадров : 0,007 кадр/сек
Count of elements : 37
Размер потока : 1,69 Кбайт (0%)
Заголовок : Forced [HDRezka Studio]
Язык : Russian
Default : Да
Forced : Нет

Текст #2
Идентификатор : 5
Формат : UTF-8
Идентификатор кодека : S_TEXT/UTF8
Идентификатор кодека/Информация : UTF-8 Plain Text
Продолжительность : 1 ч. 41 м.
Битрейт : 62 бит/сек
Частота кадров : 0,171 кадр/сек
Count of elements : 1040
Размер потока : 46,4 Кбайт (0%)
Заголовок : Full v.2
Язык : Russian
Default : Нет
Forced : Нет

Текст #3
Идентификатор : 6
Формат : UTF-8
Идентификатор кодека : S_TEXT/UTF8
Идентификатор кодека/Информация : UTF-8 Plain Text
Продолжительность : 1 ч. 45 м.
Битрейт : 38 бит/сек
Частота кадров : 0,161 кадр/сек
Count of elements : 1019
Размер потока : 29,7 Кбайт (0%)
Заголовок : Full
Язык : English
Default : Нет
Forced : Нет

Меню
00:00:00.000 : :Chapter 01
00:06:44.988 : :Chapter 02
00:12:32.752 : :Chapter 03
00:17:50.944 : :Chapter 04
00:22:46.865 : :Chapter 05
00:32:44.337 : :Chapter 06
00:45:46.786 : :Chapter 07
00:52:40.783 : :Chapter 08
01:00:19.366 : :Chapter 09
01:10:46.492 : :Chapter 10
01:15:23.144 : :Chapter 11
01:20:08.762 : :Chapter 12
01:25:18.155 : :Chapter 13
01:28:24.299 : :Chapter 14
01:33:09.250 : :Chapter 15
01:39:18.870 : :Chapter 16
Загрузка...Cкриншот1 Астрал 5: Красная дверь / Insidious: The Red Door (2023) BDRip 1080p [HEVC] 10 bit от SpartanecЗагрузка...Cкриншот2 Астрал 5: Красная дверь / Insidious: The Red Door (2023) BDRip 1080p [HEVC] 10 bit от SpartanecЗагрузка...Cкриншот3 Астрал 5: Красная дверь / Insidious: The Red Door (2023) BDRip 1080p [HEVC] 10 bit от SpartanecЗагрузка...Cкриншот4 Астрал 5: Красная дверь / Insidious: The Red Door (2023) BDRip 1080p [HEVC] 10 bit от Spartanec
Сэмпл Торрент🧲 Магнет

Рейтинги КП и IMDB, кнопки "Позвать в чате" и "Спасибо", а также мультитрекерная статистика доступны только зарегистрированным/авторизованным пользователям!

Файлы: 1
  • Астрал 5. Красная дверь (2023) BDRip 1080p [HEVC] 10bit by Spartanec.mkv   8.54 ГБ
Поблагодарили: 5
Chestnoc, Kiran, MIGRANT, Winsent, Мичман
Spartanec
336208.54 ГБ

Добавление нового комментария

Добавление комментариев доступно только зарегистрированным/авторизованным пользователям.
Аватар Денис
  Денис  
астралы топ...
Аватар Spartanec
  Spartanec  
Здравствуйте.Bravo Records не понравилась, синхронизировать не надо,нужно просто добавить.
Аватар не указан
  maru66649  
Добрый день. Можно добавить в раздачу звуковую дорожку "DUB [Bravo Records Georgia]"?
Пытался сам синхронизировать её, но опыта у меня явно маловато в подобном.