💬 Мини-чат

Для тех, кому интересен процесс переделки сайта - https://rips.club/changelog.html (обновлен 22.02.2024)
OldGamerz1M4p9i0, и этот релиз скачался
Adminatomicheart, встал, но у Вас в профиле не видно. Вам бы перекачать.
OldGamerz1M4p9i0, Хан Соло скачался, но релиз, который был на руторе, там аудиодорожек меньше, чем тут, а видеоряд тот же. Попробуйте оттуда, я пока что сидирую.
OldGamerХан Соло откуда-то по чайной ложке в час скачивается, за сутки 50%, наблюдаем-с дальше
Adminatomicheart, завтра посмотрю, он у меня должен быть.
atomicheartРаздайте, пожалуйста, Тихое место: Дилогия / A Quiet Place: Dilogy (2018-2020) UHD-BDRip 1080p [HEVC] 10 bit [HDR] от Mr. Fox
z1M4p9i0Раздайте, пожалуйста, Хан Соло: Звёздные войны. Истории / Solo: A Star Wars Story (2018) [Локализованная версия] BDRip 1080p [HEVC] 10 bit от Cthulhu
z1M4p9i0Раздайте, пожалуйста, Терминатор: Тёмные судьбы / Terminator: Dark Fate (2019) [iTunes] UHD-BDRip 1440p [HEVC] 10 bit от HANNIBAL
OldGamerKeynol, честно говоря, пока что не планировалось, так как у нас есть отличный рип этого фильма
KeynolПриветствую! А можно сделать HEVC 10 bit на Трон Наследие Hybrid ? там файл на 31 гиг :-( на рутрекере. Хороший, но очень массивный..
  • Alex302
  • InSpector
Отправка сообщений доступна только зарегистрированным/авторизованным пользователям.
Онлайн (за 10 мин.): 2

Мандалорец / The Mandalorian (2020) [2 сезон] BDRip 1080p [HEVC] 10 bit от OldGamer (RG RIPS CLUB)

HEVC
10 bit
Обложка Мандалорец / The Mandalorian (2020) [2 сезон] BDRip 1080p [HEVC] 10 bit от OldGamer (RG RIPS CLUB) Год: 2020
Страна: США
Студия: Fairview Entertainment, Golem Creations, Lucasfilm Ltd., Walt Disney Studios
Жанр: Фантастика, Фэнтези, Боевик, Приключения
Продолжительность: 05:18:22

Режиссер: Рик Фамуйива, Брайс Даллас Ховард, Дэйв Филони
В ролях: Педро Паскаль, Джина Карано, Джанкарло Эспозито, Карл Уэзерс, Темуэра Моррисон, Мин-На Вэнь, Ник Нолти, Кэти Сакхофф, Омид Абтахи, Розарио Доусон

Описание: Одинокий мандалорец-наёмник живёт на краю обитаемой галактики, куда не дотягивается закон Новой Республики. Представитель некогда могучей расы благородных воинов теперь вынужден влачить жалкое существование среди отбросов общества.


Исходник: Blu-Ray Remux 1080p (SiCFoI)
Видео: 1920x804, 4839-8844 Kbps
Аудио1: AC3, 2 ch, 320 Kbps - РусскийРусский, DUB (Flarrow Films)
Аудио2: AC3, 6 ch, 640 Kbps - АнглийскийАнглийский
Субтитры: русские (full, forced), английские (SDH)

Как за пару секунд удалить ненужные аудиодорожки и субтитры (Внимание! После удаления вы не сможете поддержать раздачу)

Лог (x265 info)
x265 [info]: frame I: 228, Avg QP:17.75 kb/s: 19613.92
x265 [info]: frame P: 9210, Avg QP:18.64 kb/s: 14467.14
x265 [info]: frame B: 43903, Avg QP:21.14 kb/s: 4585.46
x265 [info]: Weighted P-Frames: Y:12.1% UV:9.8%
x265 [info]: Weighted B-Frames: Y:11.6% UV:8.9%
x265 [info]: encoded 53341 frames in 31279.14s (1.71 fps), 6355.89 kb/s, Avg QP:20.69
Медиаинфо
Общее
Уникальный идентификатор : 33469958098142714827329278014320693041 (0x192E14571691DC2A391314F64C3A4F31)
Полное имя : \\.\The.Mandalorian.S02E04.Chapter.12.The.Siege.mkv
Формат : Matroska
Версия формата : Version 4
Размер файла : 1,90 Гбайт
Продолжительность : 37 м. 4 с.
Общий поток : 7 319 Кбит/сек
Частота кадров : 23,976 кадра/сек
Дата кодирования : 2024-01-02 03:28:50 UTC
Программа кодирования : mkvmerge v81.0 ('Milliontown') 64-bit
Библиотека кодирования : libebml v1.4.4 + libmatroska v1.7.1

Видео
Идентификатор : 1
Формат : HEVC
Формат/Информация : High Efficiency Video Coding
Профиль формата : Main 10@L4.1@High
Идентификатор кодека : V_MPEGH/ISO/HEVC
Продолжительность : 37 м. 4 с.
Битрейт : 6 357 Кбит/сек
Ширина : 1 920 пикселей
Высота : 804 пикселя
Соотношение сторон : 2,39:1
Режим частоты кадров : Постоянный
Частота кадров : 23,976 (24000/1001) кадра/сек
Цветовое пространство : YUV
Субдискретизация насыщенности : 4:2:0
Битовая глубина : 10 бит
Бит/(Пиксели*Кадры) : 0.172
Размер потока : 1,65 Гбайт (87%)
Заголовок : The Mandalorian S02E04 / Rip by OldGamer
Библиотека кодирования : x265 3.5+110-8ee01d45b:[Windows][GCC 13.2.0][64 bit] 10bit
Настройки программы : cpuid=1111039 / frame-threads=4 / numa-pools=16 / wpp / no-pmode / no-pme / no-psnr / no-ssim / log-level=2 / input-csp=1 / input-res=1920x804 / interlace=0 / total-frames=53341 / level-idc=41 / high-tier=1 / uhd-bd=0 / ref=5 / no-allow-non-conformance / no-repeat-headers / annexb / no-aud / no-eob / no-eos / no-hrd / info / hash=0 / temporal-layers=0 / open-gop / min-keyint=23 / keyint=240 / gop-lookahead=0 / bframes=16 / b-adapt=2 / b-pyramid / bframe-bias=0 / rc-lookahead=40 / lookahead-slices=0 / scenecut=40 / no-hist-scenecut / radl=0 / no-splice / no-intra-refresh / ctu=32 / min-cu-size=8 / rect / amp / max-tu-size=32 / tu-inter-depth=4 / tu-intra-depth=4 / limit-tu=1 / rdoq-level=2 / dynamic-rd=0.00 / no-ssim-rd / signhide / no-tskip / nr-intra=0 / nr-inter=0 / no-constrained-intra / no-strong-intra-smoothing / max-merge=5 / limit-refs=3 / no-limit-modes / me=3 / subme=7 / merange=57 / temporal-mvp / no-frame-dup / no-hme / weightp / weightb / no-analyze-src-pics / deblock=-3:-3 / no-sao / no-sao-non-deblock / rd=6 / selective-sao=0 / no-early-skip / no-rskip / no-fast-intra / no-tskip-fast / no-cu-lossless / b-intra / no-splitrd-skip / rdpenalty=0 / psy-rd=2.00 / psy-rdoq=1.00 / no-rd-refine / no-lossless / cbqpoffs=0 / crqpoffs=0 / rc=crf / crf=20.6 / qcomp=0.60 / qpstep=4 / stats-write=0 / stats-read=0 / vbv-maxrate=50000 / vbv-bufsize=50000 / vbv-init=0.9 / min-vbv-fullness=50.0 / max-vbv-fullness=80.0 / crf-max=0.0 / crf-min=0.0 / ipratio=1.40 / pbratio=1.30 / aq-mode=1 / aq-strength=1.00 / no-cutree / zone-count=1 / zones: / start-frame=51522 / end-frame=53341 / qp=36 / no-strict-cbr / qg-size=32 / no-rc-grain / qpmax=69 / qpmin=0 / no-const-vbv / sar=1 / overscan=0 / videoformat=5 / range=0 / colorprim=2 / transfer=2 / colormatrix=2 / chromaloc=0 / display-window=0 / cll=0,0 / min-luma=0 / max-luma=1023 / log2-max-poc-lsb=8 / vui-timing-info / vui-hrd-info / slices=1 / no-opt-qp-pps / no-opt-ref-list-length-pps / no-multi-pass-opt-rps / scenecut-bias=0.00 / no-opt-cu-delta-qp / no-aq-motion / no-hdr10 / no-hdr10-opt / no-dhdr10-opt / no-idr-recovery-sei / analysis-reuse-level=0 / analysis-save-reuse-level=0 / analysis-load-reuse-level=0 / scale-factor=0 / refine-intra=0 / refine-inter=0 / refine-mv=1 / refine-ctu-distortion=0 / no-limit-sao / ctu-info=0 / no-lowpass-dct / refine-analysis-type=0 / copy-pic=1 / max-ausize-factor=1.0 / no-dynamic-refine / no-single-sei / no-hevc-aq / no-svt / no-field / qp-adaptation-range=1.00 / scenecut-aware-qp=0conformance-window-offsets / right=0 / bottom=0 / decoder-max-rate=0 / no-vbv-live-multi-pass / no-mcstf / no-sbrc
Язык : English
Default : Да
Forced : Нет

Аудио #1
Идентификатор : 2
Формат : AC-3
Формат/Информация : Audio Coding 3
Коммерческое название : Dolby Digital
Идентификатор кодека : A_AC3
Продолжительность : 37 м. 3 с.
Вид битрейта : Постоянный
Битрейт : 320 Кбит/сек
Каналы : 2 канала
Channel layout : L R
Частота : 48,0 КГц
Частота кадров : 31,250 кадров/сек (1536 SPF)
Метод сжатия : С потерями
Размер потока : 84,8 Мбайт (4%)
Заголовок : DUB (Flarrow Films)
Язык : Russian
Service kind : Complete Main
Default : Да
Forced : Нет

Аудио #2
Идентификатор : 3
Формат : AC-3
Формат/Информация : Audio Coding 3
Коммерческое название : Dolby Digital
Идентификатор кодека : A_AC3
Продолжительность : 37 м. 4 с.
Вид битрейта : Постоянный
Битрейт : 640 Кбит/сек
Каналы : 6 каналов
Channel layout : L R C LFE Ls Rs
Частота : 48,0 КГц
Частота кадров : 31,250 кадров/сек (1536 SPF)
Метод сжатия : С потерями
Размер потока : 170 Мбайт (9%)
Язык : English
Service kind : Complete Main
Default : Нет
Forced : Нет

Текст #1
Идентификатор : 4
Формат : UTF-8
Идентификатор кодека : S_TEXT/UTF8
Идентификатор кодека/Информация : UTF-8 Plain Text
Продолжительность : 34 м. 21 с.
Битрейт : 1 бит/сек
Частота кадров : 0,005 кадр/сек
Count of elements : 11
Размер потока : 469 байт (0%)
Заголовок : Russian @ forced SRT
Язык : Russian
Default : Да
Forced : Нет

Текст #2
Идентификатор : 5
Формат : UTF-8
Идентификатор кодека : S_TEXT/UTF8
Идентификатор кодека/Информация : UTF-8 Plain Text
Продолжительность : 34 м. 0 с.
Битрейт : 77 бит/сек
Частота кадров : 0,176 кадр/сек
Count of elements : 360
Размер потока : 19,2 Кбайт (0%)
Заголовок : Russian @ SRT
Язык : Russian
Default : Нет
Forced : Нет

Текст #3
Идентификатор : 6
Формат : UTF-8
Идентификатор кодека : S_TEXT/UTF8
Идентификатор кодека/Информация : UTF-8 Plain Text
Продолжительность : 34 м. 0 с.
Битрейт : 49 бит/сек
Частота кадров : 0,175 кадр/сек
Count of elements : 357
Размер потока : 12,2 Кбайт (0%)
Заголовок : English @ SRT
Язык : English
Default : Нет
Forced : Нет

Текст #4
Идентификатор : 7
Формат : UTF-8
Идентификатор кодека : S_TEXT/UTF8
Идентификатор кодека/Информация : UTF-8 Plain Text
Продолжительность : 34 м. 0 с.
Битрейт : 55 бит/сек
Частота кадров : 0,214 кадр/сек
Count of elements : 437
Размер потока : 13,8 Кбайт (0%)
Заголовок : English @ SRT SDH
Язык : English
Default : Нет
Forced : Нет

Меню
00:00:00.000 : en:Chapter 01
00:07:57.977 : en:Chapter 02
00:15:38.854 : en:Chapter 03
00:22:27.512 : en:Chapter 04
Загрузка...Cкриншот1 Мандалорец / The Mandalorian (2020) [2 сезон] BDRip 1080p [HEVC] 10 bit от OldGamer (RG RIPS CLUB)Загрузка...Cкриншот2 Мандалорец / The Mandalorian (2020) [2 сезон] BDRip 1080p [HEVC] 10 bit от OldGamer (RG RIPS CLUB)Загрузка...Cкриншот3 Мандалорец / The Mandalorian (2020) [2 сезон] BDRip 1080p [HEVC] 10 bit от OldGamer (RG RIPS CLUB)Загрузка...Cкриншот4 Мандалорец / The Mandalorian (2020) [2 сезон] BDRip 1080p [HEVC] 10 bit от OldGamer (RG RIPS CLUB)
Релиз-группа: RIPS CLUB
Сэмпл Торрент🧲 Магнет

Рейтинги КП и IMDB, кнопки "Позвать в чате" и "Спасибо", а также мультитрекерная статистика доступны только зарегистрированным/авторизованным пользователям!

Файлы: 8
  • The.Mandalorian.S02.BDRip-HEVC.1080p
    • The.Mandalorian.S02E01.Chapter.9.The.Marshal.mkv   3.1 ГБ
    • The.Mandalorian.S02E02.Chapter.10.The.Passenger.mkv   1.98 ГБ
    • The.Mandalorian.S02E03.Chapter.11.The.Heiress.mkv   1.54 ГБ
    • The.Mandalorian.S02E04.Chapter.12.The.Siege.mkv   1.9 ГБ
    • The.Mandalorian.S02E05.Chapter.13.The.Jedi.mkv   1.81 ГБ
    • The.Mandalorian.S02E06.Chapter.14.The.Tragedy.mkv   2.17 ГБ
    • The.Mandalorian.S02E07.Chapter.15.The.Believer.mkv   2.03 ГБ
    • The.Mandalorian.S02E08.Chapter.16.The.Rescue.mkv   1.84 ГБ
Поблагодарили: 4
AlexsBond, aquarius, diesel0000, ExoticDeer
OldGamer
0701283 (8)  16.37 ГБ

Добавление нового комментария

Добавление комментариев доступно только зарегистрированным/авторизованным пользователям.