💬 Мини-чат

Для тех, кому интересен процесс переделки сайта - https://rips.club/changelog.html (обновлен 22.02.2024)
OldGamerz1M4p9i0, и этот релиз скачался
Adminatomicheart, встал, но у Вас в профиле не видно. Вам бы перекачать.
OldGamerz1M4p9i0, Хан Соло скачался, но релиз, который был на руторе, там аудиодорожек меньше, чем тут, а видеоряд тот же. Попробуйте оттуда, я пока что сидирую.
OldGamerХан Соло откуда-то по чайной ложке в час скачивается, за сутки 50%, наблюдаем-с дальше
Adminatomicheart, завтра посмотрю, он у меня должен быть.
atomicheartРаздайте, пожалуйста, Тихое место: Дилогия / A Quiet Place: Dilogy (2018-2020) UHD-BDRip 1080p [HEVC] 10 bit [HDR] от Mr. Fox
z1M4p9i0Раздайте, пожалуйста, Хан Соло: Звёздные войны. Истории / Solo: A Star Wars Story (2018) [Локализованная версия] BDRip 1080p [HEVC] 10 bit от Cthulhu
z1M4p9i0Раздайте, пожалуйста, Терминатор: Тёмные судьбы / Terminator: Dark Fate (2019) [iTunes] UHD-BDRip 1440p [HEVC] 10 bit от HANNIBAL
OldGamerKeynol, честно говоря, пока что не планировалось, так как у нас есть отличный рип этого фильма
KeynolПриветствую! А можно сделать HEVC 10 bit на Трон Наследие Hybrid ? там файл на 31 гиг :-( на рутрекере. Хороший, но очень массивный..
  • 375509
  • Alex302
  • ilyich05
  • InSpector
  • Святогуб
  • Тренер по Йоге
Отправка сообщений доступна только зарегистрированным/авторизованным пользователям.
Онлайн (за 10 мин.): 6

Музей восковых фигур: Антология / House of Wax: Anthology (1933-2005) BDRip 1080p [HEVC] 10 bit от OldGamer (RG RIPS CLUB)

HEVC
10 bit
Обложка Музей восковых фигур: Антология / House of Wax: Anthology (1933-2005) BDRip 1080p [HEVC] 10 bit от OldGamer (RG RIPS CLUB) Год: 1933-2005
Страна: США, Великобритания, Германия (ФРГ), Австралия
Жанр: Ужасы, Триллер

1. Тайна музея восковых фигур / Mystery of the Wax Museum (1933) BDRip 1080p [HEVC] 10 bit от OldGamer
HEVC
10 bit
Обложка Тайна музея восковых фигур / Mystery of the Wax Museum (1933) BDRip 1080p [HEVC] 10 bit от OldGamer Год: 1933
Страна: США
Студия: Warner Bros.
Жанр: Триллер, Детектив, Ужасы
Продолжительность: 01:18:29

Режиссер: Майкл Кёртиц
В ролях: Гленда Фаррелл, Лайонел Этуилл, Фэй Рэй, Фрэнк МакХью, Аллен Винсент, Гэвин Гордон, Эдвин Максвелл, Холмс Херберт, Клод Кинг, Артур Эдмунд Кэрью

Описание: Через несколько лет после пожара в Лондонском музее восковых фигур, уничтожившего все работы, скульптор Айван перебирается в Нью-Йорк. Тут он открывает такой же музей со скульптурами, воссозданными руками его помощников, ведь сам он сильно пострадал при пожаре. Пронырливая журналистка Флоренс приходит с подругой в музей и замечает, что одна и скульптур точь-в-точь похожа на недавно покончившую с собой актрису, чьё тело загадочным образом исчезло из морга.


Исходник: Blu-Ray Remux 1080p (rutracker)
Видео: 1480x1080, 6240 Kbps
Аудио1: AC3, 2 ch, 192 Kbps - РусскийРусский, AVO (Григорий Либергал)
Аудио2: AC3, 2 ch, 640 Kbps - АнглийскийАнглийский
Субтитры: русские (full, forced), английские

Как за пару секунд удалить ненужные аудиодорожки и субтитры (Внимание! После удаления вы не сможете поддержать раздачу)

Лог (x265 info)
x265 [info]: frame I: 470, Avg QP:17.70 kb/s: 16952.45
x265 [info]: frame P: 17980, Avg QP:18.91 kb/s: 12977.69
x265 [info]: frame B: 94087, Avg QP:20.93 kb/s: 4897.40
x265 [info]: Weighted P-Frames: Y:20.7% UV:16.2%
x265 [info]: Weighted B-Frames: Y:10.7% UV:7.8%
x265 [info]: encoded 112537 frames in 90844.85s (1.24 fps), 6238.73 kb/s, Avg QP:20.60
Медиаинфо
Общее
Уникальный идентификатор : 144337550474150234044561271148103985511 (0x6C9666AB973B2405B845415256D9E967)
Полное имя : \\.\01.Тайна.музея.восковых.фигур.Mystery.of.the.Wax.Museum.1933.BDRip-HEVC.1080p.mkv
Формат : Matroska
Версия формата : Version 4
Размер файла : 3,87 Гбайт
Продолжительность : 1 ч. 18 м.
Общий поток : 7 051 Кбит/сек
Частота кадров : 23,976 кадра/сек
Дата кодирования : 2023-12-22 17:17:50 UTC
Программа кодирования : mkvmerge v81.0 ('Milliontown') 64-bit
Библиотека кодирования : libebml v1.4.4 + libmatroska v1.7.1
Обложка : Yes
Attachments : cover.jpg

Видео
Идентификатор : 1
Формат : HEVC
Формат/Информация : High Efficiency Video Coding
Профиль формата : Main 10@L4.1@High
Идентификатор кодека : V_MPEGH/ISO/HEVC
Продолжительность : 1 ч. 18 м.
Битрейт : 6 240 Кбит/сек
Ширина : 1 480 пикселей
Высота : 1 080 пикселей
Соотношение сторон : 1,370
Режим частоты кадров : Постоянный
Частота кадров : 23,976 (24000/1001) кадра/сек
Цветовое пространство : YUV
Субдискретизация насыщенности : 4:2:0
Битовая глубина : 10 бит
Бит/(Пиксели*Кадры) : 0.163
Размер потока : 3,41 Гбайт (88%)
Заголовок : Mystery of the Wax Museum
Библиотека кодирования : x265 3.5+110-8ee01d45b:[Windows][GCC 13.2.0][64 bit] 10bit
Настройки программы : cpuid=1111039 / frame-threads=3 / numa-pools=8 / wpp / no-pmode / no-pme / no-psnr / no-ssim / log-level=2 / input-csp=1 / input-res=1480x1080 / interlace=0 / total-frames=112537 / level-idc=41 / high-tier=1 / uhd-bd=0 / ref=5 / no-allow-non-conformance / no-repeat-headers / annexb / no-aud / no-eob / no-eos / no-hrd / info / hash=0 / temporal-layers=0 / open-gop / min-keyint=23 / keyint=240 / gop-lookahead=0 / bframes=16 / b-adapt=2 / b-pyramid / bframe-bias=0 / rc-lookahead=40 / lookahead-slices=0 / scenecut=40 / no-hist-scenecut / radl=0 / no-splice / no-intra-refresh / ctu=32 / min-cu-size=8 / rect / amp / max-tu-size=32 / tu-inter-depth=4 / tu-intra-depth=4 / limit-tu=1 / rdoq-level=2 / dynamic-rd=0.00 / no-ssim-rd / signhide / no-tskip / nr-intra=0 / nr-inter=0 / no-constrained-intra / no-strong-intra-smoothing / max-merge=5 / limit-refs=3 / no-limit-modes / me=3 / subme=7 / merange=57 / temporal-mvp / no-frame-dup / no-hme / weightp / weightb / no-analyze-src-pics / deblock=-2:-2 / no-sao / no-sao-non-deblock / rd=6 / selective-sao=0 / no-early-skip / no-rskip / no-fast-intra / no-tskip-fast / no-cu-lossless / b-intra / no-splitrd-skip / rdpenalty=0 / psy-rd=2.00 / psy-rdoq=1.00 / no-rd-refine / no-lossless / cbqpoffs=0 / crqpoffs=0 / rc=crf / crf=20.2 / qcomp=0.60 / qpstep=4 / stats-write=0 / stats-read=0 / vbv-maxrate=50000 / vbv-bufsize=50000 / vbv-init=0.9 / min-vbv-fullness=50.0 / max-vbv-fullness=80.0 / crf-max=0.0 / crf-min=0.0 / ipratio=1.40 / pbratio=1.30 / aq-mode=1 / aq-strength=1.00 / no-cutree / zone-count=1 / zones: / start-frame=112248 / end-frame=112537 / qp=36 / no-strict-cbr / qg-size=32 / no-rc-grain / qpmax=69 / qpmin=0 / no-const-vbv / sar=1 / overscan=0 / videoformat=5 / range=0 / colorprim=2 / transfer=2 / colormatrix=2 / chromaloc=0 / display-window=0 / cll=0,0 / min-luma=0 / max-luma=1023 / log2-max-poc-lsb=8 / vui-timing-info / vui-hrd-info / slices=1 / no-opt-qp-pps / no-opt-ref-list-length-pps / no-multi-pass-opt-rps / scenecut-bias=0.00 / no-opt-cu-delta-qp / no-aq-motion / no-hdr10 / no-hdr10-opt / no-dhdr10-opt / no-idr-recovery-sei / analysis-reuse-level=0 / analysis-save-reuse-level=0 / analysis-load-reuse-level=0 / scale-factor=0 / refine-intra=0 / refine-inter=0 / refine-mv=1 / refine-ctu-distortion=0 / no-limit-sao / ctu-info=0 / no-lowpass-dct / refine-analysis-type=0 / copy-pic=1 / max-ausize-factor=1.0 / no-dynamic-refine / no-single-sei / no-hevc-aq / no-svt / no-field / qp-adaptation-range=1.00 / scenecut-aware-qp=0conformance-window-offsets / right=0 / bottom=0 / decoder-max-rate=0 / no-vbv-live-multi-pass / no-mcstf / no-sbrc
Язык : English
Default : Да
Forced : Нет

Аудио #1
Идентификатор : 2
Формат : AC-3
Формат/Информация : Audio Coding 3
Коммерческое название : Dolby Digital
Идентификатор кодека : A_AC3
Продолжительность : 1 ч. 18 м.
Вид битрейта : Постоянный
Битрейт : 192 Кбит/сек
Каналы : 2 канала
Channel layout : L R
Частота : 48,0 КГц
Частота кадров : 31,250 кадров/сек (1536 SPF)
Метод сжатия : С потерями
Размер потока : 107 Мбайт (3%)
Заголовок : AVO (Григорий Либергал)
Язык : Russian
Service kind : Complete Main
Default : Да
Forced : Нет

Аудио #2
Идентификатор : 3
Формат : AC-3
Формат/Информация : Audio Coding 3
Коммерческое название : Dolby Digital
Идентификатор кодека : A_AC3
Продолжительность : 1 ч. 18 м.
Вид битрейта : Постоянный
Битрейт : 640 Кбит/сек
Каналы : 2 канала
Channel layout : L R
Частота : 48,0 КГц
Частота кадров : 31,250 кадров/сек (1536 SPF)
Метод сжатия : С потерями
Размер потока : 358 Мбайт (9%)
Язык : English
Service kind : Complete Main
Default : Нет
Forced : Нет

Текст #1
Идентификатор : 4
Формат : UTF-8
Идентификатор кодека : S_TEXT/UTF8
Идентификатор кодека/Информация : UTF-8 Plain Text
Продолжительность : 1 ч. 18 м.
Битрейт : 8 бит/сек
Частота кадров : 0,017 кадр/сек
Count of elements : 80
Размер потока : 4,74 Кбайт (0%)
Заголовок : lil pussy (forced)
Язык : Russian
Default : Да
Forced : Нет

Текст #2
Идентификатор : 5
Формат : UTF-8
Идентификатор кодека : S_TEXT/UTF8
Идентификатор кодека/Информация : UTF-8 Plain Text
Продолжительность : 1 ч. 18 м.
Битрейт : 133 бит/сек
Частота кадров : 0,260 кадр/сек
Count of elements : 1219
Размер потока : 76,4 Кбайт (0%)
Заголовок : lil pussy (full)
Язык : Russian
Default : Нет
Forced : Нет

Текст #3
Идентификатор : 6
Формат : UTF-8
Идентификатор кодека : S_TEXT/UTF8
Идентификатор кодека/Информация : UTF-8 Plain Text
Продолжительность : 1 ч. 17 м.
Битрейт : 121 бит/сек
Частота кадров : 0,184 кадр/сек
Count of elements : 861
Размер потока : 69,0 Кбайт (0%)
Заголовок : +MarfenaRus+ (full)
Язык : Russian
Default : Нет
Forced : Нет

Текст #4
Идентификатор : 7
Формат : UTF-8
Идентификатор кодека : S_TEXT/UTF8
Идентификатор кодека/Информация : UTF-8 Plain Text
Продолжительность : 1 ч. 15 м.
Битрейт : 76 бит/сек
Частота кадров : 0,252 кадр/сек
Count of elements : 1137
Размер потока : 41,9 Кбайт (0%)
Заголовок : full
Язык : English
Default : Нет
Forced : Нет

Меню
00:00:00.000 : en:Chapter 01
00:00:33.116 : en:Chapter 02
00:01:10.070 : en:Chapter 03
00:06:24.842 : en:Chapter 04
00:08:30.092 : en:Chapter 05
00:10:59.241 : en:Chapter 06
00:13:11.207 : en:Chapter 07
00:16:59.435 : en:Chapter 08
00:19:46.059 : en:Chapter 09
00:21:35.919 : en:Chapter 10
00:23:51.680 : en:Chapter 11
00:25:31.071 : en:Chapter 12
00:27:35.695 : en:Chapter 13
00:30:06.930 : en:Chapter 14
00:31:46.237 : en:Chapter 15
00:34:38.910 : en:Chapter 16
00:37:15.483 : en:Chapter 17
00:39:07.386 : en:Chapter 18
00:41:00.541 : en:Chapter 19
00:41:55.179 : en:Chapter 20
00:43:54.048 : en:Chapter 21
00:47:38.772 : en:Chapter 22
00:49:50.362 : en:Chapter 23
00:52:20.178 : en:Chapter 24
00:54:07.035 : en:Chapter 25
00:57:48.590 : en:Chapter 26
00:59:15.802 : en:Chapter 27
01:02:07.432 : en:Chapter 28
01:03:12.371 : en:Chapter 29
01:06:11.884 : en:Chapter 30
01:07:47.688 : en:Chapter 31
01:09:01.887 : en:Chapter 32
01:11:11.183 : en:Chapter 33
01:12:44.151 : en:Chapter 34
01:14:35.846 : en:Chapter 35
01:16:58.697 : en:Chapter 36
01:18:05.055 : en:Chapter 37
01:18:12.938 : en:Chapter 38
Загрузка...Cкриншот1 Тайна музея восковых фигур / Mystery of the Wax Museum (1933) BDRip 1080p [HEVC] 10 bit от OldGamerЗагрузка...Cкриншот2 Тайна музея восковых фигур / Mystery of the Wax Museum (1933) BDRip 1080p [HEVC] 10 bit от OldGamerЗагрузка...Cкриншот3 Тайна музея восковых фигур / Mystery of the Wax Museum (1933) BDRip 1080p [HEVC] 10 bit от OldGamerЗагрузка...Cкриншот4 Тайна музея восковых фигур / Mystery of the Wax Museum (1933) BDRip 1080p [HEVC] 10 bit от OldGamer
Сэмпл
2. Музей восковых фигур / House of Wax (1953) BDRip 1080p [HEVC] 10 bit от OldGamer
HEVC
10 bit
Обложка Музей восковых фигур / House of Wax (1953) BDRip 1080p [HEVC] 10 bit от OldGamer Год: 1953
Страна: США
Студия: Bryan Foy Productions, Warner Bros.
Жанр: Ужасы
Продолжительность: 01:28:21

Режиссер: Андре Де Тот
В ролях: Винсент Прайс, Фрэнк Лавджой, Филлис Кирк, Кэролин Джонс, Пол Пицерни, Рой Робертс, Анджела Кларк, Пол Кэвэна, Даббс Грир, Чарльз Бронсон

Описание: Доктор Генри Джарэд был гением. Он создал великолепный музей восковых фигур, наполнив его историческими персонажами от Марка Антония и Клеопатры до Линкольна и его убийцы. Но, к сожалению, музей не пользовался популярностью и его компаньон, решил всё сжечь, чтобы получить страховку. Пытаясь спасти своё детище, доктор исчезает в огне. Спустя несколько лет открывается новый музей больше похожий на «Комнату ужасов», наполненный сценами убийств, насилия и пыток. Его персонажи так похожи на живых людей! В чём причина этого невероятного сходства? Почему рядом с музеем исчезают люди?


Исходник: Blu-Ray Remux 1080p (rutracker)
Видео: 1480x1080, 8771 Kbps
Аудио1: AC3, 2 ch, 192 Kbps - РусскийРусский, MVO
Аудио2: AC3, 2 ch, 192 Kbps - АнглийскийАнглийский
Субтитры: английские (SDH)

Как за пару секунд удалить ненужные аудиодорожки и субтитры (Внимание! После удаления вы не сможете поддержать раздачу)

Лог (x265 info)
x265 [info]: frame I: 530, Avg QP:17.92 kb/s: 16630.00
x265 [info]: frame P: 21046, Avg QP:19.19 kb/s: 13676.23
x265 [info]: frame B: 105528, Avg QP:21.16 kb/s: 7752.03
x265 [info]: Weighted P-Frames: Y:12.6% UV:10.5%
x265 [info]: Weighted B-Frames: Y:10.4% UV:8.2%
x265 [info]: encoded 127104 frames in 129488.88s (0.98 fps), 8769.99 kb/s, Avg QP:20.82
Медиаинфо
Общее
Уникальный идентификатор : 125450483288443625687456500834176395407 (0x5E60E25CEAD828EFBD99D45F21BCE88F)
Полное имя : \\.\02.Музей.восковых.фигур.House.of.Wax.1953.BDRip-HEVC.1080p.mkv
Формат : Matroska
Версия формата : Version 4
Размер файла : 5,65 Гбайт
Продолжительность : 1 ч. 28 м.
Общий поток : 9 157 Кбит/сек
Частота кадров : 23,976 кадра/сек
Дата кодирования : 2023-12-24 12:07:28 UTC
Программа кодирования : mkvmerge v81.0 ('Milliontown') 64-bit
Библиотека кодирования : libebml v1.4.4 + libmatroska v1.7.1

Видео
Идентификатор : 1
Формат : HEVC
Формат/Информация : High Efficiency Video Coding
Профиль формата : Main 10@L4.1@High
Идентификатор кодека : V_MPEGH/ISO/HEVC
Продолжительность : 1 ч. 28 м.
Битрейт : 8 771 Кбит/сек
Ширина : 1 480 пикселей
Высота : 1 080 пикселей
Соотношение сторон : 1,370
Режим частоты кадров : Постоянный
Частота кадров : 23,976 (24000/1001) кадра/сек
Цветовое пространство : YUV
Субдискретизация насыщенности : 4:2:0
Битовая глубина : 10 бит
Бит/(Пиксели*Кадры) : 0.229
Размер потока : 5,41 Гбайт (96%)
Заголовок : House of Wax / Rip by OldGamer
Библиотека кодирования : x265 3.5+110-8ee01d45b:[Windows][GCC 13.2.0][64 bit] 10bit
Настройки программы : cpuid=1111039 / frame-threads=3 / numa-pools=8 / wpp / no-pmode / no-pme / no-psnr / no-ssim / log-level=2 / input-csp=1 / input-res=1480x1080 / interlace=0 / total-frames=127104 / level-idc=41 / high-tier=1 / uhd-bd=0 / ref=5 / no-allow-non-conformance / no-repeat-headers / annexb / no-aud / no-eob / no-eos / no-hrd / info / hash=0 / temporal-layers=0 / open-gop / min-keyint=23 / keyint=240 / gop-lookahead=0 / bframes=16 / b-adapt=2 / b-pyramid / bframe-bias=0 / rc-lookahead=40 / lookahead-slices=0 / scenecut=40 / no-hist-scenecut / radl=0 / no-splice / no-intra-refresh / ctu=32 / min-cu-size=8 / rect / amp / max-tu-size=32 / tu-inter-depth=4 / tu-intra-depth=4 / limit-tu=1 / rdoq-level=2 / dynamic-rd=0.00 / no-ssim-rd / signhide / no-tskip / nr-intra=0 / nr-inter=0 / no-constrained-intra / no-strong-intra-smoothing / max-merge=5 / limit-refs=3 / no-limit-modes / me=3 / subme=7 / merange=57 / temporal-mvp / no-frame-dup / no-hme / weightp / weightb / no-analyze-src-pics / deblock=-2:-2 / no-sao / no-sao-non-deblock / rd=6 / selective-sao=0 / no-early-skip / no-rskip / no-fast-intra / no-tskip-fast / no-cu-lossless / b-intra / no-splitrd-skip / rdpenalty=0 / psy-rd=2.00 / psy-rdoq=1.00 / no-rd-refine / no-lossless / cbqpoffs=0 / crqpoffs=0 / rc=crf / crf=19.6 / qcomp=0.60 / qpstep=4 / stats-write=0 / stats-read=0 / vbv-maxrate=50000 / vbv-bufsize=50000 / vbv-init=0.9 / min-vbv-fullness=50.0 / max-vbv-fullness=80.0 / crf-max=0.0 / crf-min=0.0 / ipratio=1.40 / pbratio=1.30 / aq-mode=1 / aq-strength=1.00 / no-cutree / zone-count=1 / zones: / start-frame=126761 / end-frame=127104 / qp=36 / no-strict-cbr / qg-size=32 / no-rc-grain / qpmax=69 / qpmin=0 / no-const-vbv / sar=1 / overscan=0 / videoformat=5 / range=0 / colorprim=2 / transfer=2 / colormatrix=2 / chromaloc=0 / display-window=0 / cll=0,0 / min-luma=0 / max-luma=1023 / log2-max-poc-lsb=8 / vui-timing-info / vui-hrd-info / slices=1 / no-opt-qp-pps / no-opt-ref-list-length-pps / no-multi-pass-opt-rps / scenecut-bias=0.00 / no-opt-cu-delta-qp / no-aq-motion / no-hdr10 / no-hdr10-opt / no-dhdr10-opt / no-idr-recovery-sei / analysis-reuse-level=0 / analysis-save-reuse-level=0 / analysis-load-reuse-level=0 / scale-factor=0 / refine-intra=0 / refine-inter=0 / refine-mv=1 / refine-ctu-distortion=0 / no-limit-sao / ctu-info=0 / no-lowpass-dct / refine-analysis-type=0 / copy-pic=1 / max-ausize-factor=1.0 / no-dynamic-refine / no-single-sei / no-hevc-aq / no-svt / no-field / qp-adaptation-range=1.00 / scenecut-aware-qp=0conformance-window-offsets / right=0 / bottom=0 / decoder-max-rate=0 / no-vbv-live-multi-pass / no-mcstf / no-sbrc
Язык : English
Default : Да
Forced : Нет

Аудио #1
Идентификатор : 2
ID in the original source medium : 4352 (0x1100)
Формат : AC-3
Формат/Информация : Audio Coding 3
Коммерческое название : Dolby Digital
Идентификатор кодека : A_AC3
Продолжительность : 1 ч. 28 м.
Вид битрейта : Постоянный
Битрейт : 192 Кбит/сек
Каналы : 2 канала
Channel layout : L R
Частота : 48,0 КГц
Частота кадров : 31,250 кадров/сек (1536 SPF)
Метод сжатия : С потерями
Размер потока : 121 Мбайт (2%)
Заголовок : MVO
Язык : Russian
Service kind : Complete Main
Default : Да
Forced : Нет
Носитель оригинала : Blu-ray

Аудио #2
Идентификатор : 3
Формат : AC-3
Формат/Информация : Audio Coding 3
Коммерческое название : Dolby Digital
Идентификатор кодека : A_AC3
Продолжительность : 1 ч. 28 м.
Вид битрейта : Постоянный
Битрейт : 192 Кбит/сек
Каналы : 2 канала
Channel layout : L R
Частота : 48,0 КГц
Частота кадров : 31,250 кадров/сек (1536 SPF)
Метод сжатия : С потерями
Размер потока : 121 Мбайт (2%)
Язык : English
Service kind : Complete Main
Default : Нет
Forced : Нет

Текст #1
Идентификатор : 4
Формат : UTF-8
Идентификатор кодека : S_TEXT/UTF8
Идентификатор кодека/Информация : UTF-8 Plain Text
Продолжительность : 1 ч. 25 м.
Битрейт : 63 бит/сек
Частота кадров : 0,184 кадр/сек
Count of elements : 941
Размер потока : 39,8 Кбайт (0%)
Язык : English
Default : Нет
Forced : Нет

Текст #2
Идентификатор : 5
Формат : UTF-8
Идентификатор кодека : S_TEXT/UTF8
Идентификатор кодека/Информация : UTF-8 Plain Text
Продолжительность : 1 ч. 25 м.
Битрейт : 65 бит/сек
Частота кадров : 0,194 кадр/сек
Count of elements : 999
Размер потока : 41,1 Кбайт (0%)
Заголовок : SDH
Язык : English
Default : Нет
Forced : Нет

Меню
00:00:00.000 : en:Chapter 01
00:08:38.726 : en:Chapter 02
00:18:19.348 : en:Chapter 03
00:30:23.905 : en:Chapter 04
00:40:55.453 : en:Chapter 05
00:48:45.631 : en:Chapter 06
01:00:53.483 : en:Chapter 07
01:09:29.915 : en:Chapter 08
01:18:29.037 : en:Chapter 09
Загрузка...Cкриншот1 Музей восковых фигур / House of Wax (1953) BDRip 1080p [HEVC] 10 bit от OldGamerЗагрузка...Cкриншот2 Музей восковых фигур / House of Wax (1953) BDRip 1080p [HEVC] 10 bit от OldGamerЗагрузка...Cкриншот3 Музей восковых фигур / House of Wax (1953) BDRip 1080p [HEVC] 10 bit от OldGamerЗагрузка...Cкриншот4 Музей восковых фигур / House of Wax (1953) BDRip 1080p [HEVC] 10 bit от OldGamer
Сэмпл
3. Музей восковых фигур / Waxwork (1988) BDRip 1080p [HEVC] 10 bit от OldGamer
HEVC
10 bit
Обложка Музей восковых фигур / Waxwork (1988) BDRip 1080p [HEVC] 10 bit от OldGamer Год: 1988
Страна: США, Великобритания, Германия (ФРГ)
Студия: Contemporary Films, Electric Pictures, HB Filmrullen, Palla, Vestron Pictures
Жанр: Ужасы, Комедия
Продолжительность: 01:37:11

Режиссер: Энтони Хикокс
В ролях: Зак Гэллиган, Дебора Формен, Мишель Джонсон, Дэна Эшбрук, Дэвид Уорнер, Михай «Миху» Месарош, Патрик Макни, Майлз О’Киффи, Дж. Кеннет Кэмпбелл, Джон Рис-Дэвис

Описание: Неизвестно откуда в городе появляется музей восковых фигур, в котором собраны самые страшные монстры. Зловещий хранитель приглашает группу подростков на открытие, которое должно состояться ровно в полночь. Придя в музей, ребята обнаруживают незавершённость композиции — некоторым восковым миниатюрам не хватает героев, а точнее — жертв. Тем временем в городе пропадают люди.


Исходник: Blu-Ray Remux 1080p (rutracker)
Видео: 1920x1040, 7455 Kbps
Аудио1: AC3, 2 ch, 192 Kbps - РусскийРусский, MVO
Аудио2: AC3, 2 ch, 192 Kbps - РусскийРусский, MVO (ОРТ)
Аудио3: AC3, 2 ch, 640 Kbps - РусскийРусский, AVO (Михаил Иванов)
Аудио4: AC3, 2 ch, 192 Kbps - РусскийРусский, AVO (Андрей Гаврилов)
Аудио5: AC3, 2 ch, 192 Kbps - РусскийРусский, AVO (Сергей Визгунов)
Аудио6: AC3, 2 ch, 192 Kbps - РусскийРусский, AVO (Василий Горчаков)
Аудио7: AC3, 2 ch, 192 Kbps - РусскийРусский, AVO (Андрей Дольский)
Аудио8: AC3, 2 ch, 192 Kbps - РусскийРусский, AVO (Владислав Огородников)
Аудио9: AC3, 2 ch, 192 Kbps - РусскийРусский, AVO (Юрий Сербин)
Аудио10: AC3, 2 ch, 192 Kbps - РусскийРусский, AVO (Сергей Кузнецов)
Аудио11: AC3, 2 ch, 192 Kbps - РусскийРусский, AVO (студия "Орбита") + вставки Сергея Кузнецова
Аудио12: AC3, 2 ch, 640 Kbps - АнглийскийАнглийский
Субтитры: русские, английские

Как за пару секунд удалить ненужные аудиодорожки и субтитры (Внимание! После удаления вы не сможете поддержать раздачу)

Лог (x265 info)
x265 [info]: frame I: 594, Avg QP:18.51 kb/s: 19290.51
x265 [info]: frame P: 29300, Avg QP:19.75 kb/s: 14735.40
x265 [info]: frame B: 109907, Avg QP:21.72 kb/s: 5448.71
x265 [info]: Weighted P-Frames: Y:8.5% UV:6.3%
x265 [info]: Weighted B-Frames: Y:6.0% UV:4.0%
x265 [info]: encoded 139801 frames in 269090.70s (0.52 fps), 7453.86 kb/s, Avg QP:21.30
Медиаинфо
Общее
Уникальный идентификатор : 257728663009606518861274318168069790738 (0xC1E4BC2673572A57D62205591C505C12)
Полное имя : \\.\03.Музей.восковых.фигур.Waxwork.1988.BDRip-HEVC.1080p.mkv
Формат : Matroska
Версия формата : Version 4
Размер файла : 7,24 Гбайт
Продолжительность : 1 ч. 37 м.
Общий поток : 10,7 Мбит/сек
Частота кадров : 23,976 кадра/сек
Дата кодирования : 2023-12-27 14:51:55 UTC
Программа кодирования : mkvmerge v81.0 ('Milliontown') 64-bit
Библиотека кодирования : libebml v1.4.4 + libmatroska v1.7.1

Видео
Идентификатор : 1
Формат : HEVC
Формат/Информация : High Efficiency Video Coding
Профиль формата : Main 10@L4.1@High
Идентификатор кодека : V_MPEGH/ISO/HEVC
Продолжительность : 1 ч. 37 м.
Битрейт : 7 455 Кбит/сек
Ширина : 1 920 пикселей
Высота : 1 040 пикселей
Соотношение сторон : 1,85:1
Режим частоты кадров : Постоянный
Частота кадров : 23,976 (24000/1001) кадра/сек
Цветовое пространство : YUV
Субдискретизация насыщенности : 4:2:0
Битовая глубина : 10 бит
Бит/(Пиксели*Кадры) : 0.156
Размер потока : 5,06 Гбайт (70%)
Заголовок : Waxwork / Rip by OldGamer
Библиотека кодирования : x265 3.5+110-8ee01d45b:[Windows][GCC 13.2.0][64 bit] 10bit
Настройки программы : cpuid=1111039 / frame-threads=3 / numa-pools=8 / wpp / no-pmode / no-pme / no-psnr / no-ssim / log-level=2 / input-csp=1 / input-res=1920x1040 / interlace=0 / total-frames=139801 / level-idc=41 / high-tier=1 / uhd-bd=0 / ref=5 / no-allow-non-conformance / no-repeat-headers / annexb / no-aud / no-eob / no-eos / no-hrd / info / hash=0 / temporal-layers=0 / open-gop / min-keyint=23 / keyint=240 / gop-lookahead=0 / bframes=16 / b-adapt=2 / b-pyramid / bframe-bias=0 / rc-lookahead=40 / lookahead-slices=0 / scenecut=40 / no-hist-scenecut / radl=0 / no-splice / no-intra-refresh / ctu=32 / min-cu-size=8 / rect / amp / max-tu-size=32 / tu-inter-depth=4 / tu-intra-depth=4 / limit-tu=1 / rdoq-level=2 / dynamic-rd=0.00 / no-ssim-rd / signhide / no-tskip / nr-intra=0 / nr-inter=0 / no-constrained-intra / no-strong-intra-smoothing / max-merge=5 / limit-refs=3 / no-limit-modes / me=3 / subme=7 / merange=57 / temporal-mvp / no-frame-dup / no-hme / weightp / weightb / no-analyze-src-pics / deblock=-2:-2 / no-sao / no-sao-non-deblock / rd=6 / selective-sao=0 / no-early-skip / no-rskip / no-fast-intra / no-tskip-fast / no-cu-lossless / b-intra / no-splitrd-skip / rdpenalty=0 / psy-rd=2.00 / psy-rdoq=1.00 / no-rd-refine / no-lossless / cbqpoffs=0 / crqpoffs=0 / rc=crf / crf=20.7 / qcomp=0.60 / qpstep=4 / stats-write=0 / stats-read=0 / vbv-maxrate=50000 / vbv-bufsize=50000 / vbv-init=0.9 / min-vbv-fullness=50.0 / max-vbv-fullness=80.0 / crf-max=0.0 / crf-min=0.0 / ipratio=1.40 / pbratio=1.30 / aq-mode=1 / aq-strength=1.00 / no-cutree / zone-count=1 / zones: / start-frame=134843 / end-frame=139801 / qp=36 / no-strict-cbr / qg-size=32 / no-rc-grain / qpmax=69 / qpmin=0 / no-const-vbv / sar=1 / overscan=0 / videoformat=5 / range=0 / colorprim=2 / transfer=2 / colormatrix=2 / chromaloc=0 / display-window=0 / cll=0,0 / min-luma=0 / max-luma=1023 / log2-max-poc-lsb=8 / vui-timing-info / vui-hrd-info / slices=1 / no-opt-qp-pps / no-opt-ref-list-length-pps / no-multi-pass-opt-rps / scenecut-bias=0.00 / no-opt-cu-delta-qp / no-aq-motion / no-hdr10 / no-hdr10-opt / no-dhdr10-opt / no-idr-recovery-sei / analysis-reuse-level=0 / analysis-save-reuse-level=0 / analysis-load-reuse-level=0 / scale-factor=0 / refine-intra=0 / refine-inter=0 / refine-mv=1 / refine-ctu-distortion=0 / no-limit-sao / ctu-info=0 / no-lowpass-dct / refine-analysis-type=0 / copy-pic=1 / max-ausize-factor=1.0 / no-dynamic-refine / no-single-sei / no-hevc-aq / no-svt / no-field / qp-adaptation-range=1.00 / scenecut-aware-qp=0conformance-window-offsets / right=0 / bottom=0 / decoder-max-rate=0 / no-vbv-live-multi-pass / no-mcstf / no-sbrc
Язык : English
Default : Да
Forced : Нет

Аудио #1
Идентификатор : 2
Формат : AC-3
Формат/Информация : Audio Coding 3
Коммерческое название : Dolby Digital
Идентификатор кодека : A_AC3
Продолжительность : 1 ч. 37 м.
Вид битрейта : Постоянный
Битрейт : 192 Кбит/сек
Каналы : 2 канала
Channel layout : L R
Частота : 48,0 КГц
Частота кадров : 31,250 кадров/сек (1536 SPF)
Метод сжатия : С потерями
Размер потока : 133 Мбайт (2%)
Заголовок : MVO
Язык : Russian
Service kind : Complete Main
Default : Да
Forced : Нет

Аудио #2
Идентификатор : 3
Формат : AC-3
Формат/Информация : Audio Coding 3
Коммерческое название : Dolby Digital
Идентификатор кодека : A_AC3
Продолжительность : 1 ч. 37 м.
Вид битрейта : Постоянный
Битрейт : 192 Кбит/сек
Каналы : 2 канала
Channel layout : L R
Частота : 48,0 КГц
Частота кадров : 31,250 кадров/сек (1536 SPF)
Метод сжатия : С потерями
Размер потока : 133 Мбайт (2%)
Заголовок : MVO (ОРТ)
Язык : Russian
Service kind : Complete Main
Default : Нет
Forced : Нет

Аудио #3
Идентификатор : 4
Формат : AC-3
Формат/Информация : Audio Coding 3
Коммерческое название : Dolby Digital
Идентификатор кодека : A_AC3
Продолжительность : 1 ч. 37 м.
Вид битрейта : Постоянный
Битрейт : 640 Кбит/сек
Каналы : 2 канала
Channel layout : L R
Частота : 48,0 КГц
Частота кадров : 31,250 кадров/сек (1536 SPF)
Метод сжатия : С потерями
Размер потока : 445 Мбайт (6%)
Заголовок : AVO (Михаил Иванов)
Язык : Russian
Service kind : Complete Main
Default : Нет
Forced : Нет

Аудио #4
Идентификатор : 5
Формат : AC-3
Формат/Информация : Audio Coding 3
Коммерческое название : Dolby Digital
Идентификатор кодека : A_AC3
Продолжительность : 1 ч. 37 м.
Вид битрейта : Постоянный
Битрейт : 192 Кбит/сек
Каналы : 2 канала
Channel layout : L R
Частота : 48,0 КГц
Частота кадров : 31,250 кадров/сек (1536 SPF)
Метод сжатия : С потерями
Размер потока : 133 Мбайт (2%)
Заголовок : AVO (Андрей Гаврилов)
Язык : Russian
Service kind : Complete Main
Default : Нет
Forced : Нет

Аудио #5
Идентификатор : 6
Формат : AC-3
Формат/Информация : Audio Coding 3
Коммерческое название : Dolby Digital
Идентификатор кодека : A_AC3
Продолжительность : 1 ч. 37 м.
Вид битрейта : Постоянный
Битрейт : 192 Кбит/сек
Каналы : 2 канала
Channel layout : L R
Частота : 48,0 КГц
Частота кадров : 31,250 кадров/сек (1536 SPF)
Метод сжатия : С потерями
Размер потока : 133 Мбайт (2%)
Заголовок : AVO (Сергей Визгунов)
Язык : Russian
Service kind : Complete Main
Default : Нет
Forced : Нет

Аудио #6
Идентификатор : 7
Формат : AC-3
Формат/Информация : Audio Coding 3
Коммерческое название : Dolby Digital
Идентификатор кодека : A_AC3
Продолжительность : 1 ч. 37 м.
Вид битрейта : Постоянный
Битрейт : 192 Кбит/сек
Каналы : 2 канала
Channel layout : L R
Частота : 48,0 КГц
Частота кадров : 31,250 кадров/сек (1536 SPF)
Метод сжатия : С потерями
Размер потока : 133 Мбайт (2%)
Заголовок : AVO (Василий Горчаков)
Язык : Russian
Service kind : Complete Main
Default : Нет
Forced : Нет

Аудио #7
Идентификатор : 8
Формат : AC-3
Формат/Информация : Audio Coding 3
Коммерческое название : Dolby Digital
Идентификатор кодека : A_AC3
Продолжительность : 1 ч. 37 м.
Вид битрейта : Постоянный
Битрейт : 192 Кбит/сек
Каналы : 2 канала
Channel layout : L R
Частота : 48,0 КГц
Частота кадров : 31,250 кадров/сек (1536 SPF)
Метод сжатия : С потерями
Размер потока : 133 Мбайт (2%)
Заголовок : AVO (Андрей Дольский)
Язык : Russian
Service kind : Complete Main
Default : Нет
Forced : Нет

Аудио #8
Идентификатор : 9
Формат : AC-3
Формат/Информация : Audio Coding 3
Коммерческое название : Dolby Digital
Идентификатор кодека : A_AC3
Продолжительность : 1 ч. 37 м.
Вид битрейта : Постоянный
Битрейт : 192 Кбит/сек
Каналы : 2 канала
Channel layout : L R
Частота : 48,0 КГц
Частота кадров : 31,250 кадров/сек (1536 SPF)
Метод сжатия : С потерями
Размер потока : 133 Мбайт (2%)
Заголовок : AVO (Владислав Огородников)
Язык : Russian
Service kind : Complete Main
Default : Нет
Forced : Нет

Аудио #9
Идентификатор : 10
Формат : AC-3
Формат/Информация : Audio Coding 3
Коммерческое название : Dolby Digital
Идентификатор кодека : A_AC3
Продолжительность : 1 ч. 37 м.
Вид битрейта : Постоянный
Битрейт : 192 Кбит/сек
Каналы : 2 канала
Channel layout : L R
Частота : 48,0 КГц
Частота кадров : 31,250 кадров/сек (1536 SPF)
Метод сжатия : С потерями
Размер потока : 133 Мбайт (2%)
Заголовок : AVO (Юрий Сербин)
Язык : Russian
Service kind : Complete Main
Default : Нет
Forced : Нет

Аудио #10
Идентификатор : 11
Формат : AC-3
Формат/Информация : Audio Coding 3
Коммерческое название : Dolby Digital
Идентификатор кодека : A_AC3
Продолжительность : 1 ч. 37 м.
Вид битрейта : Постоянный
Битрейт : 192 Кбит/сек
Каналы : 2 канала
Channel layout : L R
Частота : 48,0 КГц
Частота кадров : 31,250 кадров/сек (1536 SPF)
Метод сжатия : С потерями
Размер потока : 133 Мбайт (2%)
Заголовок : AVO (Сергей Кузнецов)
Язык : Russian
Service kind : Complete Main
Default : Нет
Forced : Нет

Аудио #11
Идентификатор : 12
Формат : AC-3
Формат/Информация : Audio Coding 3
Коммерческое название : Dolby Digital
Идентификатор кодека : A_AC3
Продолжительность : 1 ч. 37 м.
Вид битрейта : Постоянный
Битрейт : 192 Кбит/сек
Каналы : 2 канала
Channel layout : L R
Частота : 48,0 КГц
Частота кадров : 31,250 кадров/сек (1536 SPF)
Метод сжатия : С потерями
Размер потока : 133 Мбайт (2%)
Заголовок : VO (студия "Орбита") + вставки Сергея Кузнецова
Язык : Russian
Service kind : Complete Main
Default : Нет
Forced : Нет

Аудио #12
Идентификатор : 13
Формат : AC-3
Формат/Информация : Audio Coding 3
Коммерческое название : Dolby Digital
Идентификатор кодека : A_AC3
Продолжительность : 1 ч. 37 м.
Вид битрейта : Постоянный
Битрейт : 640 Кбит/сек
Каналы : 2 канала
Channel layout : L R
Частота : 48,0 КГц
Частота кадров : 31,250 кадров/сек (1536 SPF)
Метод сжатия : С потерями
Размер потока : 445 Мбайт (6%)
Язык : English
Service kind : Complete Main
Default : Нет
Forced : Нет

Текст #1
Идентификатор : 14
Формат : UTF-8
Идентификатор кодека : S_TEXT/UTF8
Идентификатор кодека/Информация : UTF-8 Plain Text
Продолжительность : 1 ч. 31 м.
Битрейт : 60 бит/сек
Частота кадров : 0,120 кадр/сек
Count of elements : 662
Размер потока : 40,9 Кбайт (0%)
Язык : Russian
Default : Нет
Forced : Нет

Текст #2
Идентификатор : 15
Формат : UTF-8
Идентификатор кодека : S_TEXT/UTF8
Идентификатор кодека/Информация : UTF-8 Plain Text
Продолжительность : 1 ч. 37 м.
Битрейт : 42 бит/сек
Частота кадров : 0,187 кадр/сек
Count of elements : 1086
Размер потока : 30,2 Кбайт (0%)
Язык : English
Default : Нет
Forced : Нет

Меню
00:00:00.000 : en:
00:09:41.746 : en:
00:15:37.144 : en:
00:25:14.638 : en:
00:38:36.897 : en:
00:45:00.030 : en:
00:49:57.619 : en:
00:55:27.824 : en:
01:05:02.148 : en:
01:18:26.743 : en:
01:27:30.161 : en:
01:33:40.613 : en:
Загрузка...Cкриншот1 Музей восковых фигур / Waxwork (1988) BDRip 1080p [HEVC] 10 bit от OldGamerЗагрузка...Cкриншот2 Музей восковых фигур / Waxwork (1988) BDRip 1080p [HEVC] 10 bit от OldGamerЗагрузка...Cкриншот3 Музей восковых фигур / Waxwork (1988) BDRip 1080p [HEVC] 10 bit от OldGamerЗагрузка...Cкриншот4 Музей восковых фигур / Waxwork (1988) BDRip 1080p [HEVC] 10 bit от OldGamer
Сэмпл
4. Музей восковых фигур 2 / Waxwork II: Lost in Time (1991) BDRip 1080p [HEVC] 10 bit от OldGamer
HEVC
10 bit
Обложка Музей восковых фигур 2 / Waxwork II: Lost in Time (1991) BDRip 1080p [HEVC] 10 bit от OldGamer Год: 1991
Страна: США, Великобритания
Студия: Contemporary Films, Electric Pictures, Lost In Time Productions
Жанр: Ужасы, Фантастика, Фэнтези, Комедия
Продолжительность: 01:44:17

Режиссер: Энтони Хикокс
В ролях: Зак Гэллиган, Моника Шнарре, Мартин Кемп, Брюс Кэмпбелл, Майкл Де Барр, Джим Метцлер, Софи Уорд, Марина Сиртис, Билли Кэйн, Джо Бэйкер

Описание: Музей восковых фигур и его зловещие обитатели уничтожены в пламени пожара. Но так ли это? Выбравшись из горящего здания, Марк и Сара не заметили, как отрубленная рука увязалась за ними и жестоко убила её отчима. Но никто не верит рассказам о Музее восковых фигур, и Саре предъявлено обвинение в убийстве. Тогда Марк и Сара через временной портал проникают в другие миры и измерения, где вступают в сражения с многочисленными силами зла - от Франкенштейна и Джека-потрошителя, до вампиров и живых мертвецов. Только так они смогут доказать невиновность Сары.


Исходник: Blu-Ray Remux 1080p (rutracker)
Видео: 1920x1040, 7828 Kbps
Аудио1: AC3, 2 ch, 192 Kbps - РусскийРусский, MVO (ТНТ)
Аудио2: AC3, 2 ch, 224 Kbps - РусскийРусский, AVO (Юрий Сербин)
Аудио3: AC3, 2 ch, 192 Kbps - РусскийРусский, AVO (Сергей Визгунов)
Аудио4: AC3, 2 ch, 192 Kbps - РусскийРусский, AVO (Андрей Гаврилов)
Аудио5: AC3, 2 ch, 640 Kbps - АнглийскийАнглийский
Субтитры: английские

Как за пару секунд удалить ненужные аудиодорожки и субтитры (Внимание! После удаления вы не сможете поддержать раздачу)

Лог (x265 info)
x265 [info]: frame I: 639, Avg QP:17.79 kb/s: 15545.08
x265 [info]: frame P: 27282, Avg QP:19.20 kb/s: 13153.41
x265 [info]: frame B: 122093, Avg QP:20.88 kb/s: 6597.18
x265 [info]: Weighted P-Frames: Y:15.7% UV:12.8%
x265 [info]: Weighted B-Frames: Y:13.8% UV:11.1%
x265 [info]: encoded 150014 frames in 153398.08s (0.98 fps), 7827.63 kb/s, Avg QP:20.56
Медиаинфо
Общее
Уникальный идентификатор : 176645652124619451697987130013880879243 (0x84E4B7109D37C0A9F3CEDC201EA3088B)
Полное имя : \\.\04.Музей.восковых.фигур.2.Waxwork.II.Lost.in.Time.1992.BDRip-HEVC.1080p.mkv
Формат : Matroska
Версия формата : Version 4
Размер файла : 6,75 Гбайт
Продолжительность : 1 ч. 44 м.
Общий поток : 9 271 Кбит/сек
Частота кадров : 23,976 кадра/сек
Дата кодирования : 2023-12-29 13:10:52 UTC
Программа кодирования : mkvmerge v81.0 ('Milliontown') 64-bit
Библиотека кодирования : libebml v1.4.4 + libmatroska v1.7.1

Видео
Идентификатор : 1
Формат : HEVC
Формат/Информация : High Efficiency Video Coding
Профиль формата : Main 10@L4.1@High
Идентификатор кодека : V_MPEGH/ISO/HEVC
Продолжительность : 1 ч. 44 м.
Битрейт : 7 828 Кбит/сек
Ширина : 1 920 пикселей
Высота : 1 040 пикселей
Соотношение сторон : 1,85:1
Режим частоты кадров : Постоянный
Частота кадров : 23,976 (24000/1001) кадра/сек
Цветовое пространство : YUV
Субдискретизация насыщенности : 4:2:0
Битовая глубина : 10 бит
Бит/(Пиксели*Кадры) : 0.164
Размер потока : 5,70 Гбайт (84%)
Заголовок : Waxwork II: Lost in Time / Rip by OldGamer
Библиотека кодирования : x265 3.5+110-8ee01d45b:[Windows][GCC 13.2.0][64 bit] 10bit
Настройки программы : cpuid=1111039 / frame-threads=3 / numa-pools=8 / wpp / no-pmode / no-pme / no-psnr / no-ssim / log-level=2 / input-csp=1 / input-res=1920x1040 / interlace=0 / total-frames=150014 / level-idc=41 / high-tier=1 / uhd-bd=0 / ref=5 / no-allow-non-conformance / no-repeat-headers / annexb / no-aud / no-eob / no-eos / no-hrd / info / hash=0 / temporal-layers=0 / open-gop / min-keyint=23 / keyint=240 / gop-lookahead=0 / bframes=16 / b-adapt=2 / b-pyramid / bframe-bias=0 / rc-lookahead=40 / lookahead-slices=0 / scenecut=40 / no-hist-scenecut / radl=0 / no-splice / no-intra-refresh / ctu=32 / min-cu-size=8 / rect / amp / max-tu-size=32 / tu-inter-depth=4 / tu-intra-depth=4 / limit-tu=1 / rdoq-level=2 / dynamic-rd=0.00 / no-ssim-rd / signhide / no-tskip / nr-intra=0 / nr-inter=0 / no-constrained-intra / no-strong-intra-smoothing / max-merge=5 / limit-refs=3 / no-limit-modes / me=3 / subme=7 / merange=57 / temporal-mvp / no-frame-dup / no-hme / weightp / weightb / no-analyze-src-pics / deblock=-2:-2 / no-sao / no-sao-non-deblock / rd=6 / selective-sao=0 / no-early-skip / no-rskip / no-fast-intra / no-tskip-fast / no-cu-lossless / b-intra / no-splitrd-skip / rdpenalty=0 / psy-rd=2.00 / psy-rdoq=1.00 / no-rd-refine / no-lossless / cbqpoffs=0 / crqpoffs=0 / rc=crf / crf=21.3 / qcomp=0.60 / qpstep=4 / stats-write=0 / stats-read=0 / vbv-maxrate=50000 / vbv-bufsize=50000 / vbv-init=0.9 / min-vbv-fullness=50.0 / max-vbv-fullness=80.0 / crf-max=0.0 / crf-min=0.0 / ipratio=1.40 / pbratio=1.30 / aq-mode=1 / aq-strength=1.00 / no-cutree / zone-count=1 / zones: / start-frame=149776 / end-frame=150014 / qp=36 / no-strict-cbr / qg-size=32 / no-rc-grain / qpmax=69 / qpmin=0 / no-const-vbv / sar=1 / overscan=0 / videoformat=5 / range=0 / colorprim=2 / transfer=2 / colormatrix=2 / chromaloc=0 / display-window=0 / cll=0,0 / min-luma=0 / max-luma=1023 / log2-max-poc-lsb=8 / vui-timing-info / vui-hrd-info / slices=1 / no-opt-qp-pps / no-opt-ref-list-length-pps / no-multi-pass-opt-rps / scenecut-bias=0.00 / no-opt-cu-delta-qp / no-aq-motion / no-hdr10 / no-hdr10-opt / no-dhdr10-opt / no-idr-recovery-sei / analysis-reuse-level=0 / analysis-save-reuse-level=0 / analysis-load-reuse-level=0 / scale-factor=0 / refine-intra=0 / refine-inter=0 / refine-mv=1 / refine-ctu-distortion=0 / no-limit-sao / ctu-info=0 / no-lowpass-dct / refine-analysis-type=0 / copy-pic=1 / max-ausize-factor=1.0 / no-dynamic-refine / no-single-sei / no-hevc-aq / no-svt / no-field / qp-adaptation-range=1.00 / scenecut-aware-qp=0conformance-window-offsets / right=0 / bottom=0 / decoder-max-rate=0 / no-vbv-live-multi-pass / no-mcstf / no-sbrc
Язык : English
Default : Да
Forced : Нет

Аудио #1
Идентификатор : 2
Формат : AC-3
Формат/Информация : Audio Coding 3
Коммерческое название : Dolby Digital
Идентификатор кодека : A_AC3
Продолжительность : 1 ч. 44 м.
Вид битрейта : Постоянный
Битрейт : 192 Кбит/сек
Каналы : 2 канала
Channel layout : L R
Частота : 48,0 КГц
Частота кадров : 31,250 кадров/сек (1536 SPF)
Метод сжатия : С потерями
Размер потока : 143 Мбайт (2%)
Заголовок : MVO (ТНТ)
Язык : Russian
Service kind : Complete Main
Default : Да
Forced : Нет

Аудио #2
Идентификатор : 3
Формат : AC-3
Формат/Информация : Audio Coding 3
Коммерческое название : Dolby Digital
Идентификатор кодека : A_AC3
Продолжительность : 1 ч. 44 м.
Вид битрейта : Постоянный
Битрейт : 224 Кбит/сек
Каналы : 2 канала
Channel layout : L R
Частота : 48,0 КГц
Частота кадров : 31,250 кадров/сек (1536 SPF)
Метод сжатия : С потерями
Размер потока : 167 Мбайт (2%)
Заголовок : AVO (Юрий Сербин)
Язык : Russian
Service kind : Complete Main
Default : Нет
Forced : Нет

Аудио #3
Идентификатор : 4
Формат : AC-3
Формат/Информация : Audio Coding 3
Коммерческое название : Dolby Digital
Идентификатор кодека : A_AC3
Продолжительность : 1 ч. 44 м.
Вид битрейта : Постоянный
Битрейт : 192 Кбит/сек
Каналы : 2 канала
Channel layout : L R
Частота : 48,0 КГц
Частота кадров : 31,250 кадров/сек (1536 SPF)
Метод сжатия : С потерями
Размер потока : 143 Мбайт (2%)
Заголовок : AVO (Сергей Визгунов)
Язык : Russian
Service kind : Complete Main
Default : Нет
Forced : Нет

Аудио #4
Идентификатор : 5
Формат : AC-3
Формат/Информация : Audio Coding 3
Коммерческое название : Dolby Digital
Идентификатор кодека : A_AC3
Продолжительность : 1 ч. 44 м.
Вид битрейта : Постоянный
Битрейт : 192 Кбит/сек
Каналы : 2 канала
Channel layout : L R
Частота : 48,0 КГц
Частота кадров : 31,250 кадров/сек (1536 SPF)
Метод сжатия : С потерями
Размер потока : 143 Мбайт (2%)
Заголовок : AVO (Андрей Гаврилов)
Язык : Russian
Service kind : Complete Main
Default : Нет
Forced : Нет

Аудио #5
Идентификатор : 6
Формат : AC-3
Формат/Информация : Audio Coding 3
Коммерческое название : Dolby Digital
Идентификатор кодека : A_AC3
Продолжительность : 1 ч. 44 м.
Вид битрейта : Постоянный
Битрейт : 640 Кбит/сек
Каналы : 2 канала
Channel layout : L R
Частота : 48,0 КГц
Частота кадров : 31,250 кадров/сек (1536 SPF)
Метод сжатия : С потерями
Размер потока : 477 Мбайт (7%)
Язык : English
Service kind : Complete Main
Default : Нет
Forced : Нет

Текст
Идентификатор : 7
Формат : UTF-8
Идентификатор кодека : S_TEXT/UTF8
Идентификатор кодека/Информация : UTF-8 Plain Text
Продолжительность : 1 ч. 42 м.
Битрейт : 41 бит/сек
Частота кадров : 0,189 кадр/сек
Count of elements : 1158
Размер потока : 31,1 Кбайт (0%)
Язык : English
Default : Нет
Forced : Нет
Загрузка...Cкриншот1 Музей восковых фигур 2 / Waxwork II: Lost in Time (1991) BDRip 1080p [HEVC] 10 bit от OldGamerЗагрузка...Cкриншот2 Музей восковых фигур 2 / Waxwork II: Lost in Time (1991) BDRip 1080p [HEVC] 10 bit от OldGamerЗагрузка...Cкриншот3 Музей восковых фигур 2 / Waxwork II: Lost in Time (1991) BDRip 1080p [HEVC] 10 bit от OldGamerЗагрузка...Cкриншот4 Музей восковых фигур 2 / Waxwork II: Lost in Time (1991) BDRip 1080p [HEVC] 10 bit от OldGamer
Сэмпл
5. Дом восковых фигур / House of Wax (2005) BDRip 1080p [HEVC] 10 bit от OldGamer
HEVC
10 bit
Обложка Дом восковых фигур / House of Wax (2005) BDRip 1080p [HEVC] 10 bit от OldGamer Год: 2005
Страна: Австралия, США
Студия: Dark Castle Entertainment, Village Roadshow Pictures, Warner Bros. Pictures
Жанр: Ужасы, Триллер
Продолжительность: 01:52:44

Режиссер: Жауме Кольет-Серра
В ролях: Элиша Катберт, Чад Майкл Мюррэй, Брайан Ван Холт, Пэрис Хилтон, Джаред Падалеки, Джон Абрахамс, Роберт Ричард, Драгици Деберт, Томас Адамсон, Мюррэй Смит

Описание: Автомобиль ломается, и компании молодых людей приходится обратиться за помощью к обитателям маленького заброшенного городка. Главной достопримечательностью этой местности является дом с большим количеством реалистичных восковых фигур.


Исходник: Blu-Ray Remux 1080p (rutracker)
Видео: 1920x1080, 7526 Kbps
Аудио1: AC3, 6 ch, 448 Kbps - РусскийРусский, DUB (Blu-ray Disc)
Аудио2: AC3, 2 ch, 192 Kbps - РусскийРусский, DUB (SDI MEDIA)
Аудио3: AC3, 6 ch, 448 Kbps - РусскийРусский, MVO (Tycoon)
Аудио4: AC3, 2 ch, 192 Kbps - РусскийРусский, MVO (ТВ-3)
Аудио5: AC3, 6 ch, 448 Kbps - РусскийРусский, AVO (Юрий Живов)
Аудио6: AC3, 6 ch, 640 Kbps - АнглийскийАнглийский
Субтитры: русские, английские (SDH)

Как за пару секунд удалить ненужные аудиодорожки и субтитры (Внимание! После удаления вы не сможете поддержать раздачу)

Лог (x265 info)
x265 [info]: frame I: 687, Avg QP:18.05 kb/s: 13256.06
x265 [info]: frame P: 28648, Avg QP:19.79 kb/s: 11376.68
x265 [info]: frame B: 132853, Avg QP:21.27 kb/s: 6664.59
x265 [info]: Weighted P-Frames: Y:14.6% UV:12.6%
x265 [info]: Weighted B-Frames: Y:19.7% UV:15.8%
x265 [info]: encoded 162188 frames in 170195.09s (0.95 fps), 7524.83 kb/s, Avg QP:20.99
Медиаинфо
Общее
Уникальный идентификатор : 238954640875488865481331398649642318231 (0xB3C4FD64ECBF9FFF6B4FB15F847D7997)
Полное имя : \\.\05.Дом.восковых.фигур.House.of.Wax.2005.BDRip-HEVC.1080p.mkv
Формат : Matroska
Версия формата : Version 4
Размер файла : 7,79 Гбайт
Продолжительность : 1 ч. 52 м.
Общий поток : 9 897 Кбит/сек
Частота кадров : 23,976 кадра/сек
Дата кодирования : 2023-12-31 09:09:54 UTC
Программа кодирования : mkvmerge v81.0 ('Milliontown') 64-bit
Библиотека кодирования : libebml v1.4.4 + libmatroska v1.7.1

Видео
Идентификатор : 1
Формат : HEVC
Формат/Информация : High Efficiency Video Coding
Профиль формата : Main 10@L4.1@High
Идентификатор кодека : V_MPEGH/ISO/HEVC
Продолжительность : 1 ч. 52 м.
Битрейт : 7 526 Кбит/сек
Ширина : 1 920 пикселей
Высота : 1 080 пикселей
Соотношение сторон : 16:9
Режим частоты кадров : Постоянный
Частота кадров : 23,976 (24000/1001) кадра/сек
Цветовое пространство : YUV
Субдискретизация насыщенности : 4:2:0
Битовая глубина : 10 бит
Бит/(Пиксели*Кадры) : 0.151
Размер потока : 5,93 Гбайт (76%)
Заголовок : House of Wax / Rip by OldGamer
Библиотека кодирования : x265 3.5+110-8ee01d45b:[Windows][GCC 13.2.0][64 bit] 10bit
Настройки программы : cpuid=1111039 / frame-threads=3 / numa-pools=8 / wpp / no-pmode / no-pme / no-psnr / no-ssim / log-level=2 / input-csp=1 / input-res=1920x1080 / interlace=0 / total-frames=162188 / level-idc=41 / high-tier=1 / uhd-bd=0 / ref=5 / no-allow-non-conformance / no-repeat-headers / annexb / no-aud / no-eob / no-eos / no-hrd / info / hash=0 / temporal-layers=0 / open-gop / min-keyint=23 / keyint=240 / gop-lookahead=0 / bframes=16 / b-adapt=2 / b-pyramid / bframe-bias=0 / rc-lookahead=40 / lookahead-slices=0 / scenecut=40 / no-hist-scenecut / radl=0 / no-splice / no-intra-refresh / ctu=32 / min-cu-size=8 / rect / amp / max-tu-size=32 / tu-inter-depth=4 / tu-intra-depth=4 / limit-tu=1 / rdoq-level=2 / dynamic-rd=0.00 / no-ssim-rd / signhide / no-tskip / nr-intra=0 / nr-inter=0 / no-constrained-intra / no-strong-intra-smoothing / max-merge=5 / limit-refs=3 / no-limit-modes / me=3 / subme=7 / merange=57 / temporal-mvp / no-frame-dup / no-hme / weightp / weightb / no-analyze-src-pics / deblock=-2:-2 / no-sao / no-sao-non-deblock / rd=6 / selective-sao=0 / no-early-skip / no-rskip / no-fast-intra / no-tskip-fast / no-cu-lossless / b-intra / no-splitrd-skip / rdpenalty=0 / psy-rd=2.00 / psy-rdoq=1.00 / no-rd-refine / no-lossless / cbqpoffs=0 / crqpoffs=0 / rc=crf / crf=21.5 / qcomp=0.60 / qpstep=4 / stats-write=0 / stats-read=0 / vbv-maxrate=50000 / vbv-bufsize=50000 / vbv-init=0.9 / min-vbv-fullness=50.0 / max-vbv-fullness=80.0 / crf-max=0.0 / crf-min=0.0 / ipratio=1.40 / pbratio=1.30 / aq-mode=1 / aq-strength=1.00 / no-cutree / zone-count=1 / zones: / start-frame=156913 / end-frame=162188 / qp=36 / no-strict-cbr / qg-size=32 / no-rc-grain / qpmax=69 / qpmin=0 / no-const-vbv / sar=1 / overscan=0 / videoformat=5 / range=0 / colorprim=2 / transfer=2 / colormatrix=2 / chromaloc=0 / display-window=0 / cll=0,0 / min-luma=0 / max-luma=1023 / log2-max-poc-lsb=8 / vui-timing-info / vui-hrd-info / slices=1 / no-opt-qp-pps / no-opt-ref-list-length-pps / no-multi-pass-opt-rps / scenecut-bias=0.00 / no-opt-cu-delta-qp / no-aq-motion / no-hdr10 / no-hdr10-opt / no-dhdr10-opt / no-idr-recovery-sei / analysis-reuse-level=0 / analysis-save-reuse-level=0 / analysis-load-reuse-level=0 / scale-factor=0 / refine-intra=0 / refine-inter=0 / refine-mv=1 / refine-ctu-distortion=0 / no-limit-sao / ctu-info=0 / no-lowpass-dct / refine-analysis-type=0 / copy-pic=1 / max-ausize-factor=1.0 / no-dynamic-refine / no-single-sei / no-hevc-aq / no-svt / no-field / qp-adaptation-range=1.00 / scenecut-aware-qp=0conformance-window-offsets / right=0 / bottom=0 / decoder-max-rate=0 / no-vbv-live-multi-pass / no-mcstf / no-sbrc
Язык : English
Default : Да
Forced : Нет

Аудио #1
Идентификатор : 2
ID in the original source medium : 4353 (0x1101)
Формат : AC-3
Формат/Информация : Audio Coding 3
Коммерческое название : Dolby Digital
Идентификатор кодека : A_AC3
Продолжительность : 1 ч. 52 м.
Вид битрейта : Постоянный
Битрейт : 448 Кбит/сек
Каналы : 6 каналов
Channel layout : L R C LFE Ls Rs
Частота : 48,0 КГц
Частота кадров : 31,250 кадров/сек (1536 SPF)
Метод сжатия : С потерями
Размер потока : 361 Мбайт (5%)
Заголовок : DUB (Blu-ray Disc)
Язык : Russian
Service kind : Complete Main
Default : Да
Forced : Нет
Носитель оригинала : Blu-ray

Аудио #2
Идентификатор : 3
Формат : AC-3
Формат/Информация : Audio Coding 3
Коммерческое название : Dolby Digital
Идентификатор кодека : A_AC3
Продолжительность : 1 ч. 52 м.
Вид битрейта : Постоянный
Битрейт : 192 Кбит/сек
Каналы : 2 канала
Channel layout : L R
Частота : 48,0 КГц
Частота кадров : 31,250 кадров/сек (1536 SPF)
Метод сжатия : С потерями
Размер потока : 155 Мбайт (2%)
Заголовок : DUB (SDI MEDIA)
Язык : Russian
Service kind : Complete Main
Default : Нет
Forced : Нет

Аудио #3
Идентификатор : 4
ID in the original source medium : 4354 (0x1102)
Формат : AC-3
Формат/Информация : Audio Coding 3
Коммерческое название : Dolby Digital
Идентификатор кодека : A_AC3
Продолжительность : 1 ч. 52 м.
Вид битрейта : Постоянный
Битрейт : 448 Кбит/сек
Каналы : 6 каналов
Channel layout : L R C LFE Ls Rs
Частота : 48,0 КГц
Частота кадров : 31,250 кадров/сек (1536 SPF)
Метод сжатия : С потерями
Размер потока : 361 Мбайт (5%)
Заголовок : MVO (Tycoon)
Язык : Russian
Service kind : Voice Over
Default : Нет
Forced : Нет
Носитель оригинала : Blu-ray

Аудио #4
Идентификатор : 5
Формат : AC-3
Формат/Информация : Audio Coding 3
Коммерческое название : Dolby Digital
Идентификатор кодека : A_AC3
Продолжительность : 1 ч. 52 м.
Вид битрейта : Постоянный
Битрейт : 192 Кбит/сек
Каналы : 2 канала
Channel layout : L R
Частота : 48,0 КГц
Частота кадров : 31,250 кадров/сек (1536 SPF)
Метод сжатия : С потерями
Размер потока : 155 Мбайт (2%)
Заголовок : MVO (ТВ-3)
Язык : Russian
Service kind : Complete Main
Default : Нет
Forced : Нет

Аудио #5
Идентификатор : 6
Формат : AC-3
Формат/Информация : Audio Coding 3
Коммерческое название : Dolby Digital
Идентификатор кодека : A_AC3
Продолжительность : 1 ч. 52 м.
Вид битрейта : Постоянный
Битрейт : 448 Кбит/сек
Каналы : 6 каналов
Channel layout : L R C LFE Ls Rs
Частота : 48,0 КГц
Частота кадров : 31,250 кадров/сек (1536 SPF)
Метод сжатия : С потерями
Размер потока : 361 Мбайт (5%)
Заголовок : AVO (Андрей Гаврилов)
Язык : Russian
Service kind : Complete Main
Default : Нет
Forced : Нет

Аудио #6
Идентификатор : 7
ID in the original source medium : 4352 (0x1100)
Формат : AC-3
Формат/Информация : Audio Coding 3
Коммерческое название : Dolby Digital
Идентификатор кодека : A_AC3
Продолжительность : 1 ч. 52 м.
Вид битрейта : Постоянный
Битрейт : 640 Кбит/сек
Каналы : 6 каналов
Channel layout : L R C LFE Ls Rs
Частота : 48,0 КГц
Частота кадров : 31,250 кадров/сек (1536 SPF)
Метод сжатия : С потерями
Размер потока : 516 Мбайт (6%)
Язык : English
Service kind : Complete Main
Default : Нет
Forced : Нет
Носитель оригинала : Blu-ray

Текст #1
Идентификатор : 8
Формат : UTF-8
Идентификатор кодека : S_TEXT/UTF8
Идентификатор кодека/Информация : UTF-8 Plain Text
Продолжительность : 1 ч. 44 м.
Битрейт : 63 бит/сек
Частота кадров : 0,144 кадр/сек
Count of elements : 901
Размер потока : 48,8 Кбайт (0%)
Язык : Russian
Default : Нет
Forced : Нет

Текст #2
Идентификатор : 9
Формат : UTF-8
Идентификатор кодека : S_TEXT/UTF8
Идентификатор кодека/Информация : UTF-8 Plain Text
Продолжительность : 1 ч. 44 м.
Битрейт : 38 бит/сек
Частота кадров : 0,141 кадр/сек
Count of elements : 882
Размер потока : 29,8 Кбайт (0%)
Язык : English
Default : Нет
Forced : Нет

Текст #3
Идентификатор : 10
Формат : UTF-8
Идентификатор кодека : S_TEXT/UTF8
Идентификатор кодека/Информация : UTF-8 Plain Text
Продолжительность : 1 ч. 52 м.
Битрейт : 55 бит/сек
Частота кадров : 0,268 кадр/сек
Count of elements : 1811
Размер потока : 45,8 Кбайт (0%)
Заголовок : SDH
Язык : English
Default : Нет
Forced : Нет

Меню
00:00:00.000 : en:Chapter 01
00:03:05.602 : en:Chapter 02
00:06:23.966 : en:Chapter 03
00:09:52.967 : en:Chapter 04
00:12:58.277 : en:Chapter 05
00:16:42.001 : en:Chapter 06
00:19:25.789 : en:Chapter 07
00:21:58.400 : en:Chapter 08
00:25:35.116 : en:Chapter 09
00:29:43.448 : en:Chapter 10
00:33:47.900 : en:Chapter 11
00:40:11.534 : en:Chapter 12
00:44:33.629 : en:Chapter 13
00:48:18.729 : en:Chapter 14
00:52:17.801 : en:Chapter 15
00:55:46.760 : en:Chapter 16
00:59:14.884 : en:Chapter 17
01:03:13.039 : en:Chapter 18
01:06:43.416 : en:Chapter 19
01:09:01.971 : en:Chapter 20
01:11:04.260 : en:Chapter 21
01:13:58.183 : en:Chapter 22
01:17:40.322 : en:Chapter 23
01:22:45.335 : en:Chapter 24
01:27:10.058 : en:Chapter 25
01:31:48.961 : en:Chapter 26
01:34:46.180 : en:Chapter 27
01:38:08.549 : en:Chapter 28
01:41:15.527 : en:Chapter 29
01:44:26.176 : en:Chapter 30
01:47:00.914 : en:Chapter 31
Загрузка...Cкриншот1 Дом восковых фигур / House of Wax (2005) BDRip 1080p [HEVC] 10 bit от OldGamerЗагрузка...Cкриншот2 Дом восковых фигур / House of Wax (2005) BDRip 1080p [HEVC] 10 bit от OldGamerЗагрузка...Cкриншот3 Дом восковых фигур / House of Wax (2005) BDRip 1080p [HEVC] 10 bit от OldGamerЗагрузка...Cкриншот4 Дом восковых фигур / House of Wax (2005) BDRip 1080p [HEVC] 10 bit от OldGamer
Сэмпл
Релиз-группа: RIPS CLUB
Торрент🧲 Магнет

Рейтинги КП и IMDB, кнопки "Позвать в чате" и "Спасибо", а также мультитрекерная статистика доступны только зарегистрированным/авторизованным пользователям!

Файлы: 5
  • House of Wax
    • 01.Тайна.музея.восковых.фигур.Mystery.of.the.Wax.Museum.1933.BDRip-HEVC.1080p.mkv   3.87 ГБ
    • 02.Музей.восковых.фигур.House.of.Wax.1953.BDRip-HEVC.1080p.mkv   5.65 ГБ
    • 03.Музей.восковых.фигур.Waxwork.1988.BDRip-HEVC.1080p.mkv   7.24 ГБ
    • 04.Музей.восковых.фигур.2.Waxwork.II.Lost.in.Time.1992.BDRip-HEVC.1080p.mkv   6.75 ГБ
    • 05.Дом.восковых.фигур.House.of.Wax.2005.BDRip-HEVC.1080p.mkv   7.79 ГБ
Поблагодарили: 11
ancestor87, and50, AndresUA, bronsonw200, donadar, ExoticDeer, han-nik, kisa1980, SergKote, staxanovec77, Winsent
OldGamer
392102 (5)  31.3 ГБ

Добавление нового комментария

Добавление комментариев доступно только зарегистрированным/авторизованным пользователям.
Аватар OldGamer
  OldGamer  
bronsonw200 писал(а):
В пятом фильме вместо дубляжа SDI Media, многоголоска ТВ-3.
Да, есть такое. Дубляж положил рядом пока что, на будущее.
Аватар bronsonw200
  bronsonw200  
В пятом фильме вместо дубляжа SDI Media, многоголоска ТВ-3.
Аватар не указан
  staxanovec77  
OldGamer, мое почтение, вашей работе. Самый классный фильм детства. Где то для второй части видел русские субтитры. Как найду вам передам. Спасибо еще раз, обожаю этот фильм.