Чат

⚫︎
Список изменений сайта - https://rips.club/changelog.html (обновлен 24.05.2024)
  • arwis
Онлайн (за 10 мин.): 1
Отправка сообщений доступна только зарегистрированным/авторизованным пользователям.

🎥︎📺︎Локи / Loki (2021) [1 сезон] BDRip 1080p [HEVC] 10 bit от OldGamer (RG RIPS CLUB)


Обложка Локи / Loki (2021) [1 сезон] BDRip 1080p [HEVC] 10 bit от OldGamer (RG RIPS CLUB)
HEVC
10 bit
✂︎Сэмпл⤓︎Торрент🧲︎Магнет$Пожертвования

При перезаливке на другие сайты просьба указать автора и релиз-группу.


Год: 2021
Страна: США
Студия: Marvel Studios Inc.
Жанр: Фантастика, Фэнтези, Боевик, Приключения
Длительность: 04:46:17

Режиссер: Кейт Херрон, Джастин Бенсон, Аарон Мурхед
В ролях: Том Хиддлстон, Гугу Эмбата-Ро, Вунми Мосаку, Юджин Кордеро, Тара Стронг, Оуэн Уилсон, Софи Ди Мартино, Саша Лэйн, Деобиа Опарей, Ричард Э. Грант

Описание: Локи попадает в таинственную организацию «Управление временными изменениями» после того, как он украл Тессеракт, и путешествует во времени, меняя историю.


Релиз-группа: RIPS CLUB
Исходник: Blu-Ray Remux 1080p (SiCFoI)
Видео: 1920x804, 5417-6946 Kbps
Аудио1: AC3, 6 ch, 640 Kbps - РусскийРусский, DUB (HDRezka Studio)
Аудио2: AC3, 2 ch, 384 Kbps - РусскийРусский, DUB (Iron Voice)
Аудио3: AC3, 2 ch, 320 Kbps - РусскийРусский, DUB (Flarrow Films)
Аудио4: AC3, 6 ch, 384 Kbps - РусскийРусский, MVO (LostFilm)
Аудио5: AC3, 6 ch, 384 Kbps - РусскийРусский, MVO (AlexFilm)
Аудио6: AC3, 6 ch, 384 Kbps - РусскийРусский, MVO (TVShows)
Аудио7: AC3, 6 ch, 384 Kbps - УкраинскийУкраинский, MVO (Цікава Ідея)
Аудио8: AC3, 6 ch, 384 Kbps - УкраинскийУкраинский, MVO (DniproFilm)
Аудио9: AC3, 6 ch, 640 Kbps - АнглийскийАнглийский
Субтитры: русские (full, forced), украинские (forced), английские

Как за несколько секунд удалить ненужные аудиодорожки и субтитры (Внимание! После удаления вы не сможете поддержать раздачу)


Лог (x265 info)x265 [info]: frame I: 291, Avg QP:17.87 kb/s: 19174.62
x265 [info]: frame P: 7740, Avg QP:18.79 kb/s: 15353.58
x265 [info]: frame B: 60632, Avg QP:21.34 kb/s: 4926.13
x265 [info]: Weighted P-Frames: Y:10.7% UV:8.6%
x265 [info]: Weighted B-Frames: Y:7.2% UV:5.4%
x265 [info]: encoded 68663 frames in 37913.89s (1.81 fps), 6161.94 kb/s, Avg QP:21.03
МедиаинфоОбщее
Уникальный идентификатор : 276703474747521530814340512875844188619 (0xD02B269912F615A90B0EB453565BB9CB)
Полное имя : \\.\Loki.S01E04.The.Nexus.Event.mkv
Формат : Matroska
Версия формата : Version 4
Размер файла : 3,36 Гбайт
Продолжительность : 47 мин. 51 с.
Общий битрейт : 10,0 Мбит/сек
Частота кадров : 23,976 кадра/сек
Название фильма : Loki.S01E04.The.Nexus.Event / Смежное событие
Имя трека/Расположение : 1
Кодирование выполнил : OldGamer
Тип содержимого : TV Show
Описание : Когда Локи и Сильви сбегают, в Управлении временными расхождениями среди сотрудников нарастает напряжение и усиливается паранойя. Мобиус и Охотник Б-15 вынуждены отправиться в погоню, но смогут ли они разгадать планы бога коварства?
Дата выпуска : 2021-06-30
Дата записи : 2021-06-30
Программа кодирования : mkvmerge v83.0 ('Circle Of Friends') 64-bit
Библиотека кодирования : libebml v1.4.5 + libmatroska v1.7.1 / xvid4psp5
Обложка : Yes
Attachments : cover.jpg
ACTOR : Том Хиддлстон, Sophia di Martino, Gugu Mbatha-Raw, Wunmi Mosaku, Tara Strong, Оуэн Уилсон, Кейли Флеминг, Jon Levine, Aaron Beelner, Philip Fornah, Dave MacDonald, Michelle Rose, Sasha Lane, Isabelle Pierre, Lauren Halperin, Nicholas Zarrillo, Matthe...
ARTIST : Том Хиддлстон, Sophia di Martino, Gugu Mbatha-Raw, Wunmi Mosaku, Tara Strong, Оуэн Уилсон, Кейли Флеминг, Jon Levine, Aaron Beelner, Philip Fornah, Dave MacDonald, Michelle Rose, Sasha Lane, Isabelle Pierre, Lauren Halperin, Nicholas Zarrillo, Matthe...
DIRECTOR : Kate Herron
EPISODE.PART_NUM : 4
GENRE : драма, НФ и Фэнтези
LAW_RATING : TV-14
RATING : TV-14
SCREENPLAY_BY : Eric Martin
SEASON.PART_NUM : 1
SUMMARY : Когда Локи и Сильви сбегают, в Управлении временными расхождениями среди сотрудников нарастает напряжение и усиливается паранойя. Мобиус и Охотник Б-15 вынуждены отправиться в погоню, но смогут ли они разгадать планы бога коварства?
SYNOPSIS : Когда Локи и Сильви сбегают, в Управлении временными расхождениями среди сотрудников нарастает напряжение и усиливается паранойя. Мобиус и Охотник Б-15 вынуждены отправиться в погоню, но смогут ли они разгадать планы бога коварства? Локи на время получает ощущение свободы, но удастся ли ему надолго задержаться на воле?
WRITTEN_BY : Eric Martin

Видео
Идентификатор : 1
Формат : HEVC
Формат/Информация : High Efficiency Video Coding
Профиль формата : Main 10@L4.1@High
Идентификатор кодека : V_MPEGH/ISO/HEVC
Продолжительность : 47 мин. 43 с.
Битрейт : 6 163 Кбит/сек
Ширина : 1 920 пикселей
Высота : 804 пикселя
Соотношение сторон дисплея : 2,39:1
Режим частоты кадров : Постоянный
Частота кадров : 23,976 (24000/1001) кадра/сек
Цветовое пространство : YUV
Цветовая субдискретизация : 4:2:0
Битовая глубина : 10 бит
Бит/(Пиксели*Кадры) : 0.167
Размер потока : 2,05 Гбайт (61%)
Заголовок : Loki S01E04 / Rip by OldGamer
Библиотека кодирования : x265 3.5+110-8ee01d45b:[Windows][GCC 13.2.0][64 bit] 10bit
Параметры библиотеки кодирования : cpuid=1111039 / frame-threads=4 / numa-pools=16 / wpp / no-pmode / no-pme / no-psnr / no-ssim / log-level=2 / input-csp=1 / input-res=1920x804 / interlace=0 / total-frames=68663 / level-idc=41 / high-tier=1 / uhd-bd=0 / ref=5 / no-allow-non-conformance / no-repeat-headers / annexb / no-aud / no-eob / no-eos / no-hrd / info / hash=0 / temporal-layers=0 / open-gop / min-keyint=23 / keyint=240 / gop-lookahead=0 / bframes=16 / b-adapt=2 / b-pyramid / bframe-bias=0 / rc-lookahead=40 / lookahead-slices=0 / scenecut=40 / no-hist-scenecut / radl=0 / no-splice / no-intra-refresh / ctu=32 / min-cu-size=8 / rect / amp / max-tu-size=32 / tu-inter-depth=4 / tu-intra-depth=4 / limit-tu=1 / rdoq-level=2 / dynamic-rd=0.00 / no-ssim-rd / signhide / no-tskip / nr-intra=0 / nr-inter=0 / no-constrained-intra / no-strong-intra-smoothing / max-merge=5 / limit-refs=3 / no-limit-modes / me=3 / subme=7 / merange=57 / temporal-mvp / no-frame-dup / no-hme / weightp / weightb / no-analyze-src-pics / deblock=-2:-2 / no-sao / no-sao-non-deblock / rd=6 / selective-sao=0 / no-early-skip / no-rskip / no-fast-intra / no-tskip-fast / no-cu-lossless / b-intra / no-splitrd-skip / rdpenalty=0 / psy-rd=2.00 / psy-rdoq=1.00 / no-rd-refine / no-lossless / cbqpoffs=0 / crqpoffs=0 / rc=crf / crf=20.8 / qcomp=0.60 / qpstep=4 / stats-write=0 / stats-read=0 / vbv-maxrate=50000 / vbv-bufsize=50000 / vbv-init=0.9 / min-vbv-fullness=50.0 / max-vbv-fullness=80.0 / crf-max=0.0 / crf-min=0.0 / ipratio=1.40 / pbratio=1.30 / aq-mode=1 / aq-strength=1.00 / no-cutree / zone-count=1 / zones: / start-frame=65009 / end-frame=68663 / qp=36 / no-strict-cbr / qg-size=32 / no-rc-grain / qpmax=69 / qpmin=0 / no-const-vbv / sar=1 / overscan=0 / videoformat=5 / range=0 / colorprim=2 / transfer=2 / colormatrix=2 / chromaloc=0 / display-window=0 / cll=0,0 / min-luma=0 / max-luma=1023 / log2-max-poc-lsb=8 / vui-timing-info / vui-hrd-info / slices=1 / no-opt-qp-pps / no-opt-ref-list-length-pps / no-multi-pass-opt-rps / scenecut-bias=0.00 / no-opt-cu-delta-qp / no-aq-motion / no-hdr10 / no-hdr10-opt / no-dhdr10-opt / no-idr-recovery-sei / analysis-reuse-level=0 / analysis-save-reuse-level=0 / analysis-load-reuse-level=0 / scale-factor=0 / refine-intra=0 / refine-inter=0 / refine-mv=1 / refine-ctu-distortion=0 / no-limit-sao / ctu-info=0 / no-lowpass-dct / refine-analysis-type=0 / copy-pic=1 / max-ausize-factor=1.0 / no-dynamic-refine / no-single-sei / no-hevc-aq / no-svt / no-field / qp-adaptation-range=1.00 / scenecut-aware-qp=0conformance-window-offsets / right=0 / bottom=0 / decoder-max-rate=0 / no-vbv-live-multi-pass / no-mcstf / no-sbrc
Язык : Английский
По умолчанию : Да
Принудительно : Нет

Аудио #1
Идентификатор : 2
Формат : AC-3
Формат/Информация : Audio Coding 3
Коммерческое название : Dolby Digital
Идентификатор кодека : A_AC3
Продолжительность : 47 мин. 43 с.
Вид битрейта : Постоянный
Битрейт : 640 Кбит/сек
Канал(-ы) : 6 каналов
Расположение каналов : L R C LFE Ls Rs
Частота дискретизации : 48,0 КГц
Частота кадров : 31,250 кадров/сек (1536 SPF)
Метод сжатия : С потерями
Размер потока : 218 Мбайт (6%)
Заголовок : DUB (HDRezka Studio)
Язык : Русский
Вид сервиса : Complete Main
По умолчанию : Да
Принудительно : Нет
Нормализация звука речи : -31 dB
compr : -0.28 dB
cmixlev : -3.0 dB
surmixlev : -3 dB
mixlevel : 285 dB
roomtyp : 3
ltrtcmixlev : -3.0 dB
ltrtsurmixlev : -3.0 dB
lorocmixlev : -3.0 dB
lorosurmixlev : -4.5 dB
dialnorm_Average : -31 dB
dialnorm_Minimum : -31 dB
dialnorm_Maximum : -31 dB

Аудио #2
Идентификатор : 3
Формат : AC-3
Формат/Информация : Audio Coding 3
Коммерческое название : Dolby Digital
Идентификатор кодека : A_AC3
Продолжительность : 47 мин. 51 с.
Вид битрейта : Постоянный
Битрейт : 384 Кбит/сек
Канал(-ы) : 2 канала
Расположение каналов : L R
Частота дискретизации : 48,0 КГц
Частота кадров : 31,250 кадров/сек (1536 SPF)
Метод сжатия : С потерями
Размер потока : 131 Мбайт (4%)
Заголовок : DUB (Iron Voice)
Язык : Русский
Вид сервиса : Complete Main
По умолчанию : Нет
Принудительно : Нет
Нормализация звука речи : -31 dB
dialnorm_Average : -31 dB
dialnorm_Minimum : -31 dB
dialnorm_Maximum : -31 dB

Аудио #3
Идентификатор : 4
Формат : AC-3
Формат/Информация : Audio Coding 3
Коммерческое название : Dolby Digital
Идентификатор кодека : A_AC3
Продолжительность : 47 мин. 45 с.
Вид битрейта : Постоянный
Битрейт : 320 Кбит/сек
Канал(-ы) : 2 канала
Расположение каналов : L R
Частота дискретизации : 48,0 КГц
Частота кадров : 31,250 кадров/сек (1536 SPF)
Метод сжатия : С потерями
Размер потока : 109 Мбайт (3%)
Заголовок : DUB (Flarrow Films)
Язык : Русский
Вид сервиса : Complete Main
По умолчанию : Нет
Принудительно : Нет
Нормализация звука речи : -31 dB
dialnorm_Average : -31 dB
dialnorm_Minimum : -31 dB
dialnorm_Maximum : -31 dB

Аудио #4
Идентификатор : 5
Формат : AC-3
Формат/Информация : Audio Coding 3
Коммерческое название : Dolby Digital
Идентификатор кодека : A_AC3
Продолжительность : 47 мин. 43 с.
Вид битрейта : Постоянный
Битрейт : 384 Кбит/сек
Канал(-ы) : 6 каналов
Расположение каналов : L R C LFE Ls Rs
Частота дискретизации : 48,0 КГц
Частота кадров : 31,250 кадров/сек (1536 SPF)
Метод сжатия : С потерями
Размер потока : 131 Мбайт (4%)
Заголовок : MVO (LostFilm)
Язык : Русский
Вид сервиса : Complete Main
По умолчанию : Нет
Принудительно : Нет
Нормализация звука речи : -27 dB
compr : -0.28 dB
dynrng : -1.48 dB
cmixlev : -3.0 dB
surmixlev : -3 dB
mixlevel : 285 dB
roomtyp : Small
dialnorm_Average : -27 dB
dialnorm_Minimum : -27 dB
dialnorm_Maximum : -27 dB

Аудио #5
Идентификатор : 6
Формат : AC-3
Формат/Информация : Audio Coding 3
Коммерческое название : Dolby Digital
Идентификатор кодека : A_AC3
Продолжительность : 47 мин. 43 с.
Вид битрейта : Постоянный
Битрейт : 384 Кбит/сек
Канал(-ы) : 6 каналов
Расположение каналов : L R C LFE Ls Rs
Частота дискретизации : 48,0 КГц
Частота кадров : 31,250 кадров/сек (1536 SPF)
Метод сжатия : С потерями
Размер потока : 131 Мбайт (4%)
Заголовок : MVO (AlexFilm)
Язык : Русский
Вид сервиса : Complete Main
По умолчанию : Нет
Принудительно : Нет
Нормализация звука речи : -27 dB
compr : -0.28 dB
dynrng : -1.48 dB
cmixlev : -3.0 dB
surmixlev : -3 dB
mixlevel : 285 dB
roomtyp : Small
dialnorm_Average : -27 dB
dialnorm_Minimum : -27 dB
dialnorm_Maximum : -27 dB

Аудио #6
Идентификатор : 7
Формат : AC-3
Формат/Информация : Audio Coding 3
Коммерческое название : Dolby Digital
Идентификатор кодека : A_AC3
Продолжительность : 47 мин. 43 с.
Вид битрейта : Постоянный
Битрейт : 384 Кбит/сек
Канал(-ы) : 6 каналов
Расположение каналов : L R C LFE Ls Rs
Частота дискретизации : 48,0 КГц
Частота кадров : 31,250 кадров/сек (1536 SPF)
Метод сжатия : С потерями
Размер потока : 131 Мбайт (4%)
Заголовок : MVO (TVShows)
Язык : Русский
Вид сервиса : Complete Main
По умолчанию : Нет
Принудительно : Нет
Нормализация звука речи : -27 dB
compr : -0.28 dB
dynrng : -1.48 dB
cmixlev : -3.0 dB
surmixlev : -3 dB
mixlevel : 285 dB
roomtyp : Small
dialnorm_Average : -27 dB
dialnorm_Minimum : -27 dB
dialnorm_Maximum : -27 dB

Аудио #7
Идентификатор : 8
Формат : AC-3
Формат/Информация : Audio Coding 3
Коммерческое название : Dolby Digital
Идентификатор кодека : A_AC3
Продолжительность : 47 мин. 43 с.
Вид битрейта : Постоянный
Битрейт : 384 Кбит/сек
Канал(-ы) : 6 каналов
Расположение каналов : L R C LFE Ls Rs
Частота дискретизации : 48,0 КГц
Частота кадров : 31,250 кадров/сек (1536 SPF)
Метод сжатия : С потерями
Размер потока : 131 Мбайт (4%)
Заголовок : MVO (Цікава Ідея)
Язык : Украинский
Вид сервиса : Complete Main
По умолчанию : Нет
Принудительно : Нет
Нормализация звука речи : -31 dB
cmixlev : -3.0 dB
surmixlev : -3 dB
dialnorm_Average : -31 dB
dialnorm_Minimum : -31 dB
dialnorm_Maximum : -31 dB

Аудио #8
Идентификатор : 9
Формат : AC-3
Формат/Информация : Audio Coding 3
Коммерческое название : Dolby Digital
Идентификатор кодека : A_AC3
Продолжительность : 47 мин. 43 с.
Вид битрейта : Постоянный
Битрейт : 384 Кбит/сек
Канал(-ы) : 6 каналов
Расположение каналов : L R C LFE Ls Rs
Частота дискретизации : 48,0 КГц
Частота кадров : 31,250 кадров/сек (1536 SPF)
Метод сжатия : С потерями
Размер потока : 131 Мбайт (4%)
Заголовок : MVO (DniproFilm)
Язык : Украинский
Вид сервиса : Complete Main
По умолчанию : Нет
Принудительно : Нет
Нормализация звука речи : -31 dB
cmixlev : -3.0 dB
surmixlev : -3 dB
dialnorm_Average : -31 dB
dialnorm_Minimum : -31 dB
dialnorm_Maximum : -31 dB

Аудио #9
Идентификатор : 10
Идентификатор в исходном носителе информ : 4352 (0x1100)
Формат : AC-3
Формат/Информация : Audio Coding 3
Коммерческое название : Dolby Digital
Идентификатор кодека : A_AC3
Продолжительность : 47 мин. 43 с.
Вид битрейта : Постоянный
Битрейт : 640 Кбит/сек
Канал(-ы) : 6 каналов
Расположение каналов : L R C LFE Ls Rs
Частота дискретизации : 48,0 КГц
Частота кадров : 31,250 кадров/сек (1536 SPF)
Метод сжатия : С потерями
Размер потока : 218 Мбайт (6%)
Язык : Английский
Вид сервиса : Complete Main
По умолчанию : Нет
Принудительно : Нет
Носитель оригинала : Blu-ray
Нормализация звука речи : -27 dB
compr : -0.28 dB
cmixlev : -3.0 dB
surmixlev : -6 dB
dmixmod : Lo/Ro
ltrtcmixlev : -3.0 dB
ltrtsurmixlev : -4.5 dB
lorocmixlev : -3.0 dB
lorosurmixlev : -4.5 dB
dialnorm_Average : -27 dB
dialnorm_Minimum : -27 dB
dialnorm_Maximum : -27 dB

Текст #1
Идентификатор : 11
Формат : UTF-8
Идентификатор кодека : S_TEXT/UTF8
Идентификатор кодека/Информация : UTF-8 Plain Text
Продолжительность : 31 мин. 22 с.
Битрейт : 2 бит/сек
Частота кадров : 0,006 кадр/сек
Число элементов : 11
Размер потока : 604 байта (0%)
Заголовок : Forced (Для дубляжа Flarrow Films / HDRezka Studio / Iron Voice)
Язык : Русский
По умолчанию : Да
Принудительно : Нет

Текст #2
Идентификатор : 12
Формат : UTF-8
Идентификатор кодека : S_TEXT/UTF8
Идентификатор кодека/Информация : UTF-8 Plain Text
Продолжительность : 45 мин. 2 с.
Битрейт : 89 бит/сек
Частота кадров : 0,194 кадр/сек
Число элементов : 523
Размер потока : 29,4 КиБ (0%)
Заголовок : Full
Язык : Русский
По умолчанию : Нет
Принудительно : Нет

Текст #3
Идентификатор : 13
Формат : UTF-8
Идентификатор кодека : S_TEXT/UTF8
Идентификатор кодека/Информация : UTF-8 Plain Text
Продолжительность : 45 мин. 2 с.
Битрейт : 87 бит/сек
Частота кадров : 0,211 кадр/сек
Число элементов : 571
Размер потока : 29,0 КиБ (0%)
Заголовок : Full 2
Язык : Русский
По умолчанию : Нет
Принудительно : Нет

Текст #4
Идентификатор : 14
Формат : UTF-8
Идентификатор кодека : S_TEXT/UTF8
Идентификатор кодека/Информация : UTF-8 Plain Text
Продолжительность : 16 мин. 9 с.
Битрейт : 2 бит/сек
Частота кадров : 0,005 кадр/сек
Число элементов : 5
Размер потока : 280 байт (0%)
Заголовок : Forced (Для MVO Цікава Ідея)
Язык : Украинский
По умолчанию : Нет
Принудительно : Нет

Текст #5
Идентификатор : 15
Формат : UTF-8
Идентификатор кодека : S_TEXT/UTF8
Идентификатор кодека/Информация : UTF-8 Plain Text
Продолжительность : 31 мин. 22 с.
Битрейт : 1 бит/сек
Частота кадров : 0,004 кадр/сек
Число элементов : 7
Размер потока : 402 байта (0%)
Заголовок : Forced (Для MVO DniproFilm)
Язык : Украинский
По умолчанию : Нет
Принудительно : Нет

Текст #6
Идентификатор : 16
Формат : UTF-8
Идентификатор кодека : S_TEXT/UTF8
Идентификатор кодека/Информация : UTF-8 Plain Text
Продолжительность : 45 мин. 10 с.
Битрейт : 56 бит/сек
Частота кадров : 0,224 кадр/сек
Число элементов : 607
Размер потока : 18,8 КиБ (0%)
Язык : Английский
По умолчанию : Нет
Принудительно : Нет

Меню
00:00:00.000 : en:Chapter 01
00:47:43.569 : en:Chapter 02
Загрузка...Cкриншот1 Локи / Loki (2021) [1 сезон] BDRip 1080p [HEVC] 10 bit от OldGamer (RG RIPS CLUB)Загрузка...Cкриншот2 Локи / Loki (2021) [1 сезон] BDRip 1080p [HEVC] 10 bit от OldGamer (RG RIPS CLUB)Загрузка...Cкриншот3 Локи / Loki (2021) [1 сезон] BDRip 1080p [HEVC] 10 bit от OldGamer (RG RIPS CLUB)Загрузка...Cкриншот4 Локи / Loki (2021) [1 сезон] BDRip 1080p [HEVC] 10 bit от OldGamer (RG RIPS CLUB)
История обновленийДобавлены переводы: Iron Voice, Flarrow Films, Цікава Ідея, DniproFilm
Поблагодарили: 2Brooklyn, ExoticDeer
Файлы: 6
  • Loki.S01.BDRip-HEVC.1080p
    • 3.8 ГБLoki.S01E01.Glorious.Purpose.mkv
    • 3.77 ГБLoki.S01E02.The.Variant.mkv
    • 2.9 ГБLoki.S01E03.Lamentis.mkv
    • 3.36 ГБLoki.S01E04.The.Nexus.Event.mkv
    • 3.58 ГБLoki.S01E05.Journey.Into.Mystery.mkv
    • 2.97 ГБLoki.S01E06.For.All.Time.Always.mkv

Рейтинги КП и IMDB, кнопки "Раздайте, пожалуйста" и "Спасибо", а также мультитрекерная статистика доступны только зарегистрированным/авторизованным пользователям!

OldGamer
28112173(6) 20.37 ГБ

💬︎ Комментарии

Добавление комментариев доступно только зарегистрированным/авторизованным пользователям.

Всего: 3
Аватар не указан
AlexStallone
спасибо что добавили дубляж от FF!
Аватар OldGamer
OldGamer
AlexStallone писал(а):
как можно делать такой релиз и без самого лучшего дубляжа от Flarrow Films?
не поверите - очень просто
Аватар не указан
AlexStallone
как можно делать такой релиз и без самого лучшего дубляжа от Flarrow Films?