💬 Мини-чат

Для тех, кому интересен процесс переделки сайта - https://rips.club/changelog.html (обновлен 22.02.2024)
OldGamerz1M4p9i0, и этот релиз скачался
Adminatomicheart, встал, но у Вас в профиле не видно. Вам бы перекачать.
OldGamerz1M4p9i0, Хан Соло скачался, но релиз, который был на руторе, там аудиодорожек меньше, чем тут, а видеоряд тот же. Попробуйте оттуда, я пока что сидирую.
OldGamerХан Соло откуда-то по чайной ложке в час скачивается, за сутки 50%, наблюдаем-с дальше
Adminatomicheart, завтра посмотрю, он у меня должен быть.
atomicheartРаздайте, пожалуйста, Тихое место: Дилогия / A Quiet Place: Dilogy (2018-2020) UHD-BDRip 1080p [HEVC] 10 bit [HDR] от Mr. Fox
z1M4p9i0Раздайте, пожалуйста, Хан Соло: Звёздные войны. Истории / Solo: A Star Wars Story (2018) [Локализованная версия] BDRip 1080p [HEVC] 10 bit от Cthulhu
z1M4p9i0Раздайте, пожалуйста, Терминатор: Тёмные судьбы / Terminator: Dark Fate (2019) [iTunes] UHD-BDRip 1440p [HEVC] 10 bit от HANNIBAL
OldGamerKeynol, честно говоря, пока что не планировалось, так как у нас есть отличный рип этого фильма
KeynolПриветствую! А можно сделать HEVC 10 bit на Трон Наследие Hybrid ? там файл на 31 гиг :-( на рутрекере. Хороший, но очень массивный..
  • OldGamer
  • and50
  • bronsonw200
  • InSpector
Отправка сообщений доступна только зарегистрированным/авторизованным пользователям.
Онлайн (за 10 мин.): 4

Сто тысяч долларов на солнце / Cent mille dollars au soleil (1964) BDRip 1080p [HEVC] 10 bit от OldGamer (RG RIPS CLUB)

HEVC
10 bit
Обложка Сто тысяч долларов на солнце / Cent mille dollars au soleil (1964) BDRip 1080p [HEVC] 10 bit от OldGamer (RG RIPS CLUB) Год: 1964
Страна: Франция, Италия
Студия: Gaumont Distribution, Gaumont International, Trianon Films, Ultra Film
Жанр: Боевик, Комедия, Приключения
Продолжительность: 02:04:46

Режиссер: Анри Вернёй
В ролях: Жан-Поль Бельмондо, Лино Вентура, Реджинальд Кернан, Бернар Блие, Анн-Мари Коффине, Дуду Бабет, Пьер Колле, Кристиан Брокар, Поль Бонифас, Джеки Бланшо

Описание: Небольшой городок в Северной Африке. В компанию по грузоперевозкам, где работает Рокко, прибывает новый трейлер с таинственным грузом, который должен уйти в Нигерию. Для этой миссии хозяин фирмы «Папаша Кастальяно» по прозвищу «Свекла» нанимает человека с фальшивым паспортом и подозрительной репутацией - Джона Штайнера. Вечером, накануне дня выезда, во время дружеской попойки Рокко узнаёт, что в новой машине находится контрабандный груз на сумму сто тысяч долларов. На утро он угоняет машину со всем содержимым с целью перепродажи. Разгневанный хозяин, узнав о пропаже, посылает в погоню, товарища и коллегу Рокко - Марека, который берёт в напарники здоровяка Штайнера. Преследование похитителей превращается в настоящее Кэмел-трофи на тяжёлых грузовиках по жёлтым зыбучим пескам Сахары...


Исходник: Blu-Ray Remux 1080p (rutracker)
Видео: 1918x816, 7632 Kbps
Аудио1: AC3, 2 ch, 640 Kbps - РусскийРусский, MVO (Останкино)
Аудио2: AC3, 2 ch, 192 Kbps - РусскийРусский, MVO (Рен-ТВ)
Аудио3: AC3, 2 ch, 192 Kbps - РусскийРусский, AVO (Юрий Немахов)
Аудио4: AC3, 2 ch, 640 Kbps - ФранцузскийФранцузский
Субтитры: английские, французские (SDH)

Как за пару секунд удалить ненужные аудиодорожки и субтитры (Внимание! После удаления вы не сможете поддержать раздачу)

Лог (x265 info)
x265 [info]: frame I: 749, Avg QP:18.05 kb/s: 22314.00
x265 [info]: frame P: 37675, Avg QP:19.38 kb/s: 14317.46
x265 [info]: frame B: 141240, Avg QP:21.33 kb/s: 5769.69
x265 [info]: Weighted P-Frames: Y:12.9% UV:5.8%
x265 [info]: Weighted B-Frames: Y:4.1% UV:1.7%
x265 [info]: encoded 179664 frames in 122340.92s (1.47 fps), 7631.10 kb/s, Avg QP:20.91
Медиаинфо
Общее
Уникальный идентификатор : 142677322081870646564079669174800646587 (0x6B56A7173B73621A8B3A4F9ADD9A81BB)
Полное имя : \\.\Сто.тысяч.долларов.на.солнце.Cent.mille.dollars.au.soleil.1964.BDRip-HEVC.1080p.mkv
Формат : Matroska
Версия формата : Version 4
Размер файла : 8,10 Гбайт
Продолжительность : 2 ч. 4 м.
Общий поток : 9 299 Кбит/сек
Частота кадров : 24,000 кадра/сек
Дата кодирования : 2023-10-31 17:16:45 UTC
Программа кодирования : mkvmerge v79.0 ('Funeral Pyres') 64-bit
Библиотека кодирования : libebml v1.4.4 + libmatroska v1.7.1

Видео
Идентификатор : 1
Формат : HEVC
Формат/Информация : High Efficiency Video Coding
Профиль формата : Main 10@L4.1@High
Идентификатор кодека : V_MPEGH/ISO/HEVC
Продолжительность : 2 ч. 4 м.
Битрейт : 7 632 Кбит/сек
Ширина : 1 918 пикселей
Высота : 816 пикселей
Соотношение сторон : 2,35:1
Режим частоты кадров : Постоянный
Частота кадров : 24,000 кадра/сек
Цветовое пространство : YUV
Субдискретизация насыщенности : 4:2:0
Битовая глубина : 10 бит
Бит/(Пиксели*Кадры) : 0.203
Размер потока : 6,65 Гбайт (82%)
Заголовок : Cent mille dollars au soleil / Rip by OldGamer
Библиотека кодирования : x265 3.5+110-8ee01d45b:[Windows][GCC 13.2.0][64 bit] 10bit
Настройки программы : cpuid=1111039 / frame-threads=3 / numa-pools=8 / wpp / no-pmode / no-pme / no-psnr / no-ssim / log-level=2 / input-csp=1 / input-res=1918x816 / interlace=0 / total-frames=179664 / level-idc=41 / high-tier=1 / uhd-bd=0 / ref=5 / no-allow-non-conformance / no-repeat-headers / annexb / no-aud / no-eob / no-eos / no-hrd / info / hash=0 / temporal-layers=0 / open-gop / min-keyint=23 / keyint=240 / gop-lookahead=0 / bframes=16 / b-adapt=2 / b-pyramid / bframe-bias=0 / rc-lookahead=40 / lookahead-slices=0 / scenecut=40 / no-hist-scenecut / radl=0 / no-splice / no-intra-refresh / ctu=32 / min-cu-size=8 / rect / amp / max-tu-size=32 / tu-inter-depth=4 / tu-intra-depth=4 / limit-tu=1 / rdoq-level=2 / dynamic-rd=0.00 / no-ssim-rd / signhide / no-tskip / nr-intra=0 / nr-inter=0 / no-constrained-intra / no-strong-intra-smoothing / max-merge=5 / limit-refs=3 / no-limit-modes / me=3 / subme=7 / merange=57 / temporal-mvp / no-frame-dup / no-hme / weightp / weightb / no-analyze-src-pics / deblock=-2:-2 / no-sao / no-sao-non-deblock / rd=6 / selective-sao=0 / no-early-skip / no-rskip / no-fast-intra / no-tskip-fast / no-cu-lossless / b-intra / no-splitrd-skip / rdpenalty=0 / psy-rd=2.00 / psy-rdoq=1.00 / no-rd-refine / no-lossless / cbqpoffs=0 / crqpoffs=0 / rc=crf / crf=18.4 / qcomp=0.60 / qpstep=4 / stats-write=0 / stats-read=0 / vbv-maxrate=50000 / vbv-bufsize=50000 / vbv-init=0.9 / min-vbv-fullness=50.0 / max-vbv-fullness=80.0 / crf-max=0.0 / crf-min=0.0 / ipratio=1.40 / pbratio=1.30 / aq-mode=1 / aq-strength=1.00 / no-cutree / zone-count=1 / zones: / start-frame=179138 / end-frame=179664 / qp=36 / no-strict-cbr / qg-size=32 / no-rc-grain / qpmax=69 / qpmin=0 / no-const-vbv / sar=1 / overscan=0 / videoformat=5 / range=0 / colorprim=2 / transfer=2 / colormatrix=2 / chromaloc=0 / display-window=0 / cll=0,0 / min-luma=0 / max-luma=1023 / log2-max-poc-lsb=8 / vui-timing-info / vui-hrd-info / slices=1 / no-opt-qp-pps / no-opt-ref-list-length-pps / no-multi-pass-opt-rps / scenecut-bias=0.00 / no-opt-cu-delta-qp / no-aq-motion / no-hdr10 / no-hdr10-opt / no-dhdr10-opt / no-idr-recovery-sei / analysis-reuse-level=0 / analysis-save-reuse-level=0 / analysis-load-reuse-level=0 / scale-factor=0 / refine-intra=0 / refine-inter=0 / refine-mv=1 / refine-ctu-distortion=0 / no-limit-sao / ctu-info=0 / no-lowpass-dct / refine-analysis-type=0 / copy-pic=1 / max-ausize-factor=1.0 / no-dynamic-refine / no-single-sei / no-hevc-aq / no-svt / no-field / qp-adaptation-range=1.00 / scenecut-aware-qp=0conformance-window-offsets / right=0 / bottom=0 / decoder-max-rate=0 / no-vbv-live-multi-pass / no-mcstf / no-sbrc
Язык : French
Default : Да
Forced : Нет

Аудио #1
Идентификатор : 2
Формат : AC-3
Формат/Информация : Audio Coding 3
Коммерческое название : Dolby Digital
Идентификатор кодека : A_AC3
Продолжительность : 2 ч. 4 м.
Вид битрейта : Постоянный
Битрейт : 640 Кбит/сек
Каналы : 2 канала
Channel layout : L R
Частота : 48,0 КГц
Частота кадров : 31,250 кадров/сек (1536 SPF)
Метод сжатия : С потерями
Размер потока : 571 Мбайт (7%)
Заголовок : MVO (Останкино)
Язык : Russian
Service kind : Complete Main
Default : Да
Forced : Нет

Аудио #2
Идентификатор : 3
ID in the original source medium : 4353 (0x1101)
Формат : AC-3
Формат/Информация : Audio Coding 3
Коммерческое название : Dolby Digital
Идентификатор кодека : A_AC3
Продолжительность : 2 ч. 4 м.
Вид битрейта : Постоянный
Битрейт : 192 Кбит/сек
Каналы : 2 канала
Channel layout : L R
Частота : 48,0 КГц
Частота кадров : 31,250 кадров/сек (1536 SPF)
Метод сжатия : С потерями
Размер потока : 171 Мбайт (2%)
Заголовок : MVO (Рен-ТВ)
Язык : Russian
Service kind : Complete Main
Default : Нет
Forced : Нет
Носитель оригинала : Blu-ray

Аудио #3
Идентификатор : 4
ID in the original source medium : 4354 (0x1102)
Формат : AC-3
Формат/Информация : Audio Coding 3
Коммерческое название : Dolby Digital
Идентификатор кодека : A_AC3
Продолжительность : 2 ч. 4 м.
Вид битрейта : Постоянный
Битрейт : 192 Кбит/сек
Каналы : 2 канала
Channel layout : L R
Частота : 48,0 КГц
Частота кадров : 31,250 кадров/сек (1536 SPF)
Метод сжатия : С потерями
Размер потока : 171 Мбайт (2%)
Заголовок : AVO (Юрий Немахов)
Язык : Russian
Service kind : Complete Main
Default : Нет
Forced : Нет
Носитель оригинала : Blu-ray

Аудио #4
Идентификатор : 5
Формат : AC-3
Формат/Информация : Audio Coding 3
Коммерческое название : Dolby Digital
Идентификатор кодека : A_AC3
Продолжительность : 2 ч. 4 м.
Вид битрейта : Постоянный
Битрейт : 640 Кбит/сек
Каналы : 2 канала
Channel layout : L R
Частота : 48,0 КГц
Частота кадров : 31,250 кадров/сек (1536 SPF)
Метод сжатия : С потерями
Размер потока : 571 Мбайт (7%)
Язык : French
Service kind : Complete Main
Default : Нет
Forced : Нет

Текст #1
Идентификатор : 6
Формат : UTF-8
Идентификатор кодека : S_TEXT/UTF8
Идентификатор кодека/Информация : UTF-8 Plain Text
Продолжительность : 1 ч. 58 м.
Битрейт : 47 бит/сек
Частота кадров : 0,132 кадр/сек
Count of elements : 941
Размер потока : 41,3 Кбайт (0%)
Язык : English
Default : Нет
Forced : Нет

Текст #2
Идентификатор : 7
Формат : UTF-8
Идентификатор кодека : S_TEXT/UTF8
Идентификатор кодека/Информация : UTF-8 Plain Text
Продолжительность : 2 ч. 3 м.
Битрейт : 43 бит/сек
Частота кадров : 0,195 кадр/сек
Count of elements : 1445
Размер потока : 39,2 Кбайт (0%)
Заголовок : SDH
Язык : French
Default : Нет
Forced : Нет

Меню
00:00:00.000 : en:Chapter 01
00:11:56.708 : en:Chapter 02
00:21:23.083 : en:Chapter 03
00:31:16.958 : en:Chapter 04
00:40:27.083 : en:Chapter 05
00:52:13.416 : en:Chapter 06
01:03:23.625 : en:Chapter 07
01:17:23.083 : en:Chapter 08
01:28:15.250 : en:Chapter 09
01:41:55.041 : en:Chapter 10
01:50:57.291 : en:Chapter 11
01:58:21.500 : en:Chapter 12
Загрузка...Cкриншот1 Сто тысяч долларов на солнце / Cent mille dollars au soleil (1964) BDRip 1080p [HEVC] 10 bit от OldGamer (RG RIPS CLUB)Загрузка...Cкриншот2 Сто тысяч долларов на солнце / Cent mille dollars au soleil (1964) BDRip 1080p [HEVC] 10 bit от OldGamer (RG RIPS CLUB)Загрузка...Cкриншот3 Сто тысяч долларов на солнце / Cent mille dollars au soleil (1964) BDRip 1080p [HEVC] 10 bit от OldGamer (RG RIPS CLUB)Загрузка...Cкриншот4 Сто тысяч долларов на солнце / Cent mille dollars au soleil (1964) BDRip 1080p [HEVC] 10 bit от OldGamer (RG RIPS CLUB)
Релиз-группа: RIPS CLUB
Сэмпл Торрент🧲 Магнет

Рейтинги КП и IMDB, кнопки "Позвать в чате" и "Спасибо", а также мультитрекерная статистика доступны только зарегистрированным/авторизованным пользователям!

Файлы: 1
  • Сто.тысяч.долларов.на.солнце.Cent.mille.dollars.au.soleil.1964.BDRip-HEVC.1080p.mkv   8.1 ГБ
Поблагодарили: 6
and50, aquarius, Askarida666, ivan_1965, kisa1980, vint000
OldGamer
2206608.1 ГБ

Добавление нового комментария

Добавление комментариев доступно только зарегистрированным/авторизованным пользователям.
Аватар OldGamer
  OldGamer  
Askarida666 писал(а):
Первый многоголосый Останкино на самом деле одноголосый.
Вроде бы так и есть, но в исходнике написано, что многоголоска, не стал отсебятничать.
Аватар не указан
  Askarida666  
Первый многоголосый Останкино на самом деле одноголосый.