Чат

⚫︎
Список изменений сайта - https://rips.club/changelog.html (обновлен 24.05.2024)
  • arwis
Онлайн (за 10 мин.): 1
Отправка сообщений доступна только зарегистрированным/авторизованным пользователям.

🎤︎Lovebites: Clockwork Immortality (2018) BDRip 1080p [HEVC] 10 bit от OldGamer (RG RIPS CLUB)


Обложка Lovebites: Clockwork Immortality (2018) BDRip 1080p [HEVC] 10 bit от OldGamer (RG RIPS CLUB)
HEVC
10 bit
✂︎Сэмпл⤓︎Торрент🧲︎Магнет$Пожертвования

При перезаливке на другие сайты просьба указать автора и релиз-группу.


Год: 2018
Страна: Япония
Жанр: Музыка
Длительность: 01:32:30

Состав:
Asami: Singer, Lead Vocals. Watanabe Miyako: Guitar, Piano, Backing Vocals. Tatematsu Midori: Guitar, Backing Vocals. Haruna: Drums, Backing Vocals. Miho: Bass, Backing Vocals.

Описание: Lovebites brings the second album with 10 new tracks. Mixing and mastering by Mikko Karmila and Mika Jussila at Finnvox Studios. This edition includes a bonus Blu-ray with 15 live tracks total taken from the concert held on June 28, 2018 at SHIBUYA TSUTAYA O-EAST.


Треклист1. THE AWAKENING / ジ・アウェイクニング
2. THE CRUSADE / ザ・クルセイド
3. WARNING SHOT / ウォーニング・ショット
4. BREAK THE WALL / ブレイク・ザ・ウォール
5. SCREAM FOR ME / スクリーム・フォー・ミー
6. SHADOWMAKER / シャドウメイカー
7. ABOVE THE BLACK SEA / アバヴ・ザ・ブラック・シー
8. INSPIRE / インスパイア
9. THE APOCALYPSE / ジ・アポカリプス
10. THE HAMMER OF WRATH / ザ・ハマー・オブ・ラス
11. LIAR / ライアー
12. BURDEN OF TIME / バーデン・オブ・タイム
13. DON'T BITE THE DUST / ドント・バイト・ザ・ダスト
14. UNDER THE RED SKY / アンダー・ザ・レッド・スカイ
15. EDGE OF THE WORLD / エッジ・オブ・ザ・ワールド
16. BRAVEHEARTED / ブレイヴハーテッド


Релиз-группа: RIPS CLUB
Исходник: Blu-Ray Remux 1080p (rutracker)
Видео: 1920x1080, 8641 Kbps
Аудио: PCM, 2 ch, 2304 Kbps
Субтитры: Отсутствуют

Лог (x265 info)x265 [info]: frame I: 555, Avg QP:16.78 kb/s: 16925.59
x265 [info]: frame P: 29158, Avg QP:18.16 kb/s: 14591.54
x265 [info]: frame B: 103367, Avg QP:20.75 kb/s: 6917.07
x265 [info]: Weighted P-Frames: Y:28.1% UV:26.4%
x265 [info]: Weighted B-Frames: Y:30.8% UV:26.9%
x265 [info]: encoded 133080 frames in 136387.11s (0.98 fps), 8640.29 kb/s, Avg QP:20.16
МедиаинфоОбщее
Уникальный идентификатор : 741405100858125140013626167403034331 (0x8ECA17FBE5C36239C4008C0C8536DB)
Полное имя : \\.\Lovebites.Clockwork.Immortality.2018.BDRip-HEVC.1080p.mkv
Формат : Matroska
Версия формата : Version 4
Размер файла : 7,07 Гбайт
Продолжительность : 1 ч. 32 м.
Общий поток : 10,9 Мбит/сек
Частота кадров : 23,976 кадра/сек
Дата кодирования : 2024-01-29 01:17:10 UTC
Программа кодирования : mkvmerge v82.0 ('I'm The President') 64-bit
Библиотека кодирования : libebml v1.4.5 + libmatroska v1.7.1

Видео
Идентификатор : 1
Формат : HEVC
Формат/Информация : High Efficiency Video Coding
Профиль формата : Main 10@L4.1@High
Идентификатор кодека : V_MPEGH/ISO/HEVC
Продолжительность : 1 ч. 32 м.
Битрейт : 8 641 Кбит/сек
Ширина : 1 920 пикселей
Высота : 1 080 пикселей
Соотношение сторон : 16:9
Режим частоты кадров : Постоянный
Частота кадров : 23,976 (24000/1001) кадра/сек
Цветовое пространство : YUV
Субдискретизация насыщенности : 4:2:0
Битовая глубина : 10 бит
Бит/(Пиксели*Кадры) : 0.174
Размер потока : 5,58 Гбайт (79%)
Заголовок : Lovebites - Clockwork Immortality / Rip by OldGamer
Библиотека кодирования : x265 3.5+110-8ee01d45b:[Windows][GCC 13.2.0][64 bit] 10bit
Настройки программы : cpuid=1111039 / frame-threads=3 / numa-pools=8 / wpp / no-pmode / no-pme / no-psnr / no-ssim / log-level=2 / input-csp=1 / input-res=1920x1080 / interlace=0 / total-frames=133080 / level-idc=41 / high-tier=1 / uhd-bd=0 / ref=5 / no-allow-non-conformance / no-repeat-headers / annexb / no-aud / no-eob / no-eos / no-hrd / info / hash=0 / temporal-layers=0 / open-gop / min-keyint=23 / keyint=240 / gop-lookahead=0 / bframes=16 / b-adapt=2 / b-pyramid / bframe-bias=0 / rc-lookahead=60 / lookahead-slices=0 / scenecut=40 / no-hist-scenecut / radl=0 / no-splice / no-intra-refresh / ctu=32 / min-cu-size=8 / rect / amp / max-tu-size=32 / tu-inter-depth=4 / tu-intra-depth=4 / limit-tu=1 / rdoq-level=2 / dynamic-rd=0.00 / no-ssim-rd / signhide / no-tskip / nr-intra=0 / nr-inter=0 / no-constrained-intra / no-strong-intra-smoothing / max-merge=5 / limit-refs=3 / no-limit-modes / me=3 / subme=7 / merange=57 / temporal-mvp / no-frame-dup / no-hme / weightp / weightb / no-analyze-src-pics / deblock=-2:-2 / no-sao / no-sao-non-deblock / rd=6 / selective-sao=0 / no-early-skip / no-rskip / no-fast-intra / no-tskip-fast / no-cu-lossless / b-intra / no-splitrd-skip / rdpenalty=0 / psy-rd=2.00 / psy-rdoq=1.00 / no-rd-refine / no-lossless / cbqpoffs=0 / crqpoffs=0 / rc=crf / crf=22.1 / qcomp=0.75 / qpstep=4 / stats-write=0 / stats-read=0 / vbv-maxrate=50000 / vbv-bufsize=50000 / vbv-init=0.9 / min-vbv-fullness=50.0 / max-vbv-fullness=80.0 / crf-max=0.0 / crf-min=0.0 / ipratio=1.40 / pbratio=1.30 / aq-mode=3 / aq-strength=1.00 / no-cutree / zone-count=1 / zones: / start-frame=132978 / end-frame=133080 / qp=36 / no-strict-cbr / qg-size=32 / no-rc-grain / qpmax=69 / qpmin=0 / no-const-vbv / sar=1 / overscan=0 / videoformat=5 / range=0 / colorprim=2 / transfer=2 / colormatrix=2 / chromaloc=0 / display-window=0 / cll=0,0 / min-luma=0 / max-luma=1023 / log2-max-poc-lsb=8 / vui-timing-info / vui-hrd-info / slices=1 / no-opt-qp-pps / no-opt-ref-list-length-pps / no-multi-pass-opt-rps / scenecut-bias=0.00 / no-opt-cu-delta-qp / no-aq-motion / no-hdr10 / no-hdr10-opt / no-dhdr10-opt / no-idr-recovery-sei / analysis-reuse-level=0 / analysis-save-reuse-level=0 / analysis-load-reuse-level=0 / scale-factor=0 / refine-intra=0 / refine-inter=0 / refine-mv=1 / refine-ctu-distortion=0 / no-limit-sao / ctu-info=0 / no-lowpass-dct / refine-analysis-type=0 / copy-pic=1 / max-ausize-factor=1.0 / no-dynamic-refine / no-single-sei / no-hevc-aq / no-svt / no-field / qp-adaptation-range=1.00 / scenecut-aware-qp=0conformance-window-offsets / right=0 / bottom=0 / decoder-max-rate=0 / no-vbv-live-multi-pass / no-mcstf / no-sbrc
Язык : Japanese
Default : Да
Forced : Нет

Аудио
Идентификатор : 2
ID in the original source medium : 4352 (0x1100)
Формат : PCM
Настройки формата : Little / Signed
Идентификатор кодека : A_PCM/INT/LIT
Продолжительность : 1 ч. 32 м.
Вид битрейта : Постоянный
Битрейт : 2 304 Кбит/сек
Каналы : 2 канала
Частота : 48,0 КГц
Частота кадров : 30,000 кадров/сек (1600 SPF)
Битовая глубина : 24 бит
Размер потока : 1,49 Гбайт (21%)
Язык : Japanese
Default : Да
Forced : Нет
Носитель оригинала : Blu-ray

Меню
00:00:03.003 : en:THE AWAKENING
00:02:09.712 : en:THE CRUSADE
00:06:58.668 : en:WARNING SHOT
00:12:13.607 : en:BREAK THE WALL
00:17:47.107 : en:SCREAM FOR ME
00:24:47.152 : en:SHADOWMAKER
00:31:00.066 : en:ABOVE THE BLACK SEA
00:37:44.095 : en:INSPIRE
00:43:25.769 : en:THE APOCALYPSE
00:48:41.877 : en:THE HAMMER OF WRATH
00:53:58.276 : en:LIAR
01:00:14.110 : en:BURDEN OF TIME
01:05:12.700 : en:DON'T BITE THE DUST
01:09:32.334 : en:UNDER THE RED SKY
01:16:33.338 : en:EDGE OF THE WORLD
01:24:02.162 : en:BRAVEHEARTED
Загрузка...Cкриншот1 Lovebites: Clockwork Immortality (2018) BDRip 1080p [HEVC] 10 bit от OldGamer (RG RIPS CLUB)Загрузка...Cкриншот2 Lovebites: Clockwork Immortality (2018) BDRip 1080p [HEVC] 10 bit от OldGamer (RG RIPS CLUB)Загрузка...Cкриншот3 Lovebites: Clockwork Immortality (2018) BDRip 1080p [HEVC] 10 bit от OldGamer (RG RIPS CLUB)Загрузка...Cкриншот4 Lovebites: Clockwork Immortality (2018) BDRip 1080p [HEVC] 10 bit от OldGamer (RG RIPS CLUB)
Поблагодарили: 0
Файлы: 1
  • Lovebites.Clockwork.Immortality.2018.BDRip-HEVC.1080p.mkv

Рейтинги КП и IMDB, кнопки "Раздайте, пожалуйста" и "Спасибо", а также мультитрекерная статистика доступны только зарегистрированным/авторизованным пользователям!

OldGamer
004207.07 ГБ

💬︎ Комментарии

Добавление комментариев доступно только зарегистрированным/авторизованным пользователям.