💬 Мини-чат

Для тех, кому интересен процесс переделки сайта - https://rips.club/changelog.html (обновлен 22.02.2024)
OldGamerz1M4p9i0, и этот релиз скачался
Adminatomicheart, встал, но у Вас в профиле не видно. Вам бы перекачать.
OldGamerz1M4p9i0, Хан Соло скачался, но релиз, который был на руторе, там аудиодорожек меньше, чем тут, а видеоряд тот же. Попробуйте оттуда, я пока что сидирую.
OldGamerХан Соло откуда-то по чайной ложке в час скачивается, за сутки 50%, наблюдаем-с дальше
Adminatomicheart, завтра посмотрю, он у меня должен быть.
atomicheartРаздайте, пожалуйста, Тихое место: Дилогия / A Quiet Place: Dilogy (2018-2020) UHD-BDRip 1080p [HEVC] 10 bit [HDR] от Mr. Fox
z1M4p9i0Раздайте, пожалуйста, Хан Соло: Звёздные войны. Истории / Solo: A Star Wars Story (2018) [Локализованная версия] BDRip 1080p [HEVC] 10 bit от Cthulhu
z1M4p9i0Раздайте, пожалуйста, Терминатор: Тёмные судьбы / Terminator: Dark Fate (2019) [iTunes] UHD-BDRip 1440p [HEVC] 10 bit от HANNIBAL
OldGamerKeynol, честно говоря, пока что не планировалось, так как у нас есть отличный рип этого фильма
KeynolПриветствую! А можно сделать HEVC 10 bit на Трон Наследие Hybrid ? там файл на 31 гиг :-( на рутрекере. Хороший, но очень массивный..
  • Admin
  • OldGamer
  • InSpector
  • pmihail99
  • Странник
  • Тренер по Йоге
Отправка сообщений доступна только зарегистрированным/авторизованным пользователям.
Онлайн (за 10 мин.): 6

Ход королевой / Knight Moves (1991) BDRip 1080p [HEVC] 10 bit от OldGamer (RG RIPS CLUB)

HEVC
10 bit
Обложка Ход королевой / Knight Moves (1991) BDRip 1080p [HEVC] 10 bit от OldGamer (RG RIPS CLUB) Год: 1991
Страна: США, Германия, Канада
Студия: Cinevox Filmproduktion GmbH, Ink Slinger Productions, Lamb Bear Entertainment, Republic Pictures Corporation (II)
Жанр: Триллер, Драма, Криминал, Детектив
Продолжительность: 01:56:26

Режиссер: Карл Шенкель
В ролях: Кристофер Ламберт, Дайан Лэйн, Том Скеррит, Дэниэл Болдуин, Коди Лукас Уилби, Джош Мюррэй, Фрэнк Ч. Тёрнер, Дон Томпсон, Меган Лейтч, Алекс Дьякун

Описание: Во время международного шахматного турнира, проводившегося на небольшом острове, кто-то убивает молодых женщин. Подозреваемым становится лидер турнира Питер Сэндерсон. Полиция пытается решить задачу не менее сложную, чем разыгрываемые партии. А убийца тем временем дразнит Сэндерсона, подсовывая с каждой жертвой загадки, которые чемпион должен расшифровать. Удастся ли гроссмейстеру предугадать ходы в этой партии? Ведь каждый неверный ход ведёт к новому убийству.


Исходник: Blu-Ray Remux 1080p (rutracker)
Видео: 1920x816, 8906 Kbps
Аудио1: AC3, 2 ch, 192 Kbps - РусскийРусский, DUB (студия "Синхрон" / компания "Хлопушка" г.Киев)
Аудио2: AC3, 2 ch, 192 Kbps - РусскийРусский, MVO (R5)
Аудио3: AC3, 2 ch, 192 Kbps - РусскийРусский, MVO (ОРТ)
Аудио4: AC3, 6 ch, 448 Kbps - РусскийРусский, AVO (Сергей Визгунов)
Аудио5: AC3, 2 ch, 192 Kbps - РусскийРусский, AVO (Леонид Володарский)
Аудио6: AC3, 2 ch, 192 Kbps - РусскийРусский, AVO (Павел Прямостанов)
Аудио7: AC3, 6 ch, 640 Kbps - РусскийРусский, VO (Михаил Яроцкий)
Аудио8: AC3, 6 ch, 640 Kbps - АнглийскийАнглийский
Субтитры: английские

Как за пару секунд удалить ненужные аудиодорожки и субтитры (Внимание! После удаления вы не сможете поддержать раздачу)

Лог (x265 info)
x265 [info]: frame I: 720, Avg QP:18.39 kb/s: 18131.41
x265 [info]: frame P: 27936, Avg QP:19.52 kb/s: 14544.47
x265 [info]: frame B: 138775, Avg QP:21.67 kb/s: 7721.85
x265 [info]: Weighted P-Frames: Y:8.5% UV:7.1%
x265 [info]: Weighted B-Frames: Y:8.7% UV:6.9%
x265 [info]: encoded 167431 frames in 133279.60s (1.26 fps), 8904.97 kb/s, Avg QP:21.29
Медиаинфо
Общее
Уникальный идентификатор : 304353170295040902425978722845294895949 (0xE4F849D6D033E15E13E3EB565420A34D)
Полное имя : \\.\Ход.королевой.Knight.Moves.1991.BDRip-HEVC.1080p.mkv
Формат : Matroska
Версия формата : Version 4
Размер файла : 9,43 Гбайт
Продолжительность : 1 ч. 56 м.
Общий поток : 11,6 Мбит/сек
Частота кадров : 23,976 кадра/сек
Название фильма : Ход королевой / Ход королевой
Кодирование произвёл : OldGamer
Тип содержимого : Movie
Описание : Во время международного шахматного турнира, проводившегося на небольшом острове, кто-то убивает молодых женщин. Подозреваемым становится лидер турнира Питер Сэндерсон.
Дата выпуска : 1992-01-14
Дата записи : 1992-01-14
Программа кодирования : mkvmerge v82.0 ('I'm The President') 64-bit
Библиотека кодирования : libebml v1.4.5 + libmatroska v1.7.1
Обложка : Yes
Attachments : cover.jpg
ACTOR : Christophe Lambert, Diane Lane, Tom Skerritt, Daniel Baldwin, Ferdy Mayne, Don Thompson, Megan Leitch, Katharine Isabelle, Arthur Brauss, Kehli O'Byrne, Blu Mankuma, Elizabeth Baldwin, Alex Diakun, Monica Marko, Mark Wilson, Sam Malkin, Frank C. Turn...
ARTIST : Christophe Lambert, Diane Lane, Tom Skerritt, Daniel Baldwin, Ferdy Mayne, Don Thompson, Megan Leitch, Katharine Isabelle, Arthur Brauss, Kehli O'Byrne, Blu Mankuma, Elizabeth Baldwin, Alex Diakun, Monica Marko, Mark Wilson, Sam Malkin, Frank C. Turn...
DIRECTOR : Carl Schenkel
GENRE : детектив, триллер
LAW_RATING : R
PRODUCER : Jean-Luc Defait, Ziad El Khoury
PRODUCTION_STUDIO : Lamb Bear Entertainment
RATING : R
SCREENPLAY_BY : Brad Mirman
SUMMARY : Во время международного шахматного турнира, проводившегося на небольшом острове, кто-то убивает молодых женщин. Подозреваемым становится лидер турнира Питер Сэндерсон.
SYNOPSIS : Во время международного шахматного турнира, проводившегося на небольшом острове, кто-то убивает молодых женщин. Подозреваемым становится лидер турнира Питер Сэндерсон. Полиция пытается решить задачу не менее сложную, чем разыгрываемые партии. А убийца тем временем дразнит Сэндерсона, подсовывая с каждой жертвой загадки, которые чемпион должен расшифровать. Удастся ли гроссмейстеру предугадать ходы в этой партии? Ведь каждый неверный ход ведет к новому убийству.
WRITTEN_BY : Brad Mirman

Видео
Идентификатор : 1
Формат : HEVC
Формат/Информация : High Efficiency Video Coding
Профиль формата : Main 10@L4.1@High
Идентификатор кодека : V_MPEGH/ISO/HEVC
Продолжительность : 1 ч. 56 м.
Битрейт : 8 906 Кбит/сек
Ширина : 1 920 пикселей
Высота : 816 пикселей
Соотношение сторон : 2,35:1
Режим частоты кадров : Постоянный
Частота кадров : 23,976 (24000/1001) кадра/сек
Цветовое пространство : YUV
Субдискретизация насыщенности : 4:2:0
Битовая глубина : 10 бит
Бит/(Пиксели*Кадры) : 0.237
Размер потока : 7,24 Гбайт (77%)
Заголовок : Knight Moves / Rip by OldGamer
Библиотека кодирования : x265 3.5+110-8ee01d45b:[Windows][GCC 13.2.0][64 bit] 10bit
Настройки программы : cpuid=1111039 / frame-threads=3 / numa-pools=8 / wpp / no-pmode / no-pme / no-psnr / no-ssim / log-level=2 / input-csp=1 / input-res=1920x816 / interlace=0 / total-frames=167431 / level-idc=41 / high-tier=1 / uhd-bd=0 / ref=5 / no-allow-non-conformance / no-repeat-headers / annexb / no-aud / no-eob / no-eos / no-hrd / info / hash=0 / temporal-layers=0 / open-gop / min-keyint=23 / keyint=240 / gop-lookahead=0 / bframes=16 / b-adapt=2 / b-pyramid / bframe-bias=0 / rc-lookahead=60 / lookahead-slices=0 / scenecut=40 / no-hist-scenecut / radl=0 / no-splice / no-intra-refresh / ctu=32 / min-cu-size=8 / rect / amp / max-tu-size=32 / tu-inter-depth=4 / tu-intra-depth=4 / limit-tu=1 / rdoq-level=2 / dynamic-rd=0.00 / no-ssim-rd / signhide / no-tskip / nr-intra=0 / nr-inter=0 / no-constrained-intra / no-strong-intra-smoothing / max-merge=5 / limit-refs=3 / no-limit-modes / me=3 / subme=7 / merange=57 / temporal-mvp / no-frame-dup / no-hme / weightp / weightb / no-analyze-src-pics / deblock=-2:-2 / no-sao / no-sao-non-deblock / rd=6 / selective-sao=0 / no-early-skip / no-rskip / no-fast-intra / no-tskip-fast / no-cu-lossless / b-intra / no-splitrd-skip / rdpenalty=0 / psy-rd=2.00 / psy-rdoq=1.00 / no-rd-refine / no-lossless / cbqpoffs=0 / crqpoffs=0 / rc=crf / crf=20.3 / qcomp=0.60 / qpstep=4 / stats-write=0 / stats-read=0 / vbv-maxrate=50000 / vbv-bufsize=50000 / vbv-init=0.9 / min-vbv-fullness=50.0 / max-vbv-fullness=80.0 / crf-max=0.0 / crf-min=0.0 / ipratio=1.40 / pbratio=1.30 / aq-mode=1 / aq-strength=1.00 / no-cutree / zone-count=1 / zones: / start-frame=162436 / end-frame=167431 / qp=36 / no-strict-cbr / qg-size=32 / no-rc-grain / qpmax=69 / qpmin=0 / no-const-vbv / sar=1 / overscan=0 / videoformat=5 / range=0 / colorprim=2 / transfer=2 / colormatrix=2 / chromaloc=0 / display-window=0 / cll=0,0 / min-luma=0 / max-luma=1023 / log2-max-poc-lsb=8 / vui-timing-info / vui-hrd-info / slices=1 / no-opt-qp-pps / no-opt-ref-list-length-pps / no-multi-pass-opt-rps / scenecut-bias=0.00 / no-opt-cu-delta-qp / no-aq-motion / no-hdr10 / no-hdr10-opt / no-dhdr10-opt / no-idr-recovery-sei / analysis-reuse-level=0 / analysis-save-reuse-level=0 / analysis-load-reuse-level=0 / scale-factor=0 / refine-intra=0 / refine-inter=0 / refine-mv=1 / refine-ctu-distortion=0 / no-limit-sao / ctu-info=0 / no-lowpass-dct / refine-analysis-type=0 / copy-pic=1 / max-ausize-factor=1.0 / no-dynamic-refine / no-single-sei / no-hevc-aq / no-svt / no-field / qp-adaptation-range=1.00 / scenecut-aware-qp=0conformance-window-offsets / right=0 / bottom=0 / decoder-max-rate=0 / no-vbv-live-multi-pass / no-mcstf / no-sbrc
Язык : English
Default : Да
Forced : Нет

Аудио #1
Идентификатор : 2
Формат : AC-3
Формат/Информация : Audio Coding 3
Коммерческое название : Dolby Digital
Идентификатор кодека : A_AC3
Продолжительность : 1 ч. 56 м.
Вид битрейта : Постоянный
Битрейт : 192 Кбит/сек
Каналы : 2 канала
Channel layout : L R
Частота : 48,0 КГц
Частота кадров : 31,250 кадров/сек (1536 SPF)
Метод сжатия : С потерями
Размер потока : 160 Мбайт (2%)
Заголовок : DUB (студия "Синхрон" / компания "Хлопушка" г.Киев)
Язык : Russian
Service kind : Complete Main
Default : Да
Forced : Нет

Аудио #2
Идентификатор : 3
Формат : AC-3
Формат/Информация : Audio Coding 3
Коммерческое название : Dolby Digital
Идентификатор кодека : A_AC3
Продолжительность : 1 ч. 56 м.
Вид битрейта : Постоянный
Битрейт : 192 Кбит/сек
Каналы : 2 канала
Channel layout : L R
Частота : 48,0 КГц
Частота кадров : 31,250 кадров/сек (1536 SPF)
Метод сжатия : С потерями
Размер потока : 160 Мбайт (2%)
Заголовок : MVO (R5)
Язык : Russian
Service kind : Complete Main
Default : Нет
Forced : Нет

Аудио #3
Идентификатор : 4
Формат : AC-3
Формат/Информация : Audio Coding 3
Коммерческое название : Dolby Digital
Идентификатор кодека : A_AC3
Продолжительность : 1 ч. 56 м.
Вид битрейта : Постоянный
Битрейт : 192 Кбит/сек
Каналы : 2 канала
Channel layout : L R
Частота : 48,0 КГц
Частота кадров : 31,250 кадров/сек (1536 SPF)
Метод сжатия : С потерями
Размер потока : 160 Мбайт (2%)
Заголовок : MVO (ОРТ)
Язык : Russian
Service kind : Complete Main
Default : Нет
Forced : Нет

Аудио #4
Идентификатор : 5
Формат : AC-3
Формат/Информация : Audio Coding 3
Коммерческое название : Dolby Digital
Идентификатор кодека : A_AC3
Продолжительность : 1 ч. 56 м.
Вид битрейта : Постоянный
Битрейт : 448 Кбит/сек
Каналы : 6 каналов
Channel layout : L R C LFE Ls Rs
Частота : 48,0 КГц
Частота кадров : 31,250 кадров/сек (1536 SPF)
Метод сжатия : С потерями
Размер потока : 373 Мбайт (4%)
Заголовок : AVO (Сергей Визгунов)
Язык : Russian
Service kind : Complete Main
Default : Нет
Forced : Нет

Аудио #5
Идентификатор : 6
Формат : AC-3
Формат/Информация : Audio Coding 3
Коммерческое название : Dolby Digital
Идентификатор кодека : A_AC3
Продолжительность : 1 ч. 56 м.
Вид битрейта : Постоянный
Битрейт : 192 Кбит/сек
Каналы : 2 канала
Channel layout : L R
Частота : 48,0 КГц
Частота кадров : 31,250 кадров/сек (1536 SPF)
Метод сжатия : С потерями
Размер потока : 160 Мбайт (2%)
Заголовок : AVO (Леонид Володарский)
Язык : Russian
Service kind : Complete Main
Default : Нет
Forced : Нет

Аудио #6
Идентификатор : 7
Формат : AC-3
Формат/Информация : Audio Coding 3
Коммерческое название : Dolby Digital
Идентификатор кодека : A_AC3
Продолжительность : 1 ч. 56 м.
Вид битрейта : Постоянный
Битрейт : 192 Кбит/сек
Каналы : 2 канала
Channel layout : L R
Частота : 48,0 КГц
Частота кадров : 31,250 кадров/сек (1536 SPF)
Метод сжатия : С потерями
Размер потока : 160 Мбайт (2%)
Заголовок : AVO (Павел Прямостанов)
Язык : Russian
Service kind : Complete Main
Default : Нет
Forced : Нет

Аудио #7
Идентификатор : 8
Формат : AC-3
Формат/Информация : Audio Coding 3
Коммерческое название : Dolby Digital
Идентификатор кодека : A_AC3
Продолжительность : 1 ч. 56 м.
Вид битрейта : Постоянный
Битрейт : 640 Кбит/сек
Каналы : 6 каналов
Channel layout : L R C LFE Ls Rs
Частота : 48,0 КГц
Частота кадров : 31,250 кадров/сек (1536 SPF)
Метод сжатия : С потерями
Размер потока : 533 Мбайт (6%)
Заголовок : VO (Михаил Яроцкий)
Язык : Russian
Service kind : Complete Main
Default : Нет
Forced : Нет

Аудио #8
Идентификатор : 9
Формат : AC-3
Формат/Информация : Audio Coding 3
Коммерческое название : Dolby Digital
Идентификатор кодека : A_AC3
Продолжительность : 1 ч. 56 м.
Вид битрейта : Постоянный
Битрейт : 640 Кбит/сек
Каналы : 6 каналов
Channel layout : L R C LFE Ls Rs
Частота : 48,0 КГц
Частота кадров : 31,250 кадров/сек (1536 SPF)
Метод сжатия : С потерями
Размер потока : 533 Мбайт (6%)
Язык : English
Service kind : Complete Main
Default : Нет
Forced : Нет

Текст
Идентификатор : 10
Формат : UTF-8
Идентификатор кодека : S_TEXT/UTF8
Идентификатор кодека/Информация : UTF-8 Plain Text
Продолжительность : 1 ч. 54 м.
Битрейт : 57 бит/сек
Частота кадров : 0,179 кадр/сек
Count of elements : 1233
Размер потока : 48,2 Кбайт (0%)
Язык : English
Default : Нет
Forced : Нет

Меню
00:00:00.000 : en:Chapter 1
00:10:50.107 : en:Chapter 2
00:18:57.636 : en:Chapter 3
00:32:20.229 : en:Chapter 4
00:40:23.712 : en:Chapter 5
00:49:22.292 : en:Chapter 6
01:01:44.242 : en:Chapter 7
01:11:43.506 : en:Chapter 8
01:21:17.162 : en:Chapter 9
01:31:07.670 : en:Chapter 10
01:40:19.096 : en:Chapter 11
01:52:55.101 : en:Chapter 12
01:56:23.267 : en:Chapter 13
Загрузка...Cкриншот1 Ход королевой / Knight Moves (1991) BDRip 1080p [HEVC] 10 bit от OldGamer (RG RIPS CLUB)Загрузка...Cкриншот2 Ход королевой / Knight Moves (1991) BDRip 1080p [HEVC] 10 bit от OldGamer (RG RIPS CLUB)Загрузка...Cкриншот3 Ход королевой / Knight Moves (1991) BDRip 1080p [HEVC] 10 bit от OldGamer (RG RIPS CLUB)Загрузка...Cкриншот4 Ход королевой / Knight Moves (1991) BDRip 1080p [HEVC] 10 bit от OldGamer (RG RIPS CLUB)
Релиз-группа: RIPS CLUB
Сэмпл Торрент🧲 Магнет

Рейтинги КП и IMDB, кнопки "Позвать в чате" и "Спасибо", а также мультитрекерная статистика доступны только зарегистрированным/авторизованным пользователям!

Файлы: 1
  • Ход.королевой.Knight.Moves.1991.BDRip-HEVC.1080p.mkv   9.43 ГБ
Поблагодарили: 6
and50, AndresUA, Diman, ExoticDeer, Niflung, stickstoff
OldGamer
2108609.43 ГБ

Добавление нового комментария

Добавление комментариев доступно только зарегистрированным/авторизованным пользователям.
Аватар OldGamer
  OldGamer  
Niflung писал(а):
Вроде у этой дороги в ремуксе на рутрекере "Аудио5: AC3, 2 ch, 192 Kbps - Русский, AVO (Леонид Володарский)" была с рассинхроном. Поправили?
не заметил рассинхрона
Аватар не указан
  Niflung  (Отредактировал Niflung: )    
Вроде у этой дороги в ремуксе на рутрекере "Аудио5: AC3, 2 ch, 192 Kbps - Русский, AVO (Леонид Володарский)" была с рассинхроном. Поправили?