💬 Мини-чат

Для тех, кому интересен процесс переделки сайта - https://rips.club/changelog.html (обновлен 22.02.2024)
OldGamerz1M4p9i0, и этот релиз скачался
Adminatomicheart, встал, но у Вас в профиле не видно. Вам бы перекачать.
OldGamerz1M4p9i0, Хан Соло скачался, но релиз, который был на руторе, там аудиодорожек меньше, чем тут, а видеоряд тот же. Попробуйте оттуда, я пока что сидирую.
OldGamerХан Соло откуда-то по чайной ложке в час скачивается, за сутки 50%, наблюдаем-с дальше
Adminatomicheart, завтра посмотрю, он у меня должен быть.
atomicheartРаздайте, пожалуйста, Тихое место: Дилогия / A Quiet Place: Dilogy (2018-2020) UHD-BDRip 1080p [HEVC] 10 bit [HDR] от Mr. Fox
z1M4p9i0Раздайте, пожалуйста, Хан Соло: Звёздные войны. Истории / Solo: A Star Wars Story (2018) [Локализованная версия] BDRip 1080p [HEVC] 10 bit от Cthulhu
z1M4p9i0Раздайте, пожалуйста, Терминатор: Тёмные судьбы / Terminator: Dark Fate (2019) [iTunes] UHD-BDRip 1440p [HEVC] 10 bit от HANNIBAL
OldGamerKeynol, честно говоря, пока что не планировалось, так как у нас есть отличный рип этого фильма
KeynolПриветствую! А можно сделать HEVC 10 bit на Трон Наследие Hybrid ? там файл на 31 гиг :-( на рутрекере. Хороший, но очень массивный..
  • 375509
  • bronsonw200
  • InSpector
  • pmihail99
  • Лара
Отправка сообщений доступна только зарегистрированным/авторизованным пользователям.
Онлайн (за 10 мин.): 5

Необыкновенная история на Рождество / The Man Who Invented Christmas (2017) BDRip 1080p [HEVC] 10 bit от OldGamer (RG RIPS CLUB)

HEVC
10 bit
Обложка Необыкновенная история на Рождество / The Man Who Invented Christmas (2017) BDRip 1080p [HEVC] 10 bit от OldGamer (RG RIPS CLUB) Год: 2017
Страна: Ирландия, Канада
Студия: Ingenious Media, Mazur / Kaplan Company, Nelly Films, Parallel Films, Rhombus Media, The Mob Film Company
Жанр: Драма, Комедия, Биография
Продолжительность: 01:44:28

Режиссер: Бхарат Наллури
В ролях: Дэн Стивенс, Кристофер Пламмер, Джонатан Прайс, Марк Шриер, Патрик Джозеф Бернс, Мириам Маргулис, Морвет Кларк, Джастин Эдвардс, Козимо Фуско, Джаспер Хьюз Коттер

Описание: Молодой писатель Чарльз Диккенс страдает от профессиональных неудач — три его последние книги остались незамеченными. Отвергнутый издателями, юноша решает рискнуть и на оставшиеся средства написать новый роман. Ведь на дворе канун Рождества и настоящие чудеса случаются!


Исходник: Blu-Ray Remux 1080p (rutracker)
Видео: 1920x804, 5278 Kbps
Аудио1: AC3, 6 ch, 384 Kbps - РусскийРусский, DUB (Pride Production / iTunes)
Аудио2: AC3, 2 ch, 192 Kbps - РусскийРусский, MVO (HDRezka Studio)
Аудио3: AC3, 6 ch, 640 Kbps - АнглийскийАнглийский
Субтитры: русские, английские

Как за пару секунд удалить ненужные аудиодорожки и субтитры (Внимание! После удаления вы не сможете поддержать раздачу)

Лог (x265 info)
x265 [info]: frame I: 629, Avg QP:18.62 kb/s: 17854.66
x265 [info]: frame P: 19568, Avg QP:19.67 kb/s: 12795.61
x265 [info]: frame B: 130101, Avg QP:21.98 kb/s: 4086.01
x265 [info]: Weighted P-Frames: Y:12.6% UV:10.4%
x265 [info]: Weighted B-Frames: Y:12.0% UV:9.2%
x265 [info]: encoded 150298 frames in 101060.05s (1.49 fps), 5277.57 kb/s, Avg QP:21.67
Медиаинфо
Общее
Уникальный идентификатор : 156172718020276109664056942115708358672 (0x757DC57B553341845DB380329D0E5010)
Полное имя : \\.\Необыкновенная.история.на.Рождество.The.Man.Who.Invented.Christmas.2017.BDRip-HEVC.1080p.mkv
Формат : Matroska
Версия формата : Version 4
Размер файла : 4,74 Гбайт
Продолжительность : 1 ч. 44 м.
Общий поток : 6 497 Кбит/сек
Частота кадров : 23,976 кадра/сек
Название фильма : Необыкновенная история на Рождество / Необыкновенная история на Рождество
Кодирование произвёл : OldGamer
Тип содержимого : Movie
Описание : Как Чарльз Диккенс написал «Рождественскую песнь» и создал традицию
Дата выпуска : 2017-10-12
Дата записи : 2017-10-12
Программа кодирования : mkvmerge v82.0 ('I'm The President') 64-bit
Библиотека кодирования : libebml v1.4.5 + libmatroska v1.7.1
Обложка : Yes
Attachments : cover.jpg
ACTOR : Dan Stevens, Christopher Plummer, Jonathan Pryce, Justin Edwards, Morfydd Clark, Donald Sumpter, Miles Jupp, Simon Callow, Miriam Margolyes, Ian McNeice, Bill Paterson, John Henshaw, Annette Badland, Katie McGuinness, Pearse Kearney, Ger Ryan, Marcus...
ARTIST : Dan Stevens, Christopher Plummer, Jonathan Pryce, Justin Edwards, Morfydd Clark, Donald Sumpter, Miles Jupp, Simon Callow, Miriam Margolyes, Ian McNeice, Bill Paterson, John Henshaw, Annette Badland, Katie McGuinness, Pearse Kearney, Ger Ryan, Marcus...
DIRECTOR : Bharat Nalluri
GENRE : драма, история, комедия, семейный
IMDB : tt6225520
LAW_RATING : PG
PRODUCER : Niv Fichman, Vadim Jean, Ian Sharples, Susan Mullen, Robert Mickelson
PRODUCTION_STUDIO : Parallel Films
RATING : PG
SUMMARY : Как Чарльз Диккенс написал «Рождественскую песнь» и создал традицию
SYNOPSIS : После череды профессиональных неудач молодой писатель Чарльз Диккенс решает написать и на собственные средства выпустить «Рождественскую песнь».

Видео
Идентификатор : 1
Формат : HEVC
Формат/Информация : High Efficiency Video Coding
Профиль формата : Main 10@L4.1@High
Идентификатор кодека : V_MPEGH/ISO/HEVC
Продолжительность : 1 ч. 44 м.
Битрейт : 5 278 Кбит/сек
Ширина : 1 920 пикселей
Высота : 804 пикселя
Соотношение сторон : 2,39:1
Режим частоты кадров : Постоянный
Частота кадров : 23,976 (24000/1001) кадра/сек
Цветовое пространство : YUV
Субдискретизация насыщенности : 4:2:0
Битовая глубина : 10 бит
Бит/(Пиксели*Кадры) : 0.143
Размер потока : 3,85 Гбайт (81%)
Заголовок : The Man Who Invented Christmas / Rip by OldGamer
Библиотека кодирования : x265 3.5+110-8ee01d45b:[Windows][GCC 13.2.0][64 bit] 10bit
Настройки программы : cpuid=1111039 / frame-threads=3 / numa-pools=8 / wpp / no-pmode / no-pme / no-psnr / no-ssim / log-level=2 / input-csp=1 / input-res=1920x804 / interlace=0 / total-frames=150298 / level-idc=41 / high-tier=1 / uhd-bd=0 / ref=5 / no-allow-non-conformance / no-repeat-headers / annexb / no-aud / no-eob / no-eos / no-hrd / info / hash=0 / temporal-layers=0 / open-gop / min-keyint=23 / keyint=240 / gop-lookahead=0 / bframes=16 / b-adapt=2 / b-pyramid / bframe-bias=0 / rc-lookahead=60 / lookahead-slices=0 / scenecut=40 / no-hist-scenecut / radl=0 / no-splice / no-intra-refresh / ctu=32 / min-cu-size=8 / rect / amp / max-tu-size=32 / tu-inter-depth=4 / tu-intra-depth=4 / limit-tu=1 / rdoq-level=2 / dynamic-rd=0.00 / no-ssim-rd / signhide / no-tskip / nr-intra=0 / nr-inter=0 / no-constrained-intra / no-strong-intra-smoothing / max-merge=5 / limit-refs=3 / no-limit-modes / me=3 / subme=7 / merange=57 / temporal-mvp / no-frame-dup / no-hme / weightp / weightb / no-analyze-src-pics / deblock=-2:-2 / no-sao / no-sao-non-deblock / rd=6 / selective-sao=0 / no-early-skip / no-rskip / no-fast-intra / no-tskip-fast / no-cu-lossless / b-intra / no-splitrd-skip / rdpenalty=0 / psy-rd=2.00 / psy-rdoq=1.00 / no-rd-refine / no-lossless / cbqpoffs=0 / crqpoffs=0 / rc=crf / crf=20.9 / qcomp=0.60 / qpstep=4 / stats-write=0 / stats-read=0 / vbv-maxrate=50000 / vbv-bufsize=50000 / vbv-init=0.9 / min-vbv-fullness=50.0 / max-vbv-fullness=80.0 / crf-max=0.0 / crf-min=0.0 / ipratio=1.40 / pbratio=1.30 / aq-mode=1 / aq-strength=1.00 / no-cutree / zone-count=1 / zones: / start-frame=140816 / end-frame=150298 / qp=36 / no-strict-cbr / qg-size=32 / no-rc-grain / qpmax=69 / qpmin=0 / no-const-vbv / sar=1 / overscan=0 / videoformat=5 / range=0 / colorprim=2 / transfer=2 / colormatrix=2 / chromaloc=0 / display-window=0 / cll=0,0 / min-luma=0 / max-luma=1023 / log2-max-poc-lsb=8 / vui-timing-info / vui-hrd-info / slices=1 / no-opt-qp-pps / no-opt-ref-list-length-pps / no-multi-pass-opt-rps / scenecut-bias=0.00 / no-opt-cu-delta-qp / no-aq-motion / no-hdr10 / no-hdr10-opt / no-dhdr10-opt / no-idr-recovery-sei / analysis-reuse-level=0 / analysis-save-reuse-level=0 / analysis-load-reuse-level=0 / scale-factor=0 / refine-intra=0 / refine-inter=0 / refine-mv=1 / refine-ctu-distortion=0 / no-limit-sao / ctu-info=0 / no-lowpass-dct / refine-analysis-type=0 / copy-pic=1 / max-ausize-factor=1.0 / no-dynamic-refine / no-single-sei / no-hevc-aq / no-svt / no-field / qp-adaptation-range=1.00 / scenecut-aware-qp=0conformance-window-offsets / right=0 / bottom=0 / decoder-max-rate=0 / no-vbv-live-multi-pass / no-mcstf / no-sbrc
Язык : English
Default : Да
Forced : Нет

Аудио #1
Идентификатор : 2
Формат : AC-3
Формат/Информация : Audio Coding 3
Коммерческое название : Dolby Digital
Идентификатор кодека : A_AC3
Продолжительность : 1 ч. 44 м.
Вид битрейта : Постоянный
Битрейт : 384 Кбит/сек
Каналы : 6 каналов
Channel layout : L R C LFE Ls Rs
Частота : 48,0 КГц
Частота кадров : 31,250 кадров/сек (1536 SPF)
Метод сжатия : С потерями
Размер потока : 287 Мбайт (6%)
Заголовок : DUB (Pride Production / iTunes)
Язык : Russian
Service kind : Complete Main
Default : Да
Forced : Нет

Аудио #2
Идентификатор : 3
Формат : AC-3
Формат/Информация : Audio Coding 3
Коммерческое название : Dolby Digital
Идентификатор кодека : A_AC3
Продолжительность : 1 ч. 44 м.
Вид битрейта : Постоянный
Битрейт : 192 Кбит/сек
Каналы : 2 канала
Channel layout : L R
Частота : 48,0 КГц
Частота кадров : 31,250 кадров/сек (1536 SPF)
Метод сжатия : С потерями
Размер потока : 143 Мбайт (3%)
Заголовок : MVO (HDRezka Studio)
Язык : Russian
Service kind : Complete Main
Default : Нет
Forced : Нет

Аудио #3
Идентификатор : 4
Формат : AC-3
Формат/Информация : Audio Coding 3
Коммерческое название : Dolby Digital
Идентификатор кодека : A_AC3
Продолжительность : 1 ч. 44 м.
Вид битрейта : Постоянный
Битрейт : 640 Кбит/сек
Каналы : 6 каналов
Channel layout : L R C LFE Ls Rs
Частота : 48,0 КГц
Частота кадров : 31,250 кадров/сек (1536 SPF)
Метод сжатия : С потерями
Размер потока : 478 Мбайт (10%)
Язык : English
Service kind : Complete Main
Default : Нет
Forced : Нет

Текст #1
Идентификатор : 5
Формат : UTF-8
Идентификатор кодека : S_TEXT/UTF8
Идентификатор кодека/Информация : UTF-8 Plain Text
Продолжительность : 1 ч. 36 м.
Битрейт : 99 бит/сек
Частота кадров : 0,252 кадр/сек
Count of elements : 1469
Размер потока : 70,6 Кбайт (0%)
Заголовок : Кинопоиск HD
Язык : Russian
Default : Нет
Forced : Нет

Текст #2
Идентификатор : 6
Формат : UTF-8
Идентификатор кодека : S_TEXT/UTF8
Идентификатор кодека/Информация : UTF-8 Plain Text
Продолжительность : 1 ч. 37 м.
Битрейт : 63 бит/сек
Частота кадров : 0,242 кадр/сек
Count of elements : 1411
Размер потока : 45,5 Кбайт (0%)
Язык : English
Default : Нет
Forced : Нет

Меню
00:00:00.000 : en:00:00:00.000
00:05:06.014 : en:00:05:06.014
00:12:43.179 : en:00:12:43.179
00:17:12.740 : en:00:17:12.740
00:22:02.655 : en:00:22:02.655
00:25:10.843 : en:00:25:10.843
00:29:02.699 : en:00:29:02.699
00:33:22.542 : en:00:33:22.542
00:37:53.897 : en:00:37:53.897
00:41:50.258 : en:00:41:50.258
00:47:02.111 : en:00:47:02.111
00:51:23.205 : en:00:51:23.205
00:57:15.515 : en:00:57:15.515
01:05:34.764 : en:01:05:34.764
01:09:44.931 : en:01:09:44.931
01:15:32.153 : en:01:15:32.153
01:19:46.365 : en:01:19:46.365
01:27:44.009 : en:01:27:44.009
01:32:09.858 : en:01:32:09.858
01:37:57.872 : en:01:37:57.872
Загрузка...Cкриншот1 Необыкновенная история на Рождество / The Man Who Invented Christmas (2017) BDRip 1080p [HEVC] 10 bit от OldGamer (RG RIPS CLUB)Загрузка...Cкриншот2 Необыкновенная история на Рождество / The Man Who Invented Christmas (2017) BDRip 1080p [HEVC] 10 bit от OldGamer (RG RIPS CLUB)Загрузка...Cкриншот3 Необыкновенная история на Рождество / The Man Who Invented Christmas (2017) BDRip 1080p [HEVC] 10 bit от OldGamer (RG RIPS CLUB)Загрузка...Cкриншот4 Необыкновенная история на Рождество / The Man Who Invented Christmas (2017) BDRip 1080p [HEVC] 10 bit от OldGamer (RG RIPS CLUB)
Релиз-группа: RIPS CLUB
Сэмпл Торрент🧲 Магнет

Рейтинги КП и IMDB, кнопки "Позвать в чате" и "Спасибо", а также мультитрекерная статистика доступны только зарегистрированным/авторизованным пользователям!

Файлы: 1
  • Необыкновенная.история.на.Рождество.The.Man.Who.Invented.Christmas.2017.BDRip-HEVC.1080p.mkv   4.74 ГБ
Поблагодарили: 1
Winsent
OldGamer
070704.74 ГБ

Добавление нового комментария

Добавление комментариев доступно только зарегистрированным/авторизованным пользователям.